#TITLE:BUTTERFLY;
#SUBTITLE:;
#ARTIST:SMILE.dk;
#TITLETRANSLIT:;
#SUBTITLETRANSLIT:;
#ARTISTTRANSLIT:;
#CREDIT:;
#BANNER:BUTTERFLY.png;
#BACKGROUND:BUTTERFLY-bg.png;
#LYRICSPATH:BUTTERFLY.lrc;
#CDTITLE:./CDTITLES/DANCE MANIA 10.PNG;
#MUSIC:BUTTERFLY.mp3;
#OFFSET:-7.372;
#SAMPLESTART:28.700;
#SAMPLELENGTH:12.000;
#SELECTABLE:YES;
#DISPLAYBPM:135.000;
#BPMS:0.000=134.940;
#STOPS:;
#BGCHANGES:;
// cache tags:
#FIRSTBEAT:0.000;
#LASTBEAT:196.000;
#SONGFILENAME:Songs/toune/BUTTERFLY (PONYGONPWNS EDIT)/BUTTERFLY.sm;
#HASMUSIC:1;
#HASBANNER:1;
#MUSICLENGTH:96.235;
// end cache tags

//---------------dance-single - ----------------
#NOTES:
     dance-single:
     :
     Beginner:
     3:
     0.374,0.456,0.998,0.478,0.000,108.000,96.000,46.000,0.000,10.000:
1100
0110
0011
1001
,
0110
1100
1010
0101
,
1010
0011
0110
1100
,
1010
0101
1010
0101
,
0011
0110
1001
0202
,
0000
0000
1313
1010
,
0000
0101
0000
1100
,
0000
0000
1001
0012
,
0000
0000
1013
2000
,
0000
0000
3001
0002
,
0000
1003
0000
0101
,
0000
0000
1010
1010
,
0011
0011
0020
0000
,
0031
0000
1100
0000
,
0011
0000
1100
0000
,
0011
0000
0000
1100
,
0110
0110
0020
0000
,
1031
0000
1100
0000
,
0101
0000
1010
0000
,
0011
0000
0000
1100
,
0000
1001
0000
0011
,
0000
1001
0000
1100
,
0000
0011
0000
0101
,
0000
1010
0000
1001
,
0000
0000
1001
0202
,
0000
0000
1313
2020
,
0000
3031
0000
1100
,
0000
0000
0101
1001
,
0000
0000
1010
1001
,
0000
0000
0101
0011
,
0000
1010
0000
1001
,
0000
0000
1100
1001
,
0000
1010
0021
0000
,
0131
0000
1100
0000
,
0101
0000
1010
0000
,
0011
0000
0000
1010
,
0000
0010
0020
0000
,
0031
0000
1100
0000
,
0011
0000
1010
0000
,
1001
0000
0000
1100
,
0000
2020
3030
0220
,
0330
0022
0033
0220
,
0330
2020
3030
0022
,
0033
0222
0000
2333
,
0000
3220
0330
0022
,
0033
0220
0330
2020
,
3030
0220
0330
0022
,
0033
0000
0000
0000
0220
0000
0000
0000
0000
0000
0000
0330
2022
0000
0000
0000
,
0000
0000
0000
3033
;

//---------------dance-single - ----------------
#NOTES:
     dance-single:
     :
     Easy:
     5:
     0.490,0.509,1.000,0.260,0.042,169.000,129.000,25.000,49.000,15.000:
11MM
1MM1
MM11
M11M
,
1MM1
M1M1
1M1M
1MMM
,
MM1M
0000
0000
0000
0000
0000
0000
0000
0000
0000
0000
0000
0000
0000
0000
0000
MMM1
0000
0000
0000
0000
0000
0000
0000
0000
0000
0000
0000
0000
0000
0000
0000
MM1M
0000
0000
0000
0000
0000
0000
0000
0000
0000
0000
0000
0000
0000
0000
0000
1MMM
0000
0000
0000
0000
0000
00M0
0000
00M0
00M0
00M0
00M0
00M0
00M0
00M0
00M0
,
MM1M
MMM1
MMMM
M111
,
1001
0000
0101
1001
,
1001
0000
1001
1001
,
0000
0101
0110
1100
,
1010
0011
1100
1001
,
0101
0000
0011
1001
,
1100
0000
1010
1001
,
0000
0001
0100
1000
,
0010
0001
1000
1001
,
0000
1010
0010
1001
,
0011
0010
1000
0110
,
0010
1100
1000
0000
,
0011
1100
0110
0011
,
0000
1010
0110
1001
,
0101
0011
1000
0110
,
0010
1100
0001
0000
,
1010
0101
0011
0100
,
0101
1001
0110
1001
,
0110
1100
0110
1100
,
0110
0101
0101
0101
,
0101
1100
0110
1100
,
1001
0000
0011
1101
,
1001
0000
1010
1001
,
0000
0101
0110
1001
,
0110
1001
1001
1001
,
1001
0000
0011
1001
,
1100
0000
1010
1101
,
0000
0011
0101
1100
,
1010
0011
1100
1001
,
0000
1010
0011
1101
,
0011
1010
1001
0110
,
1010
0110
1001
0000
,
0101
1010
0101
1010
,
0000
0110
0011
1101
,
0011
0110
1001
0110
,
1010
0110
2002
3003
,
1010
0011
0110
1100
,
0000
0200
0301
0200
,
1300
0200
0301
0200
,
1300
0200
0301
0200
,
1010
1310
0200
1001
,
0300
0220
1330
0220
,
0331
0220
1330
0220
,
0331
0220
1330
0220
,
0331
1010
0110
2222
,
0000
0000
0000
0000
,
3333
0000
0000
0000
;

//---------------dance-single - ----------------
#NOTES:
     dance-single:
     :
     Medium:
     7:
     0.545,0.636,1.000,0.353,0.000,168.000,146.000,34.000,26.000,31.000:
11M1
1M11
M111
111M
,
11M1
1M11
M111
1M11
,
MM1M
MMM1
MM1M
1MMM
,
MM1M
MMM1
0000
0000
,
0110
0000
0110
2002
,
3113
0000
0110
1001
,
0000
0011
1100
1001
,
0110
0011
1100
1011
,
0110
0000
0110
1001
,
1010
0000
0110
1001
,
0000
0011
1100
1001
,
0110
0011
1001
1001
,
0000
2210
3311
1001
,
1001
0011
1010
1100
,
0110
1100
1101
0000
,
0011
1001
1100
0011
,
0000
0110
1010
1001
,
0101
0011
1010
1100
,
1010
0101
0101
0000
,
1010
0101
0011
1100
,
0110
1001
0110
1001
,
0101
1010
0101
1010
,
1100
0011
1100
0011
,
0101
1010
0101
1010
,
0110
0000
0110
1001
,
0110
0000
0110
1111
,
0000
0011
0101
1100
,
1010
0101
1010
1001
,
1010
0000
0110
1001
,
0110
0000
0110
1001
,
0000
0011
0100
1000
,
1010
0001
1010
1101
,
0000
1010
0011
1001
,
0101
0011
1010
1100
,
1010
0101
1100
0000
,
0101
1001
0110
0011
,
0000
1010
0110
1001
,
0011
0011
1100
1100
,
0110
0110
0101
0000
,
1010
0101
0011
1110
,
0000
2200
3301
0220
,
1330
2200
3301
0220
,
1330
2200
3301
0220
,
1330
2020
3130
1111
,
0000
0220
1330
0220
,
0331
0220
1330
0220
,
0331
0220
1330
0220
,
0331
1010
0110
2222
,
0000
0000
0000
0000
,
3333
0000
0000
0000
;

//---------------dance-single - ----------------
#NOTES:
     dance-single:
     :
     Hard:
     8:
     0.736,0.687,1.000,0.042,0.000,228.000,227.000,4.000,18.000,33.000:
11M1
M111
11M1
M111
,
11M1
M111
11M1
M111
,
11M1
M111
11M1
M111
,
11M1
0000
M111
0000
11M1
0000
M1MM
1010
,
1110
0000
0110
0000
1101
0000
1100
0110
,
0011
0000
0110
0000
1001
0000
0101
0110
,
1100
0000
0110
0000
0101
0000
0110
1001
,
0110
0000
0101
0000
1010
0000
0101
0011
,
0110
0000
1100
0000
1001
0000
0101
0110
,
0011
0000
0110
0000
1001
0000
1100
0110
,
1001
0000
0110
0000
1001
0000
0110
1001
,
0110
0000
1100
0000
0011
0000
1001
1101
,
1001
0000
0110
0000
1001
0000
1100
0110
,
0011
0011
1100
0000
,
0101
0000
1100
0000
1010
0110
0011
0000
,
0110
0000
1100
0000
0011
0000
0110
1100
,
0011
0000
0011
0000
1101
0000
0011
1100
,
0110
1010
0101
0000
,
1100
0000
0110
0000
0011
0110
1100
0000
,
0110
0000
0101
0000
1001
0000
0101
1010
,
1101
0000
1010
0000
0101
0000
0110
0101
,
1010
0000
0101
0000
0011
0000
0101
0011
,
1111
0000
1010
0000
1100
0000
0011
1100
,
0011
0000
1100
0000
0110
0000
0110
0011
,
1010
0000
0110
0000
1111
0000
1100
0110
,
0011
0000
0110
0000
1101
0000
0011
0110
,
1010
0000
1100
0000
0101
0000
0110
1001
,
0110
0000
1001
0000
1100
0000
0110
1001
,
0110
0000
0110
0000
1011
0000
1001
0110
,
0011
0000
0110
0000
1101
0000
1001
0110
,
1001
0000
0110
0000
1001
0000
0110
1001
,
0110
0000
1100
0000
0011
0000
1100
0011
,
1101
0000
1010
0000
1011
0000
1100
0110
,
0011
1011
1111
0000
,
1001
0000
0110
0000
1001
0110
0011
0000
,
1100
0000
1010
0000
0011
0000
1100
1100
,
0110
0000
0110
0000
1101
0000
0011
1100
,
0110
1011
0111
0000
,
1100
0000
0110
0000
0101
0011
1100
0000
,
0110
0000
1001
0000
1100
0000
0011
1100
,
1001
0000
0110
0000
1001
0000
0110
1001
,
0110
0000
1010
0000
0110
0000
1010
0110
,
0011
0000
1010
0000
0101
0000
0011
0101
,
0110
0000
1100
0000
1001
0000
1100
0011
,
1001
0000
1100
0000
1010
0000
0101
1010
,
0101
0000
0101
0000
0110
0000
1001
0110
,
1100
0000
0101
0000
1010
0000
0110
1100
,
0011
0101
1010
2222
,
0000
0000
0000
0000
,
3333
0000
0000
0000
;

//---------------dance-single - ----------------
#NOTES:
     dance-single:
     :
     Challenge:
     11:
     1.000,0.967,1.000,0.114,0.239,328.000,326.000,11.000,44.000,40.000:
MMMM
1111
MMMM
MMMM
,
1111
MMMM
MMMM
MMMM
,
1111
MMMM
MMMM
MMMM
,
MMMM
0000
1111
0000
MMMM
0000
0110
0110
,
1010
0000
0000
0110
1001
0000
1010
0000
0110
0000
0000
0000
2202
0000
0000
3303
,
0101
0000
0000
1100
0110
0000
0110
0000
0011
0000
1100
0000
1110
0000
0000
0000
,
0110
1001
0000
0000
0011
1100
0000
0000
0110
1100
0000
0000
1001
0110
0000
0000
,
0110
1100
0110
0011
0110
1100
0111
0000
,
0011
0000
0000
1100
0011
0000
1100
0000
0011
0000
0000
0000
1110
0000
0000
0000
,
0101
0000
0000
0011
0110
0000
1100
0000
1001
0000
0011
0000
0111
0000
0000
0000
,
0101
1100
0000
0000
1010
1100
0000
0000
0110
1001
0000
0000
0011
1100
0000
0000
,
1010
0101
0011
1100
0011
1100
0111
0000
,
1021
0000
1100
0000
1031
0000
1001
0110
,
1001
0110
1001
0110
1001
1010
1101
0000
,
1010
1010
0000
0000
0101
0000
0101
0000
1010
0101
0000
0000
1010
0000
1010
0000
,
0101
1010
1100
0011
0101
1100
0111
0000
,
1201
0000
1010
0000
1301
0000
1100
0011
,
1100
0110
1001
0110
1010
0101
1011
0000
,
1100
0011
0000
0000
1100
0000
1010
0000
0101
1100
0000
0000
0011
0000
1001
0000
,
1100
0110
1001
0110
1100
0011
1110
0000
,
1010
0000
1100
0000
1010
0000
0101
1100
0000
0110
1001
0000
0110
0000
1100
0000
,
1001
0000
0110
0000
1001
0000
0110
0101
0000
0101
0011
0000
1010
0000
0101
0000
,
1010
0000
1001
0000
1100
0000
0011
1001
0000
0101
1010
0000
0101
0000
1001
0000
,
1010
0000
0110
0000
0011
0000
1100
0011
0000
1100
0011
0000
1100
0000
0011
0000
,
1100
0000
0000
0110
1100
0000
0011
0000
1100
0000
0000
0000
0111
0000
0011
0000
,
1100
0000
0000
0011
1100
0000
0110
0000
1010
0000
1001
0000
0111
0000
0000
0000
,
0110
1001
0000
0000
1100
0011
0000
0000
1010
0101
0000
0000
1001
0110
0000
0000
,
1100
0011
1100
1010
1100
0011
1110
0110
,
1100
0000
0000
0011
1100
0000
0011
0000
1100
0000
0000
0000
0111
0000
1100
0000
,
0110
0000
0000
1001
0110
0000
1010
0000
0101
0000
1001
0000
1110
0000
0000
0000
,
1010
0001
0100
0000
1001
0011
0000
0000
0110
1001
0000
0000
1100
0110
0000
0000
,
0101
1010
0101
0101
1100
0110
1110
0000
,
1210
0000
1001
0000
1310
0000
1100
0101
,
1010
1010
0101
0011
1100
0011
1101
0000
,
1100
0011
0000
0000
0110
0000
0011
0000
0110
1100
0000
0000
1010
0000
0110
0000
,
1010
0101
1001
0110
1100
0011
1110
0000
,
1021
0000
1001
0000
1130
0000
0011
1010
,
0011
0101
1100
0101
0101
1010
1101
0000
,
0110
1010
0000
0000
1100
0000
0110
0000
1010
0101
0000
0000
1100
0000
0110
0000
,
0101
0011
1100
0110
1001
0101
1110
0110
,
1010
0000
0000
0101
1100
0000
0011
0000
1010
0000
0110
0000
0101
0000
0110
0000
,
1001
0000
0000
1100
0011
0000
1100
0000
0011
0000
1100
0000
0110
0000
0011
0000
,
1100
0000
0000
0011
0110
0000
1100
0000
1010
0000
0101
0000
0011
0000
1100
0000
,
0011
1100
0011
1100
0101
1100
0111
0000
,
0011
0000
0000
1100
0011
0000
1100
0000
0011
0000
1100
0000
0110
0000
0011
0000
,
1100
0000
0000
0110
1100
0000
0011
0000
0110
0000
1100
0000
0101
0000
0110
0000
,
1001
0000
0000
1100
0011
0000
1100
0000
0011
0000
1100
0000
1010
0000
1100
0000
,
0110
0011
1100
1101
1101
0000
2222
0000
,
0000
0000
0000
0000
,
3333
0000
0000
0000
;
