#TITLE:Hybrid Brute;
#SUBTITLE:;
#ARTIST:Kommisar;
#TITLETRANSLIT:;
#SUBTITLETRANSLIT:;
#ARTISTTRANSLIT:;
#CREDIT:Mad Matt;
#BANNER:../Tachyon Delta-bn.png;
#BACKGROUND:../Tachyon Delta-bg.png;
#LYRICSPATH:;
#CDTITLE:;
#MUSIC:Hybrid Brute.ogg;
#OFFSET:0.027;
#SAMPLESTART:42.672;
#SAMPLELENGTH:12.000;
#SELECTABLE:YES;
#DISPLAYBPM:225.000;
#BPMS:0.000=225.000;
#STOPS:;
#BGCHANGES:;
// cache tags:
#FIRSTBEAT:16.000;
#LASTBEAT:368.000;
#SONGFILENAME:Songs/Tachyon Delta/Hybrid Brute - [Mad Matt]/Hybrid Brute.sm;
#HASMUSIC:1;
#HASBANNER:1;
#MUSICLENGTH:99.186;
// end cache tags

//---------------dance-single - Mad Matt----------------
#NOTES:
     dance-single:
     Mad Matt:
     Challenge:
     16:
     1.000,1.000,0.010,0.504,1.000,993.000,1.000,50.000,0.000,0.000:

0000
0000
0000
0000
,
0000
0000
0000
0000
,
0000
0000
0000
0000
,
0000
0000
0000
0000
,
1000
0001
1000
0020
0000
0130
0002
0000
,
1003
0000
0100
0000
1000
0000
0100
0000
0010
0000
0001
0000
0010
0100
1000
0001
,
1000
0001
0100
0020
0000
0130
0001
0001
,
2000
0000
0000
0000
0000
0000
0000
0000
3040
0000
0000
0000
0130
0001
0100
0001
,
1000
0100
1000
0001
0100
0001
0100
0010
1000
0001
1000
0100
1000
0001
0100
0010
,
1000
0001
1000
0100
1000
0001
0100
0001
1000
0000
0020
0000
0000
0000
0130
0000
,
0001
1000
0100
1000
0001
0010
0001
1000
0010
1000
0001
0100
0010
1000
0001
1000
,
0100
1000
0001
0100
0001
1000
0010
0100
0002
0000
0000
0000
2003
0000
0000
0000
,
3001
0010
0001
1000
0010
1000
0010
0100
0001
1000
0001
0010
0001
1000
0100
1000
,
0001
0010
0001
1000
0001
1000
0010
0100
0002
0000
0000
0000
0023
0000
0000
0000
,
0130
1000
0100
0010
0001
1000
0001
1000
0010
0100
0001
1000
0001
0010
0001
1000
,
0200
0000
0010
0000
0010
0000
0310
0000
0001
1000
0001
0000
1000
0100
1000
0001
,
0100
0010
1000
0010
1000
0001
1000
0001
0010
0001
1000
0010
1000
0001
0100
0001
,
1000
0100
1000
0001
0010
0001
1000
0010
0100
0000
0002
0000
0000
0000
1003
0000
,
0100
0010
0100
1000
0001
1000
0001
0100
0001
1000
0010
0100
0001
1000
0001
1000
,
0100
1000
0001
0100
0001
1000
0010
1000
0002
0000
0000
0000
0023
0000
0000
0000
,
0130
1000
0001
1000
0010
1000
0001
0100
0001
1000
0010
1000
0001
0100
0001
1000
,
0100
0010
0100
1000
0001
1000
0001
0100
0020
0000
0000
0000
2030
0000
0000
0000
,
3001
0010
0001
1000
0100
1000
0100
0010
0001
1000
0001
1000
0010
1000
0001
0100
,
0010
1000
0100
1000
0001
0100
0001
0010
0100
1000
0010
1000
0001
0010
0100
1000
,
0001
0100
0100
0001
1000
1000
0001
0100
,
0100
0001
1000
0100
0010
0010
0001
0001
,
1000
0010
0010
1000
0001
0001
1000
0010
,
0010
1000
0001
0010
0200
0000
2300
0000
,
3001
0010
0010
0100
1000
1000
0001
0010
,
0010
0100
1000
0001
0100
0100
0010
0010
,
1000
0010
0010
0100
0001
0001
1000
0010
,
0010
0000
0100
0000
0001
0000
1000
0000
0200
0000
0000
0000
0310
0001
0010
0001
,
1000
0100
0010
0001
0100
0010
1000
0100
,
0010
0001
0100
0010
2000
0000
3002
0000
,
0023
0000
0000
0230
0000
0000
0000
0000
,
1300
0100
0010
0001
1000
0010
1000
0001
1000
0001
0010
0100
1000
0001
0100
0001
,
1000
0100
0010
0001
0100
0010
1000
0100
,
0010
0001
0100
0010
2000
0000
3002
0000
,
0203
0000
0000
0000
,
0301
1000
0010
0100
0001
1000
0001
1000
0100
1000
0100
0010
0001
1000
0010
1000
,
0001
0100
0010
1000
0100
0010
0001
0100
,
0010
1000
0100
0010
0002
0000
2003
0000
,
3020
0000
0000
0230
0000
0000
0000
0000
,
0301
0100
0010
1000
0001
0010
0001
1000
0001
1000
0010
0100
0001
1000
0100
1000
,
0001
0100
0010
1000
0100
0010
0001
0100
,
0010
1000
0100
0010
0002
0000
2003
0000
,
3200
0000
0000
0000
,
1300
0001
0010
0100
1000
0001
1000
0001
0100
0001
0100
0010
1000
0001
1000
0001
,
0010
0100
0010
0001
1000
0010
0100
0002
,
0000
0000
0000
0000
0000
0000
0000
0000
1003
0100
1000
0100
0010
0100
1000
0001
,
1000
0010
1000
0001
0010
0001
0010
0100
1000
0001
1000
0010
1000
0001
0010
0100
,
1000
0001
1000
0010
1000
0001
0010
0001
1000
0000
0200
0000
0000
0000
0310
0000
,
0001
1000
0010
1000
0001
0100
0001
1000
0100
1000
0001
0010
0100
1000
0001
1000
,
0010
1000
0001
0010
0001
1000
0100
0010
0002
0000
0000
0000
2003
0000
0000
0000
,
3001
0100
0001
1000
0100
1000
0100
0010
0001
1000
0001
0100
0001
1000
0010
1000
,
0001
0100
0001
1000
0001
1000
0100
0010
0002
0000
0000
0000
0203
0000
0000
0000
,
0310
1000
0010
0100
0001
1000
0001
1000
0100
0010
0001
1000
0001
0100
0001
1000
,
0020
0000
0100
0000
0100
0000
0130
0000
0001
1000
0001
0000
1000
0010
1000
0001
,
0010
0100
1000
0100
1000
0001
1000
0001
0100
0001
1000
0100
1000
0001
0010
0001
,
1000
0010
1000
0001
0100
0001
1000
0100
0010
0000
0002
0000
0000
0000
1003
0000
,
0010
0100
0010
1000
0001
1000
0001
0010
0001
1000
0100
0010
0001
1000
0001
1000
,
0010
1000
0001
0010
0001
1000
0100
1000
0002
0000
0000
0000
0203
0000
0000
0000
,
0310
1000
0001
1000
0100
1000
0001
0010
0001
1000
0100
1000
0001
0010
0001
1000
,
0010
0100
0010
1000
0001
1000
0001
0010
0200
0000
0000
0000
2300
0000
0000
0000
,
3001
0010
0001
1000
0010
1000
0010
0100
0001
1000
0001
1000
0100
1000
0001
0010
,
0100
1000
0010
1000
0001
0010
0001
0100
0010
1000
0100
1000
0001
0100
0010
1000
,
0001
0100
0001
1000
0100
1000
0001
1000
0010
0100
0001
0100
0001
1000
0100
1000
,
0001
0010
0100
1000
0001
1000
0010
1000
0001
0100
0001
1000
0100
1000
0001
1000
,
0001
0010
0100
0010
0001
1000
0100
1000
0010
1000
0001
0100
0001
1000
0100
1000
,
0001
0100
0010
1000
0010
1000
0001
0010
0001
1000
0100
1000
0001
1000
0010
1000
,
0001
0010
0100
1000
0001
0010
0100
1000
0001
0010
0100
1000
0001
0010
0100
1000
,
0001
0100
0010
1000
0010
1000
0001
1000
0001
0010
0100
0010
0001
1000
0010
1000
,
0001
0100
0010
1000
0001
0100
0010
1000
0001
0100
0010
1000
0001
0100
0010
1000
,
0002
0000
0010
0000
0010
0000
0013
0000
0001
1000
0001
0000
0010
0100
0010
0001
,
1000
0100
1000
0001
0100
0001
1000
0001
0010
0100
1000
0100
1000
0001
0100
0001
,
1000
0010
0100
0001
1000
0001
0010
0001
1000
0100
1000
0001
0100
0001
1000
0001
,
1000
0010
0100
0010
1000
0001
0100
0001
0010
0001
1000
0100
1000
0001
0100
0001
,
1000
0100
0010
0001
0010
0001
1000
0010
1000
0001
0100
0001
1000
0001
0010
0001
,
1000
0010
0100
0001
1000
0010
0100
0001
1000
0010
0100
0001
1000
0010
0100
0001
,
1000
0100
0010
0001
0010
0001
1000
0001
1000
0010
0100
0010
1000
0001
0010
0001
,
1000
0100
0010
0001
1000
0100
0010
0001
1000
0100
0010
0001
1000
0100
0010
0001
,
2000
0000
0010
0000
0010
0000
3010
0000
0100
0001
0100
0000
0001
1000
0100
1000
,
0001
0010
0010
0001
1000
1000
0001
0010
,
0010
0001
1000
0010
0100
0100
0001
0001
,
1000
0100
0100
1000
0001
0001
1000
0100
,
0100
1000
0001
0100
0020
0000
2030
0000
,
3001
0100
0100
0010
1000
1000
0001
0100
,
0100
0010
1000
0001
0010
0010
0100
0100
,
1000
0100
0100
0010
0001
0001
1000
0100
,
0100
0000
0010
0000
0001
0000
1000
0000
0020
0000
0000
0000
0130
0001
0100
0001
,
1000
0100
0010
0001
0100
0010
1000
0200
,
0000
0000
0000
0000
0000
0000
0000
0000
1300
0100
1000
0100
0010
0100
1000
0001
,
0100
0000
0000
0000
;
