#TITLE:Galaxy Banging;
#SUBTITLE:;
#ARTIST:DJ Sharpnel;
#TITLETRANSLIT:;
#SUBTITLETRANSLIT:;
#ARTISTTRANSLIT:;
#CREDIT:Prolix;
#BANNER:galaxy banging bn.png;
#BACKGROUND:galaxy banging bg.png;
#LYRICSPATH:;
#CDTITLE:;
#MUSIC:galaxy.ogg;
#OFFSET:-1.282;
#SAMPLESTART:41.861;
#SAMPLELENGTH:19.669;
#SELECTABLE:YES;
#BPMS:0.000=195.220;
#STOPS:;
#BGCHANGES:;
// cache tags:
#FIRSTBEAT:30.500;
#LASTBEAT:652.000;
#SONGFILENAME:Songs/SHARPNELSTREAMZ v2/Galaxy Banging/galaxy.sm;
#HASMUSIC:1;
#HASBANNER:1;
#MUSICLENGTH:206.053;
// end cache tags

//---------------dance-single - 16- (Prolix)----------------
#NOTES:
     dance-single:
     16- (Prolix):
     Challenge:
     16:
     1.000,1.000,0.189,0.160,1.000,1999.000,39.000,33.000,16.000,0.000:
0000
0000
0000
0000
,
0000
0000
0000
0000
,
0000
0000
0000
0000
,
0000
0000
0000
0000
,
0000
0000
0000
0000
,
0000
0000
0000
0000
,
0000
0000
0000
0000
,
0000
0000
0000
0000
0000
0000
0000
0000
0000
0000
0000
0000
0000
0000
0000
00M0
00M0
00M0
00M0
00M0
00M0
00M0
00M0
00M0
,
00M1
1000
0001
1000
0010
0100
0001
0010
0001
0010
0100
1000
0010
0100
0010
0100
,
0001
1000
0100
0010
0100
0010
0001
1000
0010
0000
1000
0000
0001
0000
1000
0000
,
0001
0010
0001
0010
0100
1000
0010
0100
0010
0100
0001
1000
0100
0010
0100
0010
,
0001
1000
0001
0100
0001
0100
0010
1000
0100
0000
1000
0000
0001
0000
1000
0000
,
0001
0100
0001
0100
0010
1000
0100
0010
0100
0010
0001
1000
0010
0100
0010
0100
,
0001
1000
0001
0010
0001
0010
0100
1000
0010
0000
1000
0000
0001
0000
1000
0000
,
0100
0010
0100
0010
0400
4300
3001
0100
0010
0000
0100
0000
0001
0000
1000
0000
,
0001
0000
1000
0000
0100
0010
0100
0010
0001
1000
0010
1000
0100
1000
0001
0100
,
0001
1000
0001
1000
0100
0010
0001
0100
0001
0100
0010
1000
0001
0010
0001
0010
,
0100
1000
0010
0100
0010
0100
0001
1000
0100
0000
0100
0000
0010
0000
0010
0000
,
0001
0100
0001
0100
0010
1000
0100
0010
0100
0010
0001
1000
0010
0100
0010
0100
,
0001
1000
0001
0010
0001
0010
0100
1000
0010
0000
1000
0000
0001
0000
0001
0000
,
1000
0100
1000
0100
0010
0001
0100
0010
0100
0010
1000
0001
0010
0100
0010
0100
,
1000
0001
1000
0010
1000
0010
0100
0001
0010
0000
0010
0000
0001
0000
0001
0000
,
1000
0010
1000
0010
0100
0001
0010
0100
0010
0100
1000
0001
0100
0010
0100
0010
,
1000
0001
1000
0100
1000
0100
0010
0001
0100
0010
0100
0001
1000
0000
0001
1000
,
0100
0010
0100
0010
0001
1000
0001
0100
0001
0100
0010
1000
0001
0010
0001
0010
,
0100
1000
0010
0100
0010
0100
0001
1000
0100
0000
0100
0000
0010
0000
0010
0000
,
0001
0100
0001
0100
0010
1000
0100
0010
0100
0010
0001
1000
0010
0100
0010
0100
,
0001
1000
0001
0010
0001
0010
0100
1000
0010
0000
1000
0000
0001
0000
0001
0000
,
0010
0001
0010
0001
1000
0100
1000
0010
1000
0010
0100
0001
0010
0100
0010
0100
,
1000
0001
0100
0010
0100
0010
1000
0001
0010
0000
0010
0000
0001
0000
0001
0000
,
0100
0001
0100
0001
1000
0010
1000
0100
1000
0100
0010
0001
0100
0010
0100
0010
,
1000
0001
0010
0100
0010
0100
1000
0001
0100
0010
1000
0001
1000
0100
0010
0001
,
M100
0010
0100
0010
0400
0304
1003
0100
0010
0000
0100
0000
1000
0000
0001
0000
,
1001
0000
1001
0000
0201
0300
0110
0020
,
1030
0001
0010
0001
1002
0003
1010
0000
,
1100
0000
0011
0001
1000
0010
1000
0200
,
0310
0100
0010
0001
0200
0300
1010
1000
,
1001
0000
1001
0000
0021
0030
0110
0200
,
1300
0001
0100
0001
1002
0003
1100
0000
,
1010
0000
0101
0001
1000
0100
1000
0020
,
0130
0000
0010
0000
0100
0000
0001
0000
0020
0130
0000
0100
1000
0000
0001
1000
,
0001
0000
1001
0000
1020
0030
0110
0200
,
0301
1000
0100
1000
2001
3000
0101
0000
,
0011
0000
1100
1000
0001
0100
0001
0020
,
0130
0010
0100
1000
0020
0030
0101
0001
,
1001
0000
1001
0000
1200
0300
0110
0020
,
0031
1000
0010
1000
2001
3000
0011
0000
,
0101
0000
1010
1000
0001
0010
0001
0200
,
0301
1000
0001
0010
0100
0010
0100
1000
0010
0100
0001
1000
0001
0010
0100
1000
,
0MM1
1000
0010
1000
0001
0100
0001
1000
0010
1000
0001
1000
0100
0010
0100
1000
,
0001
1000
0100
1000
0001
0010
0001
1000
0100
1000
0001
1000
0010
0100
0010
1000
,
0001
0100
0010
0100
0001
1000
0001
0100
0010
0100
0001
1000
0100
0010
0100
1000
,
0001
0010
0100
0010
0001
1000
0001
0010
0100
0010
0001
1000
0010
0100
0001
0010
,
0100
1000
0001
0010
0001
1000
0100
1000
0001
0010
0001
1000
0010
1000
0001
0100
,
0010
1000
0001
0100
0001
1000
0010
1000
0001
0100
0001
1000
0100
1000
0001
0010
,
0100
0010
0001
1000
0001
0010
0100
0010
0001
1000
0100
1000
0001
0100
0001
1000
,
0010
1000
0001
0010
0001
0100
0010
1000
0100
0000
0000
0010
0000
0000
0004
4003
,
3100
0010
0100
1000
0001
0100
0010
1000
0001
0010
0001
0100
0001
1000
0010
1000
,
0001
0010
0001
1000
0010
0100
0001
1000
0100
1000
0010
1000
0001
0100
0001
1000
,
0010
0100
0010
1000
0001
0010
0100
1000
0001
0100
0001
0010
0001
1000
0100
1000
,
0001
0100
0001
1000
0100
0010
0001
1000
0010
1000
0001
1000
0100
0010
0001
0100
,
0010
0100
0010
1000
0001
0010
0100
1000
0001
0100
0001
0010
0001
1000
0100
1000
,
0001
0100
0001
1000
0100
0010
0001
1000
0010
1000
0100
1000
0001
0010
0001
1000
,
0100
0010
0100
1000
0001
0100
0010
1000
0001
0010
0001
0100
0001
1000
0010
1000
,
0001
0000
1000
0000
0100
0000
1000
0000
0010
0000
0000
0100
0000
0000
0001
0000
,
1000
0001
0010
0001
0100
0010
1000
0001
0010
0001
0100
0001
1000
0010
1000
0001
,
0010
0001
1000
0010
1000
0100
0010
0001
1000
0010
1000
0100
0010
0001
1000
0100
,
1000
0001
0100
0001
0010
0100
1000
0001
0100
0001
0010
0001
1000
0100
1000
0001
,
0100
0001
1000
0100
1000
0010
0100
0001
1000
0100
1000
0010
0100
0010
1000
0100
,
1000
0001
0100
0001
0010
0100
1000
0001
0100
0001
0010
0001
1000
0100
1000
0001
,
0100
0001
1000
0100
1000
0010
0100
0001
1000
0100
1000
0010
0100
0001
1000
0010
,
1000
0001
0010
0001
0100
0010
1000
0001
0010
0001
0100
0001
1000
0010
1000
0001
,
0010
0001
1000
0010
1000
0100
0010
0001
1000
0010
1000
0100
1000
0001
0100
0001
,
1000
0001
1000
0010
1000
0100
0010
0001
1000
0010
1000
0100
0010
0001
1000
0010
,
0100
0001
1000
0100
1000
0010
0100
0001
1000
0100
1000
0010
0100
0001
1000
0100
,
0010
0100
0010
0001
0100
0010
1000
0001
0010
0001
0100
0010
1000
0001
0010
0100
,
1000
0001
0100
0001
0010
0100
1000
0001
0100
0001
1000
0100
0010
0100
1000
0010
,
1000
0001
1000
0100
1000
0010
0100
0001
1000
0100
1000
0010
0100
0001
1000
0100
,
0010
0001
1000
0010
1000
0100
0010
0001
1000
0010
1000
0100
0010
0001
1000
0010
,
0100
0010
0100
0001
0010
0100
1000
0001
0100
0001
0010
0100
1000
0001
0100
0010
,
0100
0001
0010
0100
1000
0010
0100
0001
1000
0100
1000
0010
1000
0001
0040
0430
,
2300
3001
0100
0001
0010
0001
1000
0010
0100
0001
0010
0100
1000
0001
1000
0010
,
1000
0001
0010
0001
0100
0001
1000
0100
0010
0001
0100
0010
1000
0001
1000
0100
,
0010
0001
1000
0010
1000
0100
1000
0001
0100
0010
1000
0100
1000
0001
1000
0010
,
0100
0001
1000
0100
1000
0010
1000
0001
0100
0010
1000
0100
0010
0100
1000
0010
,
1000
0001
0010
0001
0100
0001
1000
0100
0010
0001
0100
0010
1000
0001
1000
0100
,
1000
0001
0100
0001
0010
0001
1000
0010
0100
0001
0010
0100
1000
0001
1000
0010
,
0100
0001
1000
0100
1000
0010
1000
0001
0010
0100
1000
0010
1000
0001
1000
0100
,
0010
0001
1000
0010
1000
0100
0010
0001
0100
0001
1000
0001
0010
0001
1000
0010
,
0100
0001
1000
0001
0010
0100
0010
0001
1000
0001
0100
0010
1000
0001
0010
0001
,
1000
0010
0100
0001
0010
0001
0010
0100
1000
0001
1000
0001
1000
0010
0100
0001
,
0010
0100
0010
0001
0100
0001
1000
0010
1000
0001
1000
0001
1000
0100
0010
0001
,
0100
0010
0100
0001
0010
0001
0010
0100
1000
0001
1000
0001
1000
0010
0100
0001
,
0010
0100
0010
0001
0100
0001
1000
0100
0010
0001
0100
0001
1000
0001
1000
0010
,
1000
0001
0100
0001
0010
0001
1000
0010
0100
0001
0010
0100
1000
0001
1000
0010
,
1000
0001
0010
0001
0100
0001
1000
0100
0010
0001
0100
0010
1000
0001
1000
0100
,
0010
0001
0100
0010
1000
0100
0010
0001
1000
0010
1000
0001
0010
0001
0100
0001
,
2MM0
0000
3000
0000
0100
0000
0010
0000
0001
0000
0000
0001
0000
0000
0200
0000
,
0300
0001
0000
1000
0200
0300
0010
0000
,
0002
0003
0000
1000
0001
0100
0001
0020
,
0030
0000
0010
0000
0000
0000
0001
0000
0100
0000
0010
1000
0100
1000
0001
0100
,
0002
0000
0003
0000
0010
0000
0100
0000
2000
0000
3001
0100
0001
0000
0020
0000
,
0031
1000
0010
1000
0200
0310
0001
0000
,
2000
0000
3000
0000
0010
0000
1000
0000
0001
0000
1000
0100
1000
0000
0020
0000
,
0130
0000
0001
0000
0100
0000
0001
0000
0020
0000
0130
1000
0010
1000
0001
0010
,
0001
0000
0000
0010
0000
0000
0001
0000
1000
0000
0000
0010
0000
0000
1000
0000
,
0001
0000
0000
0100
0000
0000
0001
0000
0010
0000
0000
0100
0000
0000
1000
0000
,
0001
0000
0000
0100
0000
0000
0001
0000
1000
0000
0000
0100
0000
0000
1000
0000
,
0001
0000
0000
0010
0000
0000
0001
0000
0100
0000
0000
0010
0000
0000
1000
0000
,
0001
0000
0000
0010
0000
0000
0001
0000
1000
0000
0000
0010
0000
0000
1000
0000
,
0100
0000
0000
1000
0000
0000
0100
0000
0010
0000
0000
0100
0000
0000
1000
0000
,
0001
0100
0010
1000
1000
0001
0010
0010
,
0100
1000
0001
0100
0001
0100
0010
1000
0001
0010
0001
1000
0001
0100
0010
1000
,
0100
0010
0100
0010
0400
4300
3001
0100
0010
0000
0100
0001
1000
0001
0010
0000
,
0001
0000
0100
0000
0001
0000
1000
0000
0100
0000
0010
0100
1000
0000
0001
0000
,
0100
0001
1000
0001
0010
0100
0010
0001
,
1000
0000
0010
0000
1000
0000
0001
0000
0010
0000
0100
0010
0001
0000
1000
0000
,
0010
1000
0001
1000
0100
1000
0010
0010
,
1000
0000
0100
0000
1000
0000
0001
0000
0100
0000
0010
0100
0001
0000
1000
0000
,
0100
1000
0001
1000
0010
0100
0010
1000
,
0001
0000
0010
0000
0001
0000
1000
0000
0010
0000
0100
0010
1000
0000
0001
0000
,
0010
0000
0001
0000
1000
0000
0001
0000
0100
0010
0000
0010
1000
0000
0001
1000
,
0001
0000
0010
0000
0001
0000
1000
0000
0010
0000
0100
0010
1000
0000
0001
0000
,
0010
0001
1000
0001
0100
0010
0100
0001
,
1000
0000
0100
0000
1000
0000
0001
0000
0100
0000
0010
0100
0001
0000
1000
0000
,
0100
1000
0001
1000
0010
1000
0100
0100
,
1000
0000
0010
0000
1000
0000
0001
0000
0010
0000
0100
0010
0001
0000
1000
0000
,
0010
1000
0001
1000
0100
0010
0100
1000
,
0001
0000
0100
0000
0001
0000
1000
0000
0100
0000
0010
0100
1000
0000
0001
0000
,
1000
0001
1000
0010
0100
0010
0100
0001
0010
0100
1000
0001
1000
0010
0100
0001
,
0010
0100
0010
0100
1000
0001
1000
0001
0010
0001
0100
0010
0100
0001
1000
0100
,
1000
0100
0010
0001
0010
0001
1000
0100
1000
0001
0100
0001
1000
0001
0010
0001
,
0100
0010
0100
0010
1000
0001
1000
0001
0100
0001
0010
0100
0010
0001
1000
0010
,
1000
0010
0100
0001
0100
0001
1000
0010
1000
0001
0010
0001
0100
0010
1000
0100
,
1000
0001
1000
0001
0010
0100
0010
0100
1000
0100
1000
0010
0100
0001
1000
0100
,
1000
0100
0010
0001
0010
0001
1000
0100
1000
0001
0100
0001
1000
0001
0010
0001
,
0100
0010
0100
0010
1000
0001
1000
0001
0100
0001
0010
0100
1000
0001
1000
0010
,
1000
0010
0100
0001
0100
0001
1000
0010
1000
0100
1000
0001
0100
0001
0010
0001
,
0100
0010
0100
0010
1000
0001
1000
0001
0100
0001
0010
0100
1000
0001
0100
0001
,
1000
0100
0010
0001
0100
0001
0100
0010
1000
0001
1000
0001
1000
0100
0010
0001
,
0100
0010
0100
0001
0010
0001
1000
0100
1000
0001
1000
0001
1000
0010
0100
0001
,
0010
0100
0010
0001
0100
0001
0100
0010
1000
0001
1000
0001
1000
0100
0010
0001
,
0100
0010
0100
0010
1000
0001
1000
0001
0100
0001
0010
0100
0010
0001
1000
0010
,
1000
0010
0100
0001
0100
0001
1000
0010
1000
0001
0010
0001
1000
0001
0100
0001
,
0010
0100
0010
0100
1000
0001
1000
0001
0010
0001
0100
0010
1000
0001
1000
0100
,
1000
0100
0010
0001
0010
0001
1000
0100
1000
0010
1000
0001
0010
0001
0100
0001
,
M010
0100
0010
0100
1000
0001
1000
0001
0010
0001
0100
0010
1000
0001
0010
0001
,
1000
0010
0100
0001
0010
0001
0010
0100
1000
0001
1000
0001
1000
0010
0100
0001
,
0010
0100
0010
0001
0100
0001
1000
0010
1000
0001
1000
0001
1000
0100
0010
0001
,
0100
0010
0100
0001
0010
0001
0010
0100
1000
0001
1000
0001
1000
0010
0100
0001
,
0010
0100
0010
0100
1000
0001
1000
0001
0010
0001
0100
0010
0100
0001
1000
0100
,
1000
0100
0010
0001
0010
0001
1000
0100
1000
0001
0100
0001
1000
0001
0010
0001
,
0100
0010
0100
0010
1000
0001
1000
0001
0100
0001
0010
0100
1000
0001
0100
0001
,
0100
0001
1000
0010
1000
0010
0100
0001
0010
0000
0001
1000
0010
1000
0004
4003
,
3100
0010
0100
0010
0001
1000
0001
1000
0100
1000
0010
0100
0001
1000
0100
1000
,
0001
0100
0010
1000
0100
1000
0100
0010
0001
1000
0001
1000
0001
0100
0010
1000
,
0100
0010
0100
1000
0010
1000
0001
0100
0001
1000
0001
1000
0001
0010
0100
1000
,
0010
0100
0010
1000
0100
1000
0100
0010
0001
1000
0001
1000
0001
0100
0010
1000
,
0100
0010
0100
0010
0001
1000
0001
1000
0100
1000
0010
0100
0010
1000
0001
0010
,
0001
0010
0100
1000
0100
1000
0001
0010
0001
1000
0010
1000
0001
1000
0100
1000
,
0010
0100
0010
0100
0001
1000
0001
1000
0010
1000
0100
0010
0001
1000
0010
1000
,
0100
1000
0001
0100
0001
0010
0100
1000
0001
0100
0010
1000
0100
1000
0001
0100
,
0002
0000
0000
0000
,
0003
0000
0000
0000
;

//---------------dance-single - 15 (Prolix)----------------
#NOTES:
     dance-single:
     15 (Prolix):
     Hard:
     15:
     1.000,1.000,0.194,0.160,1.000,1855.000,40.000,33.000,16.000,0.000:
0000
0000
0000
0000
,
0000
0000
0000
0000
,
0000
0000
0000
0000
,
0000
0000
0000
0000
,
0000
0000
0000
0000
,
0000
0000
0000
0000
,
0000
0000
0000
0000
,
0000
0000
0000
0000
0000
0000
0000
0000
0000
0000
0000
0000
0000
0000
0000
00M0
00M0
00M0
00M0
00M0
00M0
00M0
00M0
00M0
,
10M1
1000
0100
0010
0010
0001
1000
1000
,
0010
0100
0100
0001
0010
0001
1000
0001
,
0100
0100
0010
1000
1000
0001
0010
0010
,
0100
1000
1000
0001
0100
0001
1000
0001
,
0010
0010
0100
1000
1000
0001
0100
0100
,
0010
1000
1000
0001
0010
0001
1000
0001
,
0100
0010
0100
0010
0400
0304
1003
0100
0010
0000
0100
0000
1000
0000
0001
0000
,
1000
0000
0001
0000
0100
0000
0100
0000
0000
0000
0010
1000
0100
1000
0001
0100
,
0001
0001
0010
0100
0100
1000
0001
0001
,
0100
0010
0010
1000
0100
0100
0010
0010
,
0001
0001
1000
0010
0010
0100
0001
0001
,
1000
0100
0100
1000
0010
1000
0001
0001
,
0010
0010
0100
1000
1000
0001
0100
0100
,
0010
1000
1000
0001
0010
0010
0001
0001
,
0100
0100
0010
1000
1000
0001
0010
0010
,
0100
0000
1000
0000
1000
0000
0001
0000
0100
0010
0000
0010
1000
0000
0001
1000
,
0100
0100
0010
0001
0001
1000
0010
0010
,
0100
0001
0001
1000
0100
0100
0010
0010
,
0001
0001
1000
0010
0010
0100
0001
0001
,
1000
0100
0100
1000
0010
1000
0001
0001
,
0010
0010
0100
1000
1000
0001
0100
0100
,
0010
1000
1000
0001
0010
0010
0001
0001
,
0100
0100
0001
1000
1000
0100
0010
0010
,
0001
1000
0100
0010
0100
0010
0001
1000
0010
1000
0001
0100
0001
1000
0100
1000
,
001M
0100
0010
0100
0040
4030
3001
0010
0100
0000
0010
0000
0001
0000
1000
0000
,
1001
0000
1001
0000
1020
0030
0110
0100
,
0002
1003
0100
1000
2001
3000
0101
0000
,
0011
0000
1100
1000
0001
0100
0001
0010
,
0200
0310
0100
1000
0020
0030
0101
0001
,
1001
0000
1001
0000
1200
0300
0110
0010
,
0002
1003
0010
1000
2001
3000
0011
0000
,
0101
0000
1010
1000
0001
0010
0001
0100
,
0020
0000
0130
0000
0010
0000
1000
0000
0200
0310
0000
0010
0001
0000
1000
0001
,
1000
0000
1001
0000
0201
0300
0110
0010
,
2000
3001
0010
0001
1002
0003
1010
0000
,
1100
0000
0011
0001
1000
0010
1000
0100
,
0020
0130
0010
0001
0200
0300
1010
1000
,
1001
0000
1001
0000
0021
0030
0110
0100
,
2000
3001
0100
0001
1002
0003
1100
0000
,
1010
0000
0101
0001
1000
0100
1000
0020
,
1030
0001
1000
0100
0010
0100
0010
0001
0100
0010
1000
0001
0010
0100
1000
0001
,
1MM0
0001
0100
0001
1000
0010
1000
0001
0100
0001
1000
0001
0010
0100
0010
0001
,
1000
0001
0010
0001
1000
0100
1000
0001
0010
0001
1000
0001
0100
0010
0100
0001
,
1000
0010
0100
0010
1000
0001
1000
0010
0100
0010
1000
0001
0010
0100
0010
0001
,
1000
0100
0010
0100
1000
0001
1000
0100
0010
0100
1000
0001
0100
0010
1000
0100
,
0010
0001
1000
0100
1000
0001
0010
0001
1000
0100
1000
0001
0100
0001
1000
0010
,
0100
0001
1000
0010
1000
0001
0100
0001
1000
0010
1000
0001
0010
0001
1000
0100
,
0010
0100
1000
0001
1000
0100
0010
0100
1000
0001
0010
0001
1000
0010
1000
0001
,
0100
0001
1000
0100
1000
0010
0100
0001
0010
0000
0000
0100
0000
0000
4000
3004
,
0103
0010
0100
0001
1000
0100
0010
0100
1000
0001
0100
0010
1000
0001
0100
0001
,
1000
0010
1000
0001
0010
0001
1000
0100
1000
0001
0100
0001
0100
0010
1000
0001
,
0100
0010
0100
0001
1000
0100
0010
0100
1000
0001
0100
0010
1000
0001
0100
0001
,
1000
0010
1000
0001
0010
0001
1000
0100
1000
0001
0100
0001
1000
0010
1000
0100
,
0010
0100
0010
0001
1000
0010
0100
0010
1000
0001
0010
0100
1000
0001
0010
0001
,
1000
0100
1000
0001
0100
0001
1000
0010
1000
0001
0010
0001
0010
0100
1000
0001
,
0010
0100
0010
0001
1000
0010
0100
0010
1000
0001
0010
0100
1000
0001
0010
0001
,
1000
0000
0001
0000
0100
0000
0001
0000
0010
0000
0000
0100
0000
0000
1000
0000
,
0001
0100
0010
1000
0001
0010
0001
1000
0100
1000
0001
0100
0010
0100
0001
1000
,
0010
0100
0001
1000
0001
0010
0100
1000
0001
1000
0010
0100
0001
0100
0010
1000
,
0001
0100
0010
1000
0001
0010
0001
1000
0100
1000
0001
0100
0010
0100
0001
1000
,
0010
0100
0001
1000
0001
0010
0100
1000
0001
1000
0010
1000
0001
0100
0001
0010
,
0100
0010
0001
1000
0010
1000
0001
0100
0001
1000
0100
1000
0001
0010
0100
1000
,
0001
1000
0100
1000
0001
0100
0001
1000
0010
1000
0001
0010
0100
1000
0001
0010
,
0100
0010
0001
1000
0010
1000
0001
0100
0001
1000
0100
1000
0001
0010
0100
1000
,
0001
1000
0100
1000
0001
0100
0010
0100
0001
0010
0001
0100
0001
1000
0100
1000
,
0001
0010
0100
1000
0001
0100
0001
1000
0010
1000
0001
0010
0100
0010
0001
1000
,
0100
0010
0001
1000
0001
0100
0010
1000
0001
1000
0100
0010
0001
0010
0100
1000
,
0001
0010
0100
1000
0001
0100
0001
1000
0010
1000
0001
0010
0100
0010
0001
1000
,
0100
0010
0001
1000
0001
0100
0010
1000
0001
1000
0100
1000
0001
0010
0001
0100
,
0010
0100
0001
1000
0100
1000
0001
0010
0001
1000
0010
1000
0001
0100
0010
1000
,
0001
1000
0010
1000
0001
0010
0001
1000
0100
1000
0001
0100
0010
1000
0001
0100
,
0010
0100
0001
1000
0100
1000
0001
0010
0001
1000
0010
1000
0001
0100
0010
1000
,
0100
1000
0001
0100
0001
0010
0100
1000
0010
0000
0000
0100
0000
0000
0004
4003
,
3020
0130
0001
1000
0001
0010
0001
1000
0100
1000
0001
0010
0100
1000
0001
1000
,
0100
0010
0001
1000
0010
0100
0010
1000
0001
1000
0010
0100
0010
1000
0001
1000
,
0100
0010
0001
1000
0001
0100
0001
1000
0010
1000
0001
0100
0010
1000
0001
1000
,
0010
0100
0001
1000
0100
0010
0100
1000
0001
1000
0100
1000
0001
0100
0001
0010
,
0100
0010
0001
1000
0001
0100
0001
1000
0010
1000
0001
0100
0010
1000
0001
1000
,
0010
0100
0001
1000
0100
0010
0100
1000
0001
1000
0100
0010
0100
1000
0001
1000
,
0010
0100
0001
1000
0001
0010
0001
1000
0100
1000
0001
0010
0100
1000
0001
1000
,
0010
0100
0001
1000
0100
0010
0100
1000
0010
1000
0001
1000
0100
1000
0001
0100
,
0010
1000
0001
1000
0100
0010
0100
1000
0001
1000
0010
0100
0001
1000
0100
1000
,
0001
0100
0010
1000
0100
1000
0100
0010
0001
1000
0001
1000
0001
0100
0010
1000
,
0100
0010
0100
1000
0010
1000
0001
0100
0001
1000
0001
1000
0001
0010
0100
1000
,
0010
0100
0010
1000
0100
1000
0100
0010
0001
1000
0001
1000
0001
0100
0010
1000
,
0100
0010
0001
1000
0001
0100
0001
1000
0010
1000
0001
0010
0100
1000
0001
1000
,
0010
0100
0001
1000
0100
0010
0100
1000
0001
1000
0010
0100
0010
1000
0001
1000
,
0100
0010
0001
1000
0001
0100
0001
1000
0010
1000
0001
0010
0100
1000
0001
1000
,
0100
1000
0010
1000
0001
0010
0100
1000
0001
0100
0001
1000
0100
1000
0010
1000
,
0MM2
0000
0003
0000
0010
0000
0100
0000
1000
0000
0000
1000
0000
0000
0020
0000
,
0030
1000
0000
0001
0020
0030
0100
0000
,
2000
3000
0000
0001
1000
0010
1000
0200
,
0300
0000
0100
0000
0000
0000
1000
0000
0010
0000
0100
0001
0010
0001
1000
0010
,
2000
0000
3000
0000
0100
0000
0010
0000
0002
0000
1003
0010
1000
0000
0200
0000
,
1300
0001
0100
0001
0020
0130
1000
0000
,
0002
0000
0003
0000
0100
0000
0001
0000
1000
0000
0001
0010
0001
0000
0200
0000
,
0310
0000
1000
0000
0010
0000
1000
0000
0200
0000
0310
0001
0100
0001
1000
0100
,
1000
0000
0000
0100
0000
0000
1000
0000
0001
0000
0000
0100
0000
0000
0001
0000
,
1000
0000
0000
0010
0000
0000
1000
0000
0100
0000
0000
0010
0000
0000
0001
0000
,
1000
0000
0000
0010
0000
0000
1000
0000
0001
0000
0000
0010
0000
0000
0001
0000
,
1000
0000
0000
0100
0000
0000
1000
0000
0010
0000
0000
0100
0000
0000
0001
0000
,
1000
0000
0000
0100
0000
0000
1000
0000
0001
0000
0000
0100
0000
0000
0001
0000
,
0010
0000
0000
0001
0000
0000
0010
0000
0100
0000
0000
0010
0000
0000
0001
0000
,
1000
0010
0100
0001
0001
1000
0100
0100
,
0010
0001
1000
0010
1000
0010
0100
0001
1000
0100
1000
0001
1000
0010
0100
0001
,
0010
0100
0010
0100
0040
0034
1003
0010
0100
0000
0010
1000
0001
1000
0100
0000
,
1000
0000
0010
0000
1000
0000
0001
0000
0010
0000
0100
0010
0001
0000
1000
0000
,
0010
1000
0001
1000
0100
0010
0100
1000
,
0001
0000
0100
0000
0001
0000
1000
0000
0100
0000
0010
0100
1000
0000
0001
0000
,
0100
0001
1000
0001
0010
0001
0100
0100
,
0001
0000
0010
0000
0001
0000
1000
0000
0010
0000
0100
0010
1000
0000
0001
0000
,
0010
0001
1000
0001
0100
0010
0100
0001
,
1000
0000
0100
0000
1000
0000
0001
0000
0100
0000
0010
0100
0001
0000
1000
0000
,
0100
0000
1000
0000
0001
0000
1000
0000
0010
0100
0000
0100
0001
0000
1000
0001
,
1000
0000
0100
0000
1000
0000
0001
0000
0100
0000
0010
0100
0001
0000
1000
0000
,
0100
1000
0001
1000
0010
0100
0010
1000
,
0001
0000
0010
0000
0001
0000
1000
0000
0010
0000
0100
0010
1000
0000
0001
0000
,
0010
0001
1000
0001
0100
0001
0010
0010
,
0001
0000
0100
0000
0001
0000
1000
0000
0100
0000
0010
0100
1000
0000
0001
0000
,
0100
0001
1000
0001
0010
0100
0010
0001
,
1000
0000
0010
0000
1000
0000
0001
0000
0010
0000
0100
0010
0001
0000
1000
0000
,
0001
1000
0001
0100
0010
0100
0010
1000
0100
0010
0001
1000
0001
0100
0010
1000
,
0100
0010
0100
0010
0001
1000
0001
1000
0100
1000
0010
0100
0010
1000
0001
0010
,
0001
0010
0100
1000
0100
1000
0001
0010
0001
1000
0010
1000
0001
1000
0100
1000
,
0010
0100
0010
0100
0001
1000
0001
1000
0010
1000
0100
0010
0100
1000
0001
0100
,
0001
0100
0010
1000
0010
1000
0001
0100
0001
1000
0100
1000
0010
0100
0001
0010
,
0001
1000
0001
1000
0100
0010
0100
0010
0001
0010
0001
0100
0010
1000
0001
0010
,
0001
0010
0100
1000
0100
1000
0001
0010
0001
1000
0010
1000
0001
1000
0100
1000
,
0010
0100
0010
0100
0001
1000
0001
1000
0010
1000
0100
0010
0001
1000
0001
0100
,
0001
0100
0010
1000
0010
1000
0001
0100
0001
0010
0001
1000
0010
1000
0100
1000
,
0010
0100
0010
0100
0001
1000
0001
1000
0010
1000
0100
0010
0001
1000
0010
1000
,
0001
0010
0100
1000
0010
1000
0010
0100
0001
1000
0001
1000
0001
0010
0100
1000
,
0010
0100
0010
1000
0100
1000
0001
0010
0001
1000
0001
1000
0001
0100
0010
1000
,
0100
0010
0100
1000
0010
1000
0010
0100
0001
1000
0001
1000
0001
0010
0100
1000
,
0010
0100
0010
0100
0001
1000
0001
1000
0010
1000
0100
0010
0100
1000
0001
0100
,
0001
0100
0010
1000
0010
1000
0001
0100
0001
1000
0100
1000
0001
1000
0010
1000
,
0100
0010
0100
0010
0001
1000
0001
1000
0100
1000
0010
0100
0001
1000
0001
0010
,
0001
0010
0100
1000
0100
1000
0001
0010
0001
0100
0001
1000
0100
1000
0010
1000
,
010M
0010
0100
0010
0001
1000
0001
1000
0100
1000
0010
0100
0001
1000
0100
1000
,
0001
0100
0010
1000
0100
1000
0100
0010
0001
1000
0001
1000
0001
0100
0010
1000
,
0100
0010
0100
1000
0010
1000
0001
0100
0001
1000
0001
1000
0001
0010
0100
1000
,
0010
0100
0010
1000
0100
1000
0100
0010
0001
1000
0001
1000
0001
0100
0010
1000
,
0100
0010
0100
0010
0001
1000
0001
1000
0100
1000
0010
0100
0010
1000
0001
0010
,
0001
0010
0100
1000
0100
1000
0001
0010
0001
1000
0010
1000
0001
1000
0100
1000
,
0010
0100
0010
0100
0001
1000
0001
1000
0010
1000
0100
0010
0001
1000
0010
0000
,
0000
0000
0010
0000
0000
0000
0010
0000
1000
0000
0001
1000
0010
1000
0004
4003
,
3100
0010
0100
0010
0001
1000
0001
1000
0100
1000
0010
0100
0001
1000
0100
1000
,
0001
0100
0010
1000
0100
1000
0100
0010
0001
1000
0001
1000
0001
0100
0010
1000
,
0100
0010
0100
1000
0010
1000
0001
0100
0001
1000
0001
1000
0001
0010
0100
1000
,
0010
0100
0010
1000
0100
1000
0100
0010
0001
1000
0001
1000
0001
0100
0010
1000
,
0100
0010
0100
0010
0001
1000
0001
1000
0100
1000
0010
0100
0010
1000
0001
0010
,
0001
0010
0100
1000
0100
1000
0001
0010
0001
1000
0010
1000
0001
1000
0100
1000
,
0010
0100
0010
0100
0001
1000
0001
1000
0010
1000
0100
0010
0001
1000
0010
1000
,
0100
1000
0001
0100
0001
0010
0100
1000
0001
0100
0010
1000
0100
1000
0001
0100
,
0002
0000
0000
0000
,
0003
0000
0000
0000
;

//---------------dance-single - 15 (CTalon)----------------
#NOTES:
     dance-single:
     15 (CTalon):
     Edit:
     15:
     1.000,1.000,0.165,0.049,1.000,1729.000,34.000,10.000,14.000,0.000:
0000
0000
0000
0000
,
0000
0000
0000
0000
,
0000
0000
0000
0000
,
0000
0000
0000
0000
,
0000
0000
0000
0000
,
0000
0000
0000
0000
,
0000
0000
0000
0000
,
0000
0000
0000
0000
0000
0000
0000
0000
0000
0000
0000
0000
0000
0000
0000
00M0
00M0
00M0
00M0
00M0
00M0
00M0
00M0
00M0
,
1001
1000
0100
0010
0010
0001
1000
1000
,
0010
0100
0100
0001
0010
0001
1000
0001
,
0100
0100
0010
1000
1000
0001
0010
0010
,
0100
1000
1000
0001
0100
0001
1000
0001
,
0010
0010
0100
1000
1000
0001
0100
0100
,
0010
1000
1000
0001
0010
0001
1000
0001
,
0100
0010
0100
0010
0100
0001
1000
0100
0010
0000
0100
0000
1000
0000
0001
0000
,
1000
0000
0001
0000
0100
0000
0100
0000
0000
0000
0010
1000
0100
1000
0001
0100
,
0001
0001
0010
0100
0100
1000
0001
0001
,
0100
0010
0010
1000
0100
0100
0010
0010
,
0001
0001
1000
0010
0010
0100
0001
0001
,
1000
0100
0100
1000
0010
1000
0001
0001
,
0010
0010
0100
1000
1000
0001
0100
0100
,
0010
1000
1000
0001
0010
0010
0100
0100
,
1000
1000
0001
0100
0100
0010
1000
1000
,
0001
0000
0010
0000
0010
0000
0100
0000
1000
0001
0000
0001
0100
0000
0100
0010
,
1000
1000
0100
0010
0010
0001
0100
0100
,
0010
1000
1000
0001
0010
0010
0100
0100
,
1000
1000
0001
0100
0100
0010
1000
1000
,
0001
0010
0010
0001
0100
0001
1000
1000
,
0100
0100
0010
0001
0001
1000
0010
0010
,
0100
0001
0001
1000
0100
0100
0010
0010
,
0001
0001
1000
0010
0010
0100
0001
0001
,
1000
0001
0010
0100
0010
0100
1000
0001
0100
0001
1000
0010
1000
0001
0010
0001
,
M100
0010
0100
0010
0100
0001
1000
0100
0010
0000
0100
0000
1000
0000
0001
0000
,
1001
0000
1001
0000
1020
0030
0110
0100
,
0000
0001
1000
0001
0011
0000
1001
0000
,
0101
0000
1010
1000
0001
0010
0100
1000
,
0000
1000
0000
1000
0010
0000
1010
1000
,
1001
0000
1001
0000
0021
0030
0110
0100
,
0000
1000
0001
1000
1010
0000
1001
0000
,
1100
0000
0011
0001
1000
0010
0100
0001
,
0000
0000
0001
0000
0000
0000
0001
0000
0010
0100
0000
0100
1000
0000
0001
1000
,
0001
0000
1001
0000
0201
0300
0110
0010
,
1000
0001
1000
0001
0011
0000
1001
0000
,
0101
0000
1010
1000
0001
0010
0100
1000
,
0001
1000
0100
1000
0010
0000
1010
1000
,
1001
0000
1001
0000
0021
0030
0110
0100
,
0010
0001
1000
0001
0101
0000
1001
0000
,
0011
0000
1100
1000
0001
0100
0010
1000
,
0001
1000
0001
0010
0100
0010
0100
1000
0010
1000
0001
1000
0100
0010
0001
1000
,
0MM1
1000
0001
0100
0001
0000
0010
0100
1000
0001
0100
0000
0010
0000
1000
0100
,
0010
0001
0010
0001
1000
0000
0010
0100
0001
1000
0001
0000
0010
0000
0100
0010
,
0001
1000
0001
0100
0010
0000
1000
0100
1000
0001
0010
0000
0001
0000
0100
0010
,
1000
0001
0010
0100
1000
0000
0001
0100
0010
1000
0010
0000
0100
0001
1000
0001
,
1000
0100
0010
0100
0010
0000
0001
1000
0001
0100
0010
0000
1000
0000
0001
0100
,
0010
1000
0010
1000
0001
0000
0010
0100
1000
0100
1000
0000
0001
0000
0100
0001
,
1000
0100
0010
0100
1000
0000
0001
0100
0010
1000
0001
0000
0010
0000
0100
1000
,
0001
1000
0010
0100
0010
0000
1000
0001
0010
0000
0000
0100
0000
0000
1000
0000
,
0001
1000
0001
0100
0001
0000
0010
0100
1000
0001
0100
0000
0010
0000
1000
0100
,
0010
0001
0010
0001
1000
0000
0010
0100
0001
1000
0001
0000
0010
0000
0100
0010
,
0001
1000
0001
0100
0010
0000
1000
0100
1000
0001
0010
0000
0001
0000
0100
0010
,
1000
0001
0010
0100
1000
0000
0001
0100
0010
1000
0010
0000
0100
0001
1000
0001
,
1000
0100
0010
0100
0010
0000
0001
1000
0001
0100
0010
0000
1000
0000
0001
0100
,
0010
1000
0010
1000
0001
0000
0010
0100
1000
0100
1000
0000
0001
0000
0100
0001
,
1000
0100
0010
0100
1000
0000
0001
0100
0010
1000
0001
0000
0010
0000
0100
1000
,
0001
1000
0010
0100
0010
0000
1000
0001
0010
0000
0000
0100
0000
0000
1000
0000
,
0001
1000
0001
0010
0001
0000
0100
0010
1000
0001
0010
0000
0100
0000
1000
0010
,
0100
0001
0100
0001
1000
0000
0100
0010
0001
1000
0001
0000
0100
0000
0010
0100
,
0001
1000
0001
0010
0100
0000
1000
0010
1000
0001
0100
0000
0001
0000
0010
0100
,
1000
0001
0100
0010
1000
0000
0001
0010
0100
1000
0100
0000
0010
0001
1000
0001
,
1000
0010
0100
0010
0100
0000
0001
1000
0001
0010
0100
0000
1000
0000
0001
0010
,
0100
1000
0100
1000
0001
0000
0100
0010
1000
0010
1000
0000
0001
0000
0010
0001
,
1000
0010
0100
0010
1000
0000
0001
0010
0100
1000
0001
0000
0100
0000
0010
1000
,
0001
1000
0100
0010
0100
0000
1000
0001
0100
0000
0000
0010
0000
0000
1000
0000
,
0001
1000
0001
0010
0001
0000
0100
0010
1000
0001
0010
0000
0100
0000
1000
0010
,
0100
0001
0100
0001
1000
0000
0100
0010
0001
1000
0001
0000
0100
0000
0010
0100
,
0001
1000
0001
0010
0100
0000
1000
0010
1000
0001
0100
0000
0001
0000
0010
0100
,
1000
0001
0100
0010
1000
0000
0001
0010
0100
1000
0100
0000
0010
0001
1000
0001
,
1000
0010
0100
0010
0100
0000
0001
1000
0001
0010
0100
0000
1000
0000
0001
0010
,
0100
1000
0100
1000
0001
0000
0100
0010
1000
0010
1000
0000
0001
0000
0010
0001
,
1000
0010
0100
0010
1000
0000
0001
0010
0100
1000
0001
0000
0100
0000
0010
1000
,
0001
1000
0100
0010
0100
0000
1000
0001
0100
0000
0000
0010
0000
0000
1000
0000
,
0001
1000
0010
1000
0100
1000
0001
0100
0010
1000
0100
0010
0001
1000
0001
0100
,
0001
1000
0100
1000
0010
1000
0001
0010
0100
1000
0010
0100
0001
1000
0001
0010
,
0100
1000
0001
0100
0001
0010
0001
1000
0010
0100
0001
0010
0001
1000
0001
0100
,
0010
1000
0001
0010
0001
0100
0001
1000
0010
0100
0001
0010
0100
0010
0001
0100
,
0001
1000
0100
1000
0010
1000
0001
0010
0100
1000
0010
0100
0001
1000
0001
0010
,
0001
1000
0010
1000
0100
1000
0001
0100
0010
1000
0100
0010
0001
1000
0001
0100
,
0010
1000
0001
0010
0001
0100
0001
1000
0100
0010
0001
0100
0001
1000
0001
0010
,
0100
1000
0001
0100
0001
0010
0100
1000
0010
1000
0001
1000
0100
1000
0001
0100
,
0001
1000
0100
1000
0010
1000
0001
0010
0100
1000
0010
0100
0001
1000
0100
0010
,
0001
0100
0010
1000
0100
1000
0001
1000
0010
1000
0001
1000
0100
1000
0010
0100
,
0001
0010
0100
1000
0010
1000
0001
1000
0100
1000
0001
1000
0010
1000
0100
0010
,
0001
0100
0010
1000
0100
1000
0001
1000
0010
0100
0001
0010
0100
0010
0001
0100
,
0001
1000
0100
1000
0010
1000
0001
0010
0100
1000
0010
0100
0001
1000
0100
0010
,
0001
1000
0010
1000
0100
1000
0001
0100
0010
1000
0100
0010
0001
1000
0001
0100
,
0010
1000
0001
0010
0001
0100
0001
1000
0100
0010
0001
0100
0001
1000
0001
0010
,
0100
1000
0010
0100
0001
0010
0100
1000
0001
0100
0001
1000
0100
1000
0010
1000
,
0MM2
0000
0003
0000
0010
0000
0100
0000
1000
0000
0000
1000
0000
0000
0010
0000
,
0000
1000
0000
0001
0010
0000
0100
0000
,
2000
3000
0000
0001
1000
0010
0100
0001
,
0000
0000
0001
0000
0000
0000
0001
0000
0010
0000
0100
1000
0010
1000
0001
0010
,
0002
0000
0003
0000
0100
0000
0010
0000
1000
0000
0001
0010
0001
0000
0100
0000
,
0001
1000
0100
1000
0010
0100
0001
0000
,
2000
0000
3000
0000
0100
0000
1000
0000
0001
0000
0100
0010
0100
0000
0001
0000
,
1000
0000
0001
0000
0010
0000
0001
0000
0100
0000
0010
1000
0100
1000
0001
0100
,
0002
0000
0003
0100
0000
0000
0001
0000
1000
0000
0000
0100
0000
0000
1000
0000
,
0010
0000
0000
1000
0000
0000
0010
0000
0100
0000
0000
0001
0000
0000
1000
0000
,
0001
0000
0000
0010
0000
0000
0001
0000
1000
0000
0000
0010
0000
0000
1000
0000
,
0100
0000
0000
1000
0000
0000
0100
0000
0010
0000
0000
0001
0000
0000
1000
0000
,
0001
0000
0000
0100
0000
0000
0001
0000
1000
0000
0000
0100
0000
0000
1000
0000
,
0010
0000
0000
1000
0000
0000
0010
0000
0100
0000
0000
0001
0000
0000
1000
0000
,
0001
0001
0010
0100
0100
1000
0001
0001
,
0010
0001
1000
0010
1000
0010
0100
0001
1000
0100
0010
0001
1000
0010
1000
0001
,
0010
0100
0010
0100
0010
0001
1000
0010
0100
0000
0010
1000
0001
1000
0100
0000
,
1000
0000
0010
0000
1000
0000
0001
0000
0010
0000
0100
0010
0001
0000
1000
0000
,
0010
1000
0001
1000
0100
0010
0100
1000
,
0001
0000
0100
0000
0001
0000
1000
0000
0100
0000
0010
0100
1000
0000
0001
0000
,
0100
0001
1000
0001
0010
0001
0100
0100
,
0001
0000
0010
0000
0001
0000
1000
0000
0010
0000
0100
0010
1000
0000
0001
0000
,
0010
0001
1000
0001
0100
0010
0100
0001
,
1000
0000
0100
0000
1000
0000
0001
0000
0100
0000
0010
0100
0001
0000
1000
0000
,
0100
0000
1000
0000
0001
0000
1000
0000
0010
0100
0000
0100
0001
0000
1000
0001
,
1000
0000
0100
0000
1000
0000
0001
0000
0100
0000
0010
0100
0001
0000
1000
0000
,
0100
1000
0001
1000
0010
0100
0010
1000
,
0001
0000
0010
0000
0001
0000
1000
0000
0010
0000
0100
0010
1000
0000
0001
0000
,
0010
0001
1000
0001
0100
0001
0010
0010
,
0001
0000
0100
0000
0001
0000
1000
0000
0100
0000
0010
0100
1000
0000
0001
0000
,
0100
0001
1000
0001
0010
0100
0010
0001
,
1000
0000
0010
0000
1000
0000
0001
0000
0010
0000
0100
0010
0001
0000
1000
0000
,
0001
1000
0001
0100
0010
0100
0010
1000
0100
1000
0001
1000
0010
0100
0001
1000
,
0001
1000
0001
0100
0001
0000
0010
0100
1000
0001
0100
0000
0010
0000
1000
0100
,
0010
0001
0010
0001
1000
0000
0010
0100
0001
1000
0001
0000
0010
0000
0100
0010
,
0001
1000
0001
0100
0010
0000
1000
0100
1000
0001
0010
0000
0001
0000
0100
0010
,
1000
0001
0010
0100
1000
0000
0001
0100
0010
1000
0010
0000
0100
0001
1000
0001
,
1000
0100
0010
0100
0010
0000
0001
1000
0001
0100
0010
0000
1000
0000
0001
0100
,
0010
1000
0010
1000
0001
0000
0010
0100
1000
0100
1000
0000
0001
0000
0100
0001
,
1000
0100
0010
0100
1000
0000
0001
0100
0010
1000
0001
0000
0010
0000
0100
1000
,
0001
1000
0010
0100
0010
0000
1000
0001
0010
0000
0000
0100
0000
0000
1000
0000
,
0001
1000
0001
0010
0001
0000
0100
0010
1000
0001
0010
0000
0100
0000
1000
0010
,
0100
0001
0100
0001
1000
0000
0100
0010
0001
1000
0001
0000
0100
0000
0010
0100
,
0001
1000
0001
0010
0100
0000
1000
0010
1000
0001
0100
0000
0001
0000
0010
0100
,
1000
0001
0100
0010
1000
0000
0001
0010
0100
1000
0100
0000
0010
0001
1000
0001
,
1000
0010
0100
0010
0100
0000
0001
1000
0001
0010
0100
0000
1000
0000
0001
0010
,
0100
1000
0100
1000
0001
0000
0100
0010
1000
0010
1000
0000
0001
0000
0010
0001
,
1000
0010
0100
0010
1000
0000
0001
0010
0100
1000
0001
0000
0100
0000
0010
1000
,
0001
1000
0100
0010
0100
0000
1000
0001
0100
0000
0000
0010
0000
0000
1000
0000
,
0001
1000
0100
1000
0010
1000
0001
0010
0100
1000
0010
0100
0001
1000
0100
0010
,
0001
0100
0010
1000
0100
1000
0001
1000
0010
1000
0001
1000
0100
1000
0010
0100
,
0001
0010
0100
1000
0010
1000
0001
1000
0100
1000
0001
1000
0010
1000
0100
0010
,
0001
0100
0010
1000
0100
1000
0001
1000
0010
1000
0001
0100
0001
0010
0001
1000
,
0001
0100
0010
1000
0100
1000
0001
1000
0010
1000
0001
0010
0001
0100
0001
1000
,
0100
0010
0001
1000
0010
1000
0001
0010
0100
1000
0010
0100
0001
1000
0001
0010
,
0100
1000
0001
0100
0001
0010
0001
1000
0010
0100
0001
0100
0010
1000
0001
0010
,
0001
0010
0100
1000
0100
1000
0001
1000
0010
0000
0100
0001
0010
0001
1000
0010
,
1000
0001
0010
0001
0100
0001
1000
0100
0010
0001
0100
0010
1000
0001
0010
0100
,
1000
0010
0100
0001
0010
0001
1000
0001
0100
0001
1000
0001
0010
0001
0100
0010
,
1000
0100
0010
0001
0100
0001
1000
0001
0010
0001
1000
0001
0100
0001
0010
0100
,
1000
0010
0100
0001
0010
0001
1000
0001
0100
0001
1000
0010
1000
0100
1000
0001
,
1000
0010
0100
0001
0010
0001
1000
0001
0100
0001
1000
0100
1000
0010
1000
0001
,
0010
0100
1000
0001
0100
0001
1000
0100
0010
0001
0100
0010
1000
0001
1000
0100
,
0010
0001
1000
0010
1000
0100
1000
0001
0100
0010
1000
0010
0100
0001
1000
0100
,
0010
0001
0100
0010
1000
0100
0010
0001
1000
0010
0100
0001
0010
0001
1000
0010
,
2000
0000
0000
0000
,
3000
0000
0000
0000
;
