#TITLE:Destiny;
#SUBTITLE:-Eclipse Mix-;
#ARTIST:e^2;
#TITLETRANSLIT:;
#SUBTITLETRANSLIT:;
#ARTISTTRANSLIT:;
#CREDIT:;
#BANNER:Destiny -Eclipse Mix- (cut).png;
#BACKGROUND:Destiny Eclipse Mix-bg.png;
#LYRICSPATH:;
#CDTITLE:;
#MUSIC:Destiny -Eclipse Mix- (Cut).mp3;
#OFFSET:-1.480;
#SAMPLESTART:93.568;
#SAMPLELENGTH:12.000;
#SELECTABLE:YES;
#BPMS:0.000=167.000;
#STOPS:;
#BGCHANGES:;
// cache tags:
#FIRSTBEAT:16.000;
#LASTBEAT:324.000;
#SONGFILENAME:Songs/stepmix .10/Destiny -Eclipse Mix-/Destiny -Eclipse Mix- (Cut).sm;
#HASMUSIC:1;
#HASBANNER:1;
#MUSICLENGTH:121.895;
// end cache tags

//---------------dance-single - M. Lippy----------------
#NOTES:
     dance-single:
     M. Lippy:
     Hard:
     9:
     0.600,0.697,0.410,0.033,0.057,458.000,50.000,4.000,7.000,0.000:
0000
0000
0000
0000
,
0000
0000
0000
0000
,
0000
0000
0000
0000
,
0000
0000
0000
0000
,
1000
0000
0000
1000
0000
0000
0010
0000
,
0100
0000
0000
1000
0000
0000
0010
0000
,
1000
0100
0001
0100
,
1000
0000
0010
0000
1000
0100
1000
0010
,
1010
1000
0010
0100
,
0010
0000
1000
0000
0100
0000
0010
0001
,
0100
0000
0010
0000
1000
0000
0100
1000
,
0100
0000
0010
0000
0010
0001
0100
0001
,
0100
0010
0100
0000
0001
0100
0010
0000
,
0001
0010
0001
0000
0010
0100
0100
0000
,
0010
0001
0010
0001
0010
0100
1000
0100
,
0001
0000
0100
0000
1000
0000
0100
0000
0010
0100
1000
0000
0001
0000
0010
0000
,
0110
0001
0011
0100
,
0101
1000
1010
0001
,
0110
1000
0100
0001
,
0100
0000
0011
0000
1010
0000
0100
0100
,
0101
1000
1000
0010
,
0011
1000
1000
0010
,
0001
0100
1000
0010
,
0110
0000
0000
0000
0101
0000
0000
0000
0100
0010
0000
0100
0010
0000
0100
0000
,
1001
1000
1100
0001
,
0011
0100
0110
1010
,
0110
0001
0110
1000
,
1100
0000
0000
0000
0010
0000
0000
0000
0001
0000
0001
1000
0001
0000
0010
0000
,
0100
0100
1010
0001
,
0011
0100
1100
0110
,
1000
0100
1000
0000
0100
0001
1000
0000
,
0010
0000
0100
0000
1000
0000
1000
0000
0100
0000
0001
0000
0010
0001
0010
0000
,
0011
0000
0001
0010
0000
0010
0001
0000
,
1100
0000
0010
0100
0000
0010
1000
0000
,
0011
0000
0100
0010
0000
0010
1000
0000
,
0011
0000
0001
0100
0000
0010
1000
0000
,
0001
0010
0001
0010
0002
0000
0000
0000
1003
0000
0100
0000
1000
0000
0000
0000
,
1000
0100
1000
0100
2000
0000
0000
0000
3001
0000
0001
0000
0100
0000
0010
0000
,
1010
0000
0100
0001
0000
0001
1000
0000
,
0110
0000
0000
0000
0001
0000
0100
0000
0000
0000
0001
0000
0001
0010
0001
0010
,
0001
0000
0100
0001
0000
0010
0100
0000
,
0001
1000
0000
0010
1000
0100
0001
0001
,
0011
0000
0010
0100
0000
1000
0100
0000
,
0010
0100
0000
0010
1000
0001
1000
0001
,
0001
0000
0100
1000
0000
0010
0100
0000
,
0001
1000
0000
0100
0001
1000
0100
0100
,
1000
0000
0100
0001
0000
0001
0010
0000
,
0001
0000
1000
0000
0000
0000
0010
0000
0100
0000
0100
0000
0001
0000
0001
0100
,
0010
0000
0100
0010
0000
0100
0001
0000
,
0001
0100
0000
0010
1000
0010
1000
0010
,
1001
0000
0100
1000
0000
0010
0100
0000
,
0010
1000
0000
0100
0010
0001
0010
0001
,
0011
0000
0010
0100
0000
0100
0001
0000
,
1000
0010
0000
0001
1000
0001
1000
0010
,
0110
0000
0010
0100
0000
1000
0001
0000
,
0010
1000
0000
0010
0001
0100
0010
1000
,
1000
M000
0010
0100
0001
0010
0001
0100
,
1000
M000
0100
0010
1000
0100
0010
0100
,
1000
M000
1000
0010
0100
0001
0100
0010
,
1000
M000
0010
0001
0100
0010
1000
0100
,
0010
00M0
0100
0010
0100
1000
0010
0001
,
0001
000M
1000
0100
1000
0100
0010
0100
,
0010
00M0
0100
0001
0010
0001
0100
0001
,
1000
0100
1000
0000
0010
0000
0000
0000
1000
0001
0010
0000
0010
0000
0010
0000
,
0010
1100
0010
0101
,
0100
0000
1100
0000
0010
0001
0100
0010
,
1010
0110
0001
0011
,
1000
0000
0100
0010
0100
0001
0010
0001
,
1100
0110
0011
0110
,
1000
0100
0010
0001
1000
0100
1000
0010
,
0101
0000
0010
1010
0000
0010
0011
0000
,
1001
1100
0000
0001
0010
0100
1000
1000
,
0001
0001
1000
0100
0001
1000
0010
0001
,
0010
1000
0010
0100
0001
0100
1000
0010
,
0100
0001
0010
0100
1000
0100
1000
0010
,
0100
0010
1000
0100
0001
0100
1000
0100
,
0010
0100
0001
0100
1000
0010
0100
0001
,
0100
0010
1000
0100
0010
0001
0100
0010
,
1000
0010
0100
0001
0010
0001
0100
0010
,
0100
0100
1000
1000
0001
0001
0010
0100
,
2200
0000
0000
0000
0000
0000
0000
3300
;

//---------------dance-single - M. Lippy----------------
#NOTES:
     dance-single:
     M. Lippy:
     Medium:
     7:
     0.448,0.564,0.066,0.066,0.000,366.000,8.000,8.000,0.000,0.000:
0000
0000
0000
0000
,
0000
0000
0000
0000
,
0000
0000
0000
0000
,
0000
0000
0000
0000
,
0100
0010
0001
0000
,
1000
0010
0100
0000
,
0001
0010
0001
0100
,
0010
0100
0001
0001
,
0010
0001
0100
0000
,
0010
0000
1000
0000
0100
0000
0010
0001
,
0100
0100
0100
0000
,
1000
0000
0100
0000
0010
0000
0001
0010
,
0001
0010
0001
0000
1000
0000
1000
0000
,
0100
0010
0100
0000
0010
0000
0010
0000
,
1000
0100
1000
0000
1000
0100
1000
0000
,
1000
0001
1000
0001
1000
0001
1000
0001
,
1000
0010
0100
0010
,
1000
0100
0010
0001
,
1100
0010
0100
0010
,
1000
0000
0100
0000
0010
0000
0100
1000
,
0010
0100
0010
1000
,
0010
0100
0001
0010
,
0001
0100
0010
1000
,
0100
0000
0010
0000
0100
1000
0001
0010
,
0001
0100
0010
0100
,
0010
0000
1000
0000
0100
0000
0010
0001
,
0100
0010
1000
0010
,
0100
0000
0010
0000
1000
0100
1000
0100
,
1000
0100
1000
0000
0001
0010
0001
0000
,
1000
0010
0100
0001
1000
0000
0001
0000
,
1000
0100
0010
0100
1000
0100
0010
0100
,
1000
0010
0100
0001
1000
0010
0100
0001
,
0200
0010
0010
0010
,
0010
0010
0010
0010
,
0302
0010
0010
0010
,
0010
0010
0010
0010
,
2003
0100
0100
0100
,
0100
0100
0100
0100
,
3020
0100
0100
0100
,
0100
0100
0100
0100
,
1030
0100
0010
0000
0010
0001
0100
0000
,
0010
1000
0100
0000
0010
0000
0100
0000
,
1000
0100
0010
0000
0010
0001
0100
0000
,
0010
1000
0100
0000
0100
0000
0100
0000
,
0100
1000
0100
0000
0010
0001
0010
0000
,
0100
1000
0100
0000
0010
0100
0001
0100
,
0010
0100
0010
0000
0010
0000
0010
0000
,
0010
0100
0001
0000
0010
0100
1000
0100
,
0010
0000
0100
0000
0100
1000
0100
0000
,
0010
0000
0001
0000
0100
0010
1000
0000
,
0100
0000
0010
0000
0100
0100
1000
0000
,
0010
0000
0100
0000
0001
0001
0010
0001
,
0100
0000
0010
0000
1000
0100
0010
0000
,
0001
0000
0100
0000
0010
1000
0100
1000
,
0200
1000
0010
1000
,
2300
0010
0100
0001
,
3001
0010
0100
1000
,
0001
0000
0010
0000
0001
0000
0100
0001
,
0010
0100
1000
0010
,
0100
0000
0010
0000
1000
0000
0100
0010
,
0001
0001
0001
0001
,
1000
0000
1000
0000
1000
0000
0010
0100
,
0001
0000
0001
0010
0100
0000
1000
0100
,
0010
0000
0010
0000
0100
1000
0010
0100
,
0010
0001
0010
1000
,
0100
1000
0010
0001
,
0100
0010
1000
0100
,
0010
0000
0100
0000
1000
0000
0001
1000
,
0010
0100
0010
1000
,
0010
0100
0010
0001
,
0100
1000
0010
0100
,
0001
0000
0010
0000
0010
0100
1000
0100
,
0010
0001
1000
0010
,
0100
0000
0001
0000
0010
0000
0001
0100
,
0010
1000
1000
0010
,
0100
0000
0100
0001
0010
0001
0010
0001
,
0100
1000
0100
0010
,
0100
1000
0010
0100
,
0101
0010
1010
0100
,
0101
1100
0110
0101
,
2002
0000
0000
0000
0000
0000
0000
3003
;

//---------------dance-single - J. St. George----------------
#NOTES:
     dance-single:
     J. St. George:
     Challenge:
     11:
     0.845,1.000,0.632,0.402,0.603,595.000,77.000,49.000,136.000,0.000:
0000
0000
0000
0000
,
0000
0000
0000
0000
,
0000
0000
0000
0000
,
0000
0000
0000
0000
,
0200
1000
0010
0001
,
0010
0000
1000
0000
0010
0000
0301
0010
,
0002
0010
1000
0100
,
0010
0000
0100
0000
1000
0000
0103
0010
,
1000
1000
1000
1000
,
1000
0000
0000
0000
1000
0000
0000
0000
1000
0000
0000
0000
1000
0000
0100
0010
,
0001
0000
0001
0000
0001
0000
0001
0010
,
0100
0000
0000
0000
0100
0000
0000
0000
0100
0000
1000
0000
0010
0000
0010
0100
,
0001
0000
0010
0000
1000
0000
0000
0000
1000
0000
0010
0000
0001
0000
0100
0010
,
1000
0010
0100
0010
1000
0010
0001
0010
,
1000
0000
100M
0010
0100
0000
M100
0001
0010
0000
M010
0001
0100
0000
0010
1000
,
0010
0100
0001
0100
0010
1000
010M
0010
0100
1000
001M
0100
0010
1000
0100
0010
,
0001
0100
0010
0100
0001
0010
1000
0010
,
0001
0100
0010
1000
0100
0001
0100
1000
,
0010
0100
0010
1000
0010
0001
1000
0100
,
0001
0100
0010
1000
0100
1000
0110
0101
,
1100
1000
0100
0010
0100
1000
0100
0010
,
0100
0001
0100
1000
0001
0010
1000
0010
,
0001
0100
0010
1000
0001
0100
0010
1000
,
0100
0000
1000
0000
0010
0000
0100
0000
0001
0010
0000
0001
0100
0000
0101
0000
,
0110
0010
1000
0100
1000
0010
0100
0010
,
1000
0000
0100
0000
0010
0000
0100
0000
1000
0000
0010
0000
0100
0000
0001
0010
,
0001
0100
0010
1000
0100
1000
0001
0010
,
0001
0000
0100
0000
0010
0000
1000
0000
0100
0000
1000
0000
0010
0000
1000
0010
,
1000
0000
0100
0000
0010
0000
0100
0000
1000
0000
0010
0000
0100
0000
0001
0010
,
0001
1000
0010
0100
0001
0100
1000
0100
,
0001
0000
0001
0010
0001
0M00
0001
0010
0001
00M0
0001
0M10
0001
0000
1000
0010
,
0100
0001
0010
0001
0100
0010
1000
0100
1000
0010
0100
0001
0100
0001
1000
0010
,
0200
0010
0001
0010
,
1000
0000
0010
0000
0001
0000
0001
0010
,
23M0
0000
0000
0000
0100
0000
0000
0000
0100
0000
0000
00M0
0001
0000
0000
0000
,
0010
0000
0000
0000
0001
0000
0000
0000
0100
0000
0000
0000
0001
0000
3001
0010
,
0200
0000
20M0
0300
0200
300M
0020
0300
0200
M030
0002
0300
0200
00M3
2000
030M
,
0020
3000
0M02
0030
2000
0003
02M0
3000
0002
0300
M020
0003
0200
M030
0002
0300
,
0200
00M3
2000
0300
0020
3000
0M02
0030
2000
0003
02M0
3000
0002
0300
0010
0003
,
2100
0000
3000
0010
0001
0000
0101
0000
0000
0000
0010
000M
1000
0100
0010
0001
,
1001
0000
000M
1000
0100
0000
0011
M000
0M00
0000
0001
0000
02M1
0300
0000
0M00
,
1001
0000
0000
0010
0100
0000
0101
0000
0000
0000
0001
0000
2001
3000
0M00
0000
,
0011
M000
0000
0001
0100
0000
0110
0000
0000
000M
1000
0000
21M0
3000
0000
0000
,
0M11
0000
0000
0010
M001
0000
0101
00M0
0000
0000
0202
0303
0000
220M
3300
0000
,
1001
0M00
0000
1000
0010
0000
0101
0000
00M0
0000
1000
0000
0201
0300
0000
M000
,
0011
0000
0000
0100
0010
000M
0110
0000
0000
0M00
0010
0000
2000
320M
0300
0000
,
0110
0000
0000
0010
0M01
0000
1001
0000
00M0
0000
1000
0000
0210
030M
0000
0000
,
1010
0000
0000
0100
0010
M000
0101
0000
0000
0000
0M10
0000
0001
M100
0010
0000
,
0110
0000
1000
0100
10M0
0000
0101
0000
0000
000M
1100
0000
0101
0000
00M0
0000
,
1001
0000
0010
1000
0100
0000
01M1
0000
0000
M000
0110
0000
0000
1MM1
0000
0000
,
0010
0000
100M
0100
0010
0000
0101
0000
0000
0000
10M1
0M00
1001
0000
0000
0000
,
110M
00M0
1000
0100
0010
0000
0101
M000
0000
000M
0110
0000
0100
M001
0010
0001
,
0100
0000
001M
0100
0010
M000
0101
0000
00M0
0000
0110
0000
1001
00M0
0000
0000
,
0101
M000
0010
0100
0001
0000
0011
0M00
0000
0000
1001
0000
M000
011M
0000
0000
,
1100
0000
1000
010M
0010
0000
1001
0000
0MM0
0000
0011
0000
1001
0M00
0000
000M
,
1100
0000
1000
0010
0100
0000
10M1
0000
0000
M000
0110
0000
0010
0100
0001
01M0
,
0001
0000
100M
0100
1000
0000
0110
M000
0000
00M0
0101
0000
1010
0000
0M00
0000
,
0101
0000
0010
0100
0001
0000
10M1
0000
0000
0000
0110
000M
0000
1100
00M0
0000
,
1001
0000
M010
0001
0100
0000
1001
00M0
0000
0000
011M
0000
1100
0000
00M0
0000
,
1100
0000
1000
0100
0001
00M0
0101
0000
M000
0000
0011
0M00
0000
1100
000M
0000
,
1001
0000
M010
0001
0100
0000
0M01
0000
0000
000M
0100
0000
0010
0000
0000
00M0
,
1000
0000
M000
0001
0100
0000
001M
0000
0000
0000
1000
0000
0000
M100
0000
0000
,
0M01
0000
010M
1000
0M00
0010
0100
0000
,
002M
0000
0000
0000
M200
0000
0030
0000
0002
00M0
M300
0000
0020
0000
0003
0M00
2000
000M
0030
0000
0002
0M00
3000
0000
0200
00M0
0003
0000
2000
0000
030M
0000
,
0010
3000
0100
0000
0001
0000
0100
0000
0010
0000
1000
0000
0100
0000
0001
0000
,
1000
0010
0001
0100
0001
0010
0001
0010
,
1000
0010
0001
1000
0100
0001
0100
1000
,
0010
0100
0001
0100
0010
1000
0110
1001
,
0110
0010
1000
0100
1000
0010
0100
0100
,
0001
0010
0001
0100
0010
1000
0100
0001
,
0001
0100
1000
0010
0100
0001
0010
0001
,
0010
1000
0010
0001
1000
0100
0001
0100
,
1000
0100
1000
0000
0010
0000
0100
0000
0001
0000
0100
0000
1000
0000
0100
0000
,
0001
0010
0001
0000
0100
0000
0010
0000
1000
0000
0100
0000
1000
0000
0010
0000
,
0100
0001
0010
0000
0001
0000
0100
0000
0010
0000
1000
0000
0010
0000
0001
0000
,
0010
1000
0100
0000
0010
0000
0001
0000
0100
0000
0010
0000
0100
0000
0010
0000
,
1000
0100
1000
0000
0010
0000
0100
0000
0100
0000
0001
0000
0001
0000
0010
0000
,
0100
0010
0100
0000
1000
0000
0010
0000
0010
1000
0010
0000
0100
0000
0001
0000
,
0010
0001
0010
0000
010M
1000
01M0
0000
M001
0010
0M01
0000
100M
0100
10M0
0000
,
0010
0000
0100
0000
M0M1
0000
0100
0000
0010
000M
1000
0000
0100
00M0
0001
0000
0100
0000
1000
0000
0M10
0000
M001
0000
0010
0000
1000
000M
0100
0000
0020
0000
,
0002
0000
M000
0000
0M00
0000
M000
0000
0000
0000
0000
0000
0M00
0000
0000
0000
0M00
0000
0000
M000
0000
0000
0M00
0000
0000
0000
0033
0000
00M0
000M
0M00
0000
;

//---------------dance-single - J. St. George----------------
#NOTES:
     dance-single:
     J. St. George:
     Easy:
     5:
     0.234,0.332,0.033,0.172,0.000,175.000,4.000,21.000,0.000,0.000:
0000
0000
0000
0000
,
0000
0000
0000
0000
,
0000
0000
0000
0000
,
0000
0000
0000
0000
,
2000
0000
0000
3000
,
0002
0000
0000
0003
,
0020
0000
0000
0030
,
0200
0000
0000
0300
,
1000
0000
1000
0000
,
0001
0000
0001
0000
,
0010
0000
0010
0000
,
0100
0000
0100
0100
,
1000
0000
1000
0000
,
0010
0000
0100
0000
,
0001
0001
0001
0001
,
1000
1000
1000
1000
,
0010
0000
0010
0000
,
0100
0000
0100
0100
,
1001
0000
0100
0000
,
0100
0000
0001
0010
,
0100
0000
1000
0000
,
0010
0000
0100
0100
,
0100
0000
0001
0000
,
0010
0010
0010
0010
,
0010
0000
1000
0000
,
0001
0000
0001
0010
,
0100
0000
1000
0000
,
0010
0000
0100
0001
,
0010
0000
0100
0000
,
0100
0000
0100
0100
,
0100
0000
0000
0000
,
0200
0000
0000
0300
,
1000
0000
1000
0000
,
0001
0000
0001
0000
,
0010
0000
0010
0000
,
0010
0000
1000
0000
,
2000
0000
0000
3000
,
0002
0000
0000
0003
,
0020
0000
0000
0030
,
0200
0000
0000
0300
,
1000
0100
1000
0000
,
0001
0010
0001
0000
,
0010
0100
1000
0000
,
0001
0010
0001
0000
,
0010
0010
0010
0000
,
1000
0100
0010
0000
,
0010
0100
1000
0000
,
1000
0010
0001
0010
,
1000
0000
0100
0000
,
0001
0000
0010
0000
,
0100
1000
0100
0000
,
0010
0001
0010
0001
,
0010
0000
0010
0000
,
0100
0000
0100
0000
,
1000
0100
0010
0001
,
1000
0100
0010
0001
,
2000
0000
0000
3000
,
0002
0000
0000
0003
,
2000
0000
0000
3000
,
0020
0000
0000
0030
,
0200
0000
0000
0300
,
0002
0000
0000
0003
,
2002
0000
0000
3003
,
0220
0000
0000
0330
,
1000
1000
1000
0000
,
0001
0001
0001
0000
,
0010
0000
0010
0000
,
0100
0100
0100
0000
,
1000
0000
0001
0000
,
0010
0000
0100
0000
,
1000
0100
0010
0000
,
0001
0010
0100
0000
,
1000
0000
0000
0000
,
1000
0000
0001
0001
,
0001
0000
0010
0000
,
0010
0000
1000
0100
,
0010
0000
0100
0000
,
1000
0000
0010
0100
,
0001
0100
0010
1000
,
0100
0010
0001
0100
,
2002
0000
0000
0000
,
3003
0000
0000
0000
;

//---------------dance-single - J. St. George----------------
#NOTES:
     dance-single:
     J. St. George:
     Beginner:
     1:
     0.115,0.263,0.131,0.000,0.000,82.000,16.000,0.000,0.000,0.000:
0000
0000
0000
0000
,
0000
0000
0000
0000
,
0000
0000
0000
0000
,
0000
0000
0000
0000
,
1000
0000
0000
0000
,
0000
0000
0000
0000
,
0010
0000
0000
0000
,
0000
0000
0000
0000
,
0100
0000
0000
0000
,
0100
0000
0000
0000
,
0001
0000
0000
0000
,
1000
0000
0000
0000
,
0010
0000
0000
0000
,
0000
0000
0000
0000
,
0100
0000
0001
0000
,
0100
0000
1000
0000
,
0010
0000
0000
0000
,
0000
0000
0000
0000
,
1000
0000
0000
0000
,
0000
0000
0000
0000
,
0010
0000
0000
0000
,
0010
0000
0000
0000
,
0100
0000
0100
0000
,
0100
0000
0000
0000
,
1000
0000
0000
0000
,
0001
0000
0000
0000
,
0010
0000
0000
0000
,
0100
0000
0000
0000
,
1000
0000
1000
0000
,
0001
0000
0001
0000
,
1000
0000
0000
0000
,
0010
0000
0000
0000
,
1001
0000
0000
0000
,
0000
0000
0000
0000
,
1001
0000
0000
0000
,
0000
0000
0000
0000
,
0110
0000
0000
0000
,
0000
0000
0000
0000
,
1001
0000
0000
0000
,
1001
0000
0000
0000
,
0010
0000
1000
0000
,
0100
0000
0010
0000
,
0001
0000
1000
0000
,
0001
0000
0000
0000
,
0010
0000
1000
0000
,
0100
0000
0000
0000
,
0010
0000
0001
0000
,
0100
0000
0000
0000
,
0010
0000
0000
0000
,
1000
0000
0000
0000
,
0001
0000
0000
0000
,
0010
0000
0000
0000
,
1000
0000
0000
0000
,
0010
0000
0000
0000
,
1001
0000
0000
0000
,
0110
0000
0000
0000
,
1000
0000
0000
0000
,
0010
0000
0000
0000
,
0100
0000
0000
0000
,
0010
0000
0000
0000
,
1000
0000
0000
0000
,
0001
0000
0000
0000
,
1001
0000
0000
0000
,
0110
0000
0000
0000
,
1000
0000
0000
0000
,
0001
0000
0000
0000
,
0010
0000
0010
0000
,
0010
0000
0000
0000
,
1001
0000
0000
0000
,
0110
0000
0000
0000
,
1001
0000
0000
0000
,
0001
0000
0010
0000
,
1000
0000
0000
0000
,
1000
0000
0000
0000
,
0001
0000
0000
0000
,
0001
0000
0000
0000
,
0010
0000
0000
0000
,
0010
0000
0000
0000
,
1001
0000
0000
0000
,
1001
0000
1001
0000
,
1001
0000
0000
0000
;

//---------------dance-double - J. St. George----------------
#NOTES:
     dance-double:
     J. St. George:
     Hard:
     9:
     0.668,0.631,0.525,0.156,0.066,487.000,64.000,19.000,0.000,1.000:
00000000
00000000
00000000
00000000
,
00000000
00000000
00000000
00000000
,
00000000
00000000
00000000
00000000
,
00000000
00000000
00000000
00000000
,
20000000
30020000
00230000
00302000
,
00023000
00030200
00002300
00003200
,
00000320
00000230
00020300
00130000
,
00011000
00110000
00011000
00001010
,
00010000
00001000
00000000
00001000
00000000
00001000
00010000
00100000
,
00010000
00001000
00000000
00001000
00000000
00001000
00010000
00000100
,
00001000
00000010
00000000
00000010
00000000
00000010
00001000
00000100
,
00010000
00000010
00000000
00001000
00000000
00000010
00001000
00000100
,
00010000
00001000
00000000
00001000
00000000
00001000
00100000
00010000
,
01000000
00100000
00000000
00100000
00000000
00100000
10000000
01000000
,
00100000
00001000
00000000
00001000
00000000
00001000
00010000
00000100
,
00001000
00000001
00000000
00000001
00000000
00000001
00000100
00000010
,
00001000
00000100
00010000
00001000
00100000
00000000
00100000
00010000
,
01000000
00010000
00100000
01000000
10000000
00000000
01000000
00100000
,
00010000
00100000
00001000
00010000
00000100
00000000
00010000
00001000
,
00010000
00000100
00001000
00000010
00000001
00000000
00000010
00001000
,
00000100
00010000
00000010
00001000
00000100
00000000
00000010
00000001
,
00001000
00000100
00001000
00000010
00001000
00000000
00100000
10000000
,
01000000
00100000
00010000
01000000
00001000
00000000
00010000
00001000
,
00010000
00000100
00001000
00000010
00000100
00000001
00000010
00000000
,
00000011
00000100
00010100
00010000
,
00101000
00100000
01100000
10100000
,
01010000
00100000
00101000
00010000
,
00001100
00000010
00000101
00000110
,
00001010
00001000
00001000
00000000
00011000
00010000
00010000
00000000
,
01100000
00100000
00100000
00000000
10100000
10000000
10000000
00000000
,
10000000
01000000
00100000
00010000
01000000
00001000
00010000
00000100
,
00001000
00000010
00000100
00000001
00000010
00000001
00000100
00000010
,
00000100
00000000
00000000
00001000
00000000
00000000
00000100
00000000
00000000
00000001
00000000
00000000
00000010
00000000
00000100
00000000
,
00001000
00000000
00000000
00100000
00000000
00000000
10000000
00000000
00000000
01000000
00000000
00000000
00100000
00000000
00001000
00000000
,
00010000
00000000
00000000
00000100
00000000
00000000
00000001
00000000
00000000
00000100
00000000
00000000
00001000
00000000
00000010
00000000
,
00000001
00000000
00000000
00000010
00000000
00000000
00010000
00000000
00000000
00100000
00000000
00000000
10000000
00000000
01000000
00000000
,
00100000
00000000
00000000
00001000
00000000
00000000
00100000
00000000
00000000
00001000
00000000
00000000
00010000
00000000
00000100
00000000
,
00001000
00000000
00000000
00000010
00000000
00000000
00000100
00000000
00000000
00000010
00000000
00000000
00001000
00000000
00000010
00000000
,
00010000
00000000
00000000
00001000
00000000
00000000
00010000
00000000
00000000
00100000
00000000
00000000
10000000
00000000
01000000
00000000
,
00100000
00010000
00100000
00001000
00010000
00000100
00000010
00000001
,
00000010
00000100
00001000
00011000
00000000
00001000
00100000
00010000
,
10000000
00100000
01000000
01010000
00000000
00010000
00001000
00100000
,
00010000
01000000
00100000
10100000
00000000
00100000
01000000
00001000
,
00010000
00000000
00000100
00000000
00000010
00000000
00001001
00000000
00000000
00000000
00000110
00000000
00000000
00001001
00000000
00000000
,
00001100
00000100
00010000
00001000
00000000
00010000
01000000
00010000
,
00100000
00010000
10000000
10010000
00000000
00100000
01000000
00010000
,
00100000
00001000
00010000
00010100
00000000
00010000
00000010
00001000
,
00000001
00000000
00000010
00000000
00000100
00000000
00001100
00000000
00000000
00000000
00101000
00000000
00000000
00011000
00000000
00000000
,
00010100
00010000
00000100
00010000
00001000
00100000
01000000
10000000
,
00100000
01000000
00100000
01000000
00010000
01000000
10000000
01000000
,
00100000
01000000
00010000
00100000
00001000
00010000
00001000
00100000
,
00001000
00010000
00000010
00010000
00001000
00100000
00001000
00010000
,
00000100
00000010
00000001
00000100
00000010
00001000
00000100
00010000
,
00001000
00100000
00001000
01000000
00100000
10000000
01000000
10000000
,
00010000
00100000
00001000
01000000
00100000
01000000
00001000
00010000
,
00000100
00010000
00000100
00001000
00000100
00000010
00000001
00000100
,
00000020
00000000
00001030
00000100
00010000
00001000
00100000
01000000
,
20000000
00000000
30100000
01000000
00010000
00100000
00001000
00010000
,
00000200
00000000
00000310
00000001
00000100
00000010
00001000
00000100
,
00020000
00000000
01030000
10000000
00100000
00001000
00010000
00001000
,
00020000
00000000
00030100
00000010
00000001
00000100
00000010
00001000
,
00000200
00000000
00010300
00100000
10000000
01000000
10000000
00100000
,
01000000
00100000
01000000
00010000
00100000
00001000
00010000
00000100
,
00000010
00000001
00001000
00000001
00000010
00000001
00000100
00000010
,
00000110
00001100
00010100
00110000
,
00011000
00110000
01100000
11000000
,
00110000
00001100
00010100
00011000
,
00001010
00000110
00000011
00000110
,
00001100
00011000
00110000
01100000
,
10010000
01100000
00101000
00010100
,
00011000
00001100
00000110
00000011
,
00001001
00011000
10010000
00011000
,
00010000
00001000
00010000
00001000
00100000
00010000
01000000
00100000
,
10000000
01000000
00100000
00010000
01000000
00010000
00100000
00001000
,
00010000
00000100
00001000
00000100
00000010
00000100
00000001
00000100
,
00001000
00000010
00000100
00000010
00001000
00000100
00010000
00001000
,
00100000
00010000
00100000
01000000
10000000
01000000
00100000
01000000
,
10000000
00100000
00010000
00100000
10000000
01000000
00100000
00010000
,
00001000
00000100
00000010
00000001
00000100
00000010
00001000
00000100
,
00010000
00001000
00010000
00000010
00001000
00000100
00020000
00002000
,
00100010
00000000
00000000
00000000
,
00033000
00000000
00000000
00000000
;

//---------------dance-double - J. St. George----------------
#NOTES:
     dance-double:
     J. St. George:
     Medium:
     6:
     0.461,0.563,0.180,0.574,0.004,301.000,22.000,70.000,0.000,0.000:
00000000
00000000
00000000
00000000
,
00000000
00000000
00000000
00000000
,
00000000
00000000
00000000
00000000
,
00000000
00000000
00000000
00000000
,
20000000
00000000
30020000
00000000
,
00230000
00000000
00302000
00000000
,
00023000
00000000
00030200
00000000
,
00000320
00000032
00000203
00000320
,
00001030
00001000
00010000
00010000
,
00100000
00000000
01000000
00000000
10000000
00000000
01000000
00100000
,
00010000
00001000
00010000
00000100
,
00010000
00000000
00100000
00000000
01000000
00000000
00010000
00100000
,
00010000
00000000
01000000
00000000
01000000
00000000
00001000
00010000
,
00001000
00000000
00000100
00000000
00000100
00000000
00000010
00000001
,
00000100
00000000
00000010
00000100
00000010
00000000
00000001
00000010
,
00000002
00000023
00000230
00002300
,
00013000
00001000
00010000
00100000
,
10000000
01000000
00100000
00010000
,
00100000
00010000
00100000
01000000
,
10000000
00000000
00100000
00000000
01000000
00000000
00010000
00001000
,
00000010
00000001
00000100
00000010
,
00001000
00010000
00100000
01000000
,
10000000
01000000
00100000
00010000
,
00100000
00000000
00001000
00000000
00000100
00000001
00000010
00000100
,
00000010
00000100
00001000
00000010
,
00010000
00000000
00001000
00000000
00100000
00000000
00010000
00100000
,
01000000
01000000
10000000
10000000
,
00100000
00000000
01000000
00000000
00010000
00000000
00100000
00010000
,
00100000
00000000
00100000
00000000
00100000
00000000
00100000
00010000
,
00100000
00010000
01000000
00100000
,
01000000
00010000
00001000
00000000
00001000
00000100
00000010
00000000
,
00000010
00000001
00000010
00000001
00000010
00000001
00000010
00000001
,
00000022
00000000
00000000
00000000
00000000
00000000
00000000
00000033
,
00002200
00000000
00000000
00000000
00000000
00000000
00000000
00003300
,
00022000
00000000
00000000
00033000
,
02200000
00000000
00000000
03300000
,
02000000
03002000
00003200
00000000
,
00002300
00203000
20300000
00000000
,
30200000
00302000
00003200
00000000
,
00020300
00230000
20300000
32000000
,
03100000
00010000
00100000
00000000
00001000
00000100
00001000
00000000
,
00010000
00100000
00010000
00000000
00001000
00000100
00001000
00000000
,
00010000
00100000
00010000
00000000
00001000
00000100
00001000
00000000
,
00010000
00100000
00010000
00100000
00001000
00000100
00001000
00000100
,
00001000
00001100
00010000
00011000
,
00100000
00110000
01000000
10010000
,
00100000
00010000
00100000
00010000
00100000
00010000
00100000
00010000
,
00001000
00010000
00001000
00010000
00001000
00010000
00001000
00010000
,
00001000
00000000
00010000
00100000
00000000
00000000
00000000
00000000
,
00001000
00000000
00000010
00000001
00000000
00000000
00000000
00000000
,
00000010
00000000
00001000
00000100
00000000
00000000
00000000
00000000
,
00100000
00000000
00000000
00000000
00100000
00000000
00010000
00000000
00000000
00000000
00010000
00000000
00000000
00010000
00000000
00000000
,
00010000
00000000
00010000
01000000
00000000
00000000
00000000
00000000
,
00001000
00000000
00000010
00000001
00000000
00000000
00000000
00000000
,
10000000
00000000
00100000
00010000
00000000
00000000
00000000
00000000
,
00000010
00000001
00000010
00000000
00000100
00000000
00000100
00000000
,
00000200
00020300
00230000
00000000
,
00302000
00003200
00000302
00000000
,
00002003
00203000
20300000
00000000
,
30200000
00302000
00003020
00000000
,
00002030
00203000
20300000
00000000
,
30200000
00302000
00003002
00000000
,
00000023
00000000
00000000
00000000
00002000
00000000
00000000
00003030
,
00020000
00000000
00000000
00000000
00002000
00000000
00000000
00033000
,
00011000
00001000
00001000
00000000
,
00110000
00100000
00100000
00000000
,
00000110
00000100
00000100
00000000
,
00010100
00000100
00000100
00000000
,
00101000
00100000
00100000
00100000
,
00021000
00000000
00000000
00000000
00001000
00000000
00000000
00000000
00000010
00030000
00000000
00000000
00000000
00000000
00000000
00000000
,
00012000
00000000
00000000
00000000
00100000
00000000
00000000
00000000
01000000
00003000
00000000
00000000
01000000
00000000
00000000
00000000
,
00100000
01000000
00010000
00001000
,
00000010
00000001
00000010
00000000
00000000
00000000
00000110
00000000
,
00000100
00010000
00000100
00000000
00000000
00000000
00011000
00000000
,
00100000
10000000
01000000
00000000
00000000
00000000
00011000
00000000
,
00001000
00010000
00001000
00000000
00000000
00000000
00000000
00000000
,
20000000
32000000
03200000
00320000
,
00032000
00003200
00000320
00000032
,
00000203
00000000
00000001
00000000
00000001
00000000
00000001
00000001
,
00000301
00000110
00001100
00010100
,
00022000
00000000
00000000
00000000
00000000
00000000
00000000
00000000
00000000
00000000
00000000
00033000
00000000
00000000
00000000
00000000
;

//---------------dance-double - J St. George----------------
#NOTES:
     dance-double:
     J St. George:
     Easy:
     4:
     0.268,0.364,0.066,0.246,0.000,191.000,8.000,30.000,0.000,0.000:
00000000
00000000
00000000
00000000
,
00000000
00000000
00000000
00000000
,
00000000
00000000
00000000
00000000
,
00000000
00000000
00000000
00000000
,
00010000
00000000
00000000
00000000
,
00001000
00000000
00000000
00000000
,
00000100
00000000
00001000
00000000
,
00010000
00010000
00010000
00010000
,
00200000
00000000
00000000
00310000
,
00002000
00000000
00000000
00013000
,
00000200
00000000
00000000
00000301
,
00000020
00000000
00000000
00001030
,
00000200
00000000
00000000
00010300
,
00002000
00000000
00000000
00013000
,
00100000
00100000
00100000
00000000
,
00001000
00000100
00000010
00000001
,
00000100
00000000
00000100
00000000
,
00010000
00000000
00100000
00000000
,
01000000
00000000
00010000
00000000
,
00000100
00000000
00010000
00000000
,
00000010
00000000
00010000
00000000
,
00100000
00000000
00001000
00000000
,
00010000
00010000
00010000
00000000
,
00000100
00000100
00000100
00001000
,
00000010
00000100
00000000
00001000
,
00000100
00000010
00000000
00000001
,
00000100
00001000
00000000
00001000
,
00010000
00100000
00000000
00100000
,
00100000
00001000
00000000
00001000
,
00001000
00000100
00000000
00000010
,
00000001
00000100
00000010
00000100
,
00000001
00000001
00000001
00000002
,
00000203
00000000
00020300
00000000
,
00230000
00000000
02300000
00000000
,
03200000
00000000
00320000
00000000
,
00032000
00000000
00003020
00000000
,
00000230
00000000
00020300
00000000
,
00030200
00000000
00000302
00000000
,
00000023
00000000
00000230
00000000
,
00001300
00001000
00010000
00010000
,
00010000
00100000
00010000
00000000
,
00010000
00100000
00001000
00000000
,
00000100
00000010
00001000
00000000
,
00001000
00010000
00001000
00010000
,
00001000
00000100
00000010
00000000
,
00000010
00001000
00010000
00000000
,
00100000
00010000
00000100
00000000
,
00000200
00001000
00001000
00001000
,
00002300
00000000
00000000
00000000
,
00003020
00000000
00000000
00000000
,
00002030
00000000
00000000
00000000
,
00203000
00000000
00000000
00000000
,
20300000
00000000
00000000
00000000
,
30200000
00000000
00000000
00000000
,
00310000
00001000
00010000
00001000
,
00010000
00001000
00010000
00001000
,
00011000
00000000
00100000
00000000
,
00011000
00000000
00000010
00000000
,
00011000
00000000
01000000
00000000
,
00011000
00000000
00000100
00000000
,
00011000
00000000
00010000
00000000
,
00011000
00000000
00001000
00000000
,
00000100
00000100
00000100
00000000
,
00100000
00100000
00100000
00100000
,
00100000
00000000
00010000
00000000
,
00000100
00000000
00010000
00000000
,
01000000
00000000
00001000
00000000
,
00000001
00000000
00000100
00000000
,
00010000
00000000
00100000
00000000
,
01000000
00000000
00000010
00000000
,
00001000
00000000
00100000
00000000
,
00001000
00000000
00000001
00000000
,
00000100
00000100
00000100
00000000
,
00010000
00010000
00010000
00000000
,
00100000
00100000
00000000
00000000
,
00000100
00001000
00000100
00000000
,
00010000
00100000
01000000
00000000
,
00100000
00010000
00001000
00000000
,
00010000
00001000
00010000
00001000
,
00010000
00010000
00001000
00011000
,
00022000
00000000
00000000
00033000
;

//---------------dance-double - J. St. George----------------
#NOTES:
     dance-double:
     J. St. George:
     Challenge:
     12:
     0.830,1.000,0.952,0.090,0.394,581.000,116.000,11.000,0.000,35.000:
00000000
00000000
00000000
00000000
,
00000000
00000000
00000000
00000000
,
00000000
00000000
00000000
00000000
,
00000000
00000000
00000000
00000000
,
11000000
00000000
00000000
00101000
00000000
00000000
00011000
00000000
,
00001010
00000000
00000000
00000101
00000000
00000000
00000110
00000000
,
00001100
00010100
00011000
00101000
,
00011000
00000000
00100010
00000000
00022000
00000000
00100010
00033000
,
00001000
00010000
00001000
00100000
,
01000000
00000000
00000000
00000000
10000000
00000000
00000000
00000000
00100000
00000000
00000000
00000000
01000000
00000000
00010000
00100000
,
00001000
00000000
00000010
00000000
00000001
00000000
00000100
00000010
,
00010000
00000000
00000000
00000000
00001000
00000000
00000000
00000000
00010000
00000000
00001000
00000000
00000010
00000000
00000001
00000100
,
00000010
00000000
00001000
00000000
00000100
00000000
00000000
00000000
00000100
00000000
00010000
00000000
00001000
00000000
00100000
00010000
,
01000000
00000000
00100000
00000000
10000000
00000000
00100000
00000000
01000000
00000000
00010000
00000000
00100000
00000000
00010000
01000000
,
00010000
00100000
00001000
00010000
00000100
00000010
00000001
00000100
,
00000010
00000000
00001000
00000100
00001000
00000000
00000010
00000100
00000001
00000000
00000010
00000001
00000100
00000010
00001000
00000100
,
00001000
00000010
00010000
00001000
00100000
00010000
00100000
01000000
,
10000000
00100000
00010000
10000000
01000000
00010000
00001000
00000010
,
00000001
00000010
00001000
00000100
00000010
00000001
00000100
00001000
,
00010000
01000000
10000000
01000000
00010000
00001000
00010000
01000000
,
10000000
00100000
00010000
00100000
10000000
00100000
00010000
00100000
,
10000000
01000000
10000000
00100000
01000000
00010000
00100000
00001000
,
00010000
00000100
00000010
00000100
00001000
00000100
00001000
00000100
,
00010000
00000000
00100000
00000000
10000000
00000000
01000000
00000000
00100000
00010000
00000000
00010000
00001000
00000000
00000100
00000000
,
00000001
00000100
00001000
00000100
00000010
00000001
00000010
00001000
,
00000010
00000001
00001000
00000100
00010000
00100000
10000000
01000000
,
10000000
00100000
01000000
00001000
00100000
00001000
01000000
00010000
,
00000010
00000001
00000100
00000010
00001000
00000100
00010000
00001000
,
00010000
00001000
00010000
00100000
00010000
00001000
00010000
00100000
,
10000000
01000000
00100000
00010000
00100000
01000000
00010000
00001000
,
00010000
00001000
00010000
01000000
00010000
00001000
00010000
01000000
,
00100000
00000000
01000000
00000000
00010000
00000000
01000000
00000000
10000000
00000000
00100000
00000000
01000000
00010000
00100000
00001000
,
00022000
00100000
00000010
00100000
,
00000010
00000000
00100000
00000000
00000010
00000000
00100000
00033010
,
02000200
00010000
00001000
00010000
,
00001000
00000000
00010000
00000000
00001000
00000000
00010000
03001300
,
02002000
00010000
00000100
00010000
,
00000100
00000000
00010000
00000000
00000100
00000000
00010000
03003100
,
00020200
00100000
00001000
00100000
,
00001000
00000000
00000000
00000000
00100000
00000000
00000000
00000000
00100000
00001000
00100000
00001000
00130300
00000000
00000000
00000000
,
00011000
00000000
00011000
00100010
00000000
00000000
01000100
00000000
,
00100010
00000000
00000000
00000000
00011000
00000000
00100010
00000000
00000000
00000000
00010001
00000000
00000000
00011000
00000000
00000000
,
10001000
00000000
01001000
00011000
00000000
00011000
00010100
00000000
,
00011000
00000000
00000000
00000000
00001001
00000000
00000110
00000000
00000000
00000000
00000011
00000000
00000001
00000100
00000010
00010000
,
00001000
00000000
00011000
00100010
00000000
00100010
00011000
00000000
,
00011000
00000000
00000000
00000000
00010010
00000000
00010001
00000000
00000000
00000000
00000011
00000000
00000000
00010100
00000000
00000000
,
01100000
00000000
01100000
01001000
00000000
00011000
01000100
00000000
,
00011000
00000000
00000000
00000000
00011000
00000000
00100010
00000000
00000000
00000000
00011000
00000000
00001000
00000100
00010000
00001000
,
00100000
00000000
00010000
00100000
00001000
00000000
00011000
00000000
00000000
00000000
00000110
00000000
00000010
00000001
00000100
00000000
,
00000101
00000000
00000001
00000100
00000010
00000000
00001100
00000000
00000000
00000000
00001100
00000000
00000100
00010000
00000000
00000000
,
00011000
00000000
00001000
00100000
00010000
00000000
11000000
00000000
00000000
00000000
00110000
00000000
00011000
00000000
00001100
00000000
,
00011000
00000000
00010000
00001000
00100000
00000000
00110000
00000000
00000000
00000000
00110000
00000000
00100000
00010000
01000000
00001000
,
00010000
00000000
00000100
00010000
00001000
00000000
00001100
00000000
00000000
00000000
00000011
00000000
00001010
00000000
00000000
00000000
,
00011000
00000000
00010000
00001000
01000000
00000000
01010000
00000000
00000000
00000000
00011000
00000000
00000000
00010100
00000000
00000000
,
00101000
00000000
00100000
00001000
00100000
00000000
00110000
00000000
00000000
00000000
01010000
00000000
01100000
00000000
01010000
00000000
,
01001000
00000000
01000000
00001000
00010000
00000000
00010000
00001000
00010000
00000000
00001000
00010000
00000100
00000010
00000100
00001000
,
00000100
00000000
00001000
00000100
00010000
00000000
00001000
00000000
00100000
00000000
00010000
01000000
00100000
00000000
10000000
00000000
,
01000000
00000000
10000000
00100000
01000000
00000000
00010000
00000000
00100000
00000000
00001000
00010000
00001000
00000000
00010000
00000000
,
00000100
00000000
00000010
00000001
00000100
00000000
00000010
00000000
00001000
00000000
00000100
00010000
00001000
00000000
00010000
00000000
,
00001000
00000000
00010000
00001000
01000000
00000000
00010000
00000000
00100000
00000000
00100000
00010000
01000000
00000000
00100000
00000000
,
01000000
00000000
00001000
00010000
00001000
00000000
00010000
00000000
00000100
00000000
00000010
00000001
00000100
00000000
00000010
00000000
,
00001000
00000000
00000100
00001000
00000100
00000000
00001000
00000000
00000100
00000000
00010000
00001000
00100000
00000000
00010000
00000000
,
00100000
00010000
00100000
00010000
01000000
00010000
01000000
00010000
00100000
00001000
00010000
00001000
00010000
00000100
00000010
00000001
,
00000100
00000010
00000100
00000001
00000100
00000010
00001000
00000100
00001000
00000100
00010000
00001000
00010000
00001000
00100000
00010000
,
00110000
01100000
01001000
00110000
,
00011000
00000000
00000110
00000000
00000101
00000000
00001010
00001100
,
00011000
00101000
01001000
00110000
,
11000000
00000000
10010000
00000000
00110000
00000000
00011000
00011000
,
00011000
01001000
00110000
01100000
,
10010000
00000000
00101000
00000000
00011000
00000000
00010100
00011000
,
00001100
00000000
00000011
00000000
00000110
00000000
00010010
00011000
,
00010100
00000000
00000000
00000000
11000000
00000000
00000000
00000000
00100000
00010000
00000000
01000000
00010000
00000000
01010000
00000000
,
00011000
00000000
00010000
00001000
00100000
00000000
00010000
00000000
01000000
00000000
00100000
01000000
00010000
00000000
00100000
00000000
,
00010000
01000000
00000000
00100000
01000000
00000000
00100000
00000000
10000000
01000000
00100000
00000000
00100000
00010000
01000000
00000000
,
00001000
00000000
00010000
00001000
00010000
00000000
00000010
00001000
00000100
00000000
00000010
00000000
00000100
00000000
00000001
00000000
,
00000100
00000000
00001000
00000010
00001000
00000000
00000100
00010000
00000100
00000000
00001000
00010000
00001000
00100000
00001000
00000000
,
00100000
00001000
00010000
00000000
00001000
00000000
00100000
00000000
00010000
00000000
01000000
00000000
00100000
00000000
10000000
00000000
,
01000000
10000000
01000000
00000000
00100000
00000000
00010000
00000000
01000000
00000000
00010000
00100000
00010000
00000000
00100000
00000000
,
00001000
00010000
00001000
00000000
00010000
00001000
00100000
00000000
00010000
00100000
00010000
00000000
01000000
00100000
01000000
00010000
,
00100000
00001000
00100000
00001000
00010000
00001000
00010000
00001000
00010000
00000100
00001000
00000100
00001000
00000010
00000100
00000001
,
00000020
00000000
00000000
00000000
00000000
00000000
00000000
00000000
00000000
00000000
00000000
00000000
00000000
00000000
00000000
00000030
;
