#TITLE:MODEL DD7;
#SUBTITLE:;
#ARTIST:Mutsuhiko Izumi;
#TITLETRANSLIT:;
#SUBTITLETRANSLIT:;
#ARTISTTRANSLIT:;
#CREDIT:;
#BANNER:MODEL DD7.png;
#BACKGROUND:MODEL DD7-bg.png;
#LYRICSPATH:;
#CDTITLE:/CDTITLES/GUITAR FREAKS & DRUMMANIA.PNG;
#MUSIC:MODEL DD7.mp3;
#OFFSET:-3.157;
#SAMPLESTART:68.425;
#SAMPLELENGTH:10.000;
#SELECTABLE:YES;
#BPMS:0.000=165.000;
#STOPS:;
#BGCHANGES:;
// cache tags:
#FIRSTBEAT:4.000;
#LASTBEAT:278.000;
#SONGFILENAME:Songs/new cc/MODEL DD7/MODEL DD7.sm;
#HASMUSIC:1;
#HASBANNER:1;
#MUSICLENGTH:105.594;
// end cache tags

//---------------dance-single - ----------------
#NOTES:
     dance-single:
     :
     Easy:
     5:
     0.388,0.592,0.265,0.256,0.005,232.000,28.000,27.000,0.000,0.000:  // measure 1
0000
0000
0000
0000
,  // measure 2
1000
0000
0000
0000
,  // measure 3
0001
0000
0110
0000
,  // measure 4
0010
0000
0000
0000
,  // measure 5
1000
0000
0000
0000
,  // measure 6
0001
0000
0000
0000
,  // measure 7
0010
0000
2002
3003
,  // measure 8
1000
0000
0100
0000
,  // measure 9
0010
0000
0001
0000
,  // measure 10
1000
0001
0020
0130
,  // measure 11
0001
1000
0020
0130
,  // measure 12
1100
0000
1100
0000
,  // measure 13
0001
0010
0100
1000
,  // measure 14
0001
1000
0020
0130
,  // measure 15
1000
0100
0010
0001
,  // measure 16
1000
0100
2000
3010
,  // measure 17
0001
0100
0010
0010
,  // measure 18
1000
0001
0020
0130
,  // measure 19
1000
0100
0010
0001
,  // measure 20
1000
1000
0001
0001
,  // measure 21
0020
0000
0000
0030
,  // measure 22
1000
1000
0020
0130
,  // measure 23
0001
0001
0020
0130
,  // measure 24
1000
0100
0010
0001
,  // measure 25
1000
0100
0010
1001
,  // measure 26
0001
0010
0100
1000
,  // measure 27
0001
0010
1001
1001
,  // measure 28
0200
0000
0000
0300
,  // measure 29
1000
0100
0010
0001
,  // measure 30
0001
0001
1000
1000
,  // measure 31
0010
0010
0100
0100
,  // measure 32
0001
0100
0010
1000
,  // measure 33
0001
0100
0010
1000
,  // measure 34
0100
1000
0010
0001
,  // measure 35
0100
1000
0010
0001
,  // measure 36
0100
0010
0100
0001
,  // measure 37
1000
0100
0010
0001
,  // measure 38
1000
1000
0001
0001
,  // measure 39
0010
0010
0100
0100
,  // measure 40
0001
0010
0100
1000
,  // measure 41
0001
0010
0100
1000
,  // measure 42
0011
0011
1100
1100
,  // measure 43
0110
0110
1001
1001
,  // measure 44
0110
1001
0110
1001
,  // measure 45
0220
0000
0000
0330
,  // measure 46
1000
0100
0010
0001
,  // measure 47
1000
0001
1000
0001
,  // measure 48
0010
1000
0002
0103
,  // measure 49
0010
0001
2000
3010
,  // measure 50
0110
0000
1001
0000
,  // measure 51
1000
0001
0100
0010
,  // measure 52
1000
0100
0010
0001
,  // measure 53
1000
0100
0010
0001
,  // measure 54
1000
0100
0010
0001
,  // measure 55
1000
0100
0010
0001
,  // measure 56
0001
0010
0100
1000
,  // measure 57
0001
0010
0100
1000
,  // measure 58
0001
0010
0100
1000
,  // measure 59
2002
0000
0000
3003
,  // measure 60
2000
3010
0020
0130
,  // measure 61
0002
0013
0200
0310
,  // measure 62
0001
0010
1000
0100
,  // measure 63
0001
0010
1000
0100
,  // measure 64
0001
0010
1000
0100
,  // measure 65
0001
0010
1000
0100
,  // measure 66
0220
0000
0000
0330
,  // measure 67
1000
0100
0010
0001
,  // measure 68
1000
2002
0000
3003
,  // measure 69
1001
0000
1001
0000
0000
0000
0000
0000
0001
0000
0001
0000
0000
2002
0000
0000
,  // measure 70
0000
0000
3003
0000
;

//---------------dance-single - ----------------
#NOTES:
     dance-single:
     :
     Medium:
     7:
     0.514,0.494,0.161,0.208,0.223,341.000,17.000,22.000,0.000,0.000:  // measure 1
0000
0000
0000
0000
,  // measure 2
1000
1000
0000
0000
0000
0000
0000
0000
,  // measure 3
0010
0010
0000
0000
1001
0000
0000
0000
,  // measure 4
0100
0100
0000
0000
0000
0000
0000
0000
,  // measure 5
0001
0001
0000
0000
0000
0110
0000
0000
,  // measure 6
1000
1000
0000
0000
0000
0000
0000
0000
,  // measure 7
0100
0100
0000
0000
0220
0000
0330
0000
,  // measure 8
1000
0100
0000
1000
0100
1000
0000
1000
,  // measure 9
0100
1000
0000
0001
0000
0001
0001
0001
,  // measure 10
0000
0010
0010
0010
0200
0000
0310
0000
,  // measure 11
0000
1000
1000
1000
0002
0000
1003
0000
,  // measure 12
0110
0000
1001
0000
,  // measure 13
1000
0100
0010
0001
1000
0100
0010
0001
,  // measure 14
1000
0001
0100
0110
,  // measure 15
0001
1000
0010
0100
,  // measure 16
1000
0100
0010
0011
,  // measure 17
0001
0000
1000
0000
0100
0000
0010
0010
,  // measure 18
0001
0001
1000
0000
0010
0000
1001
0000
,  // measure 19
0100
1000
0010
0001
,  // measure 20
0100
0001
1000
0010
,  // measure 21
0220
0000
0000
0330
,  // measure 22
0000
1000
1000
1000
0020
0000
0130
0000
,  // measure 23
0000
0001
0001
0001
0200
0000
0310
0000
,  // measure 24
1000
0000
0000
1000
0000
0000
1000
0000
1000
0000
0000
1000
0000
0000
0000
0000
,  // measure 25
0001
0000
0000
0001
0000
0000
0001
0000
0001
0000
0000
0001
0000
0000
0000
0000
,  // measure 26
0010
0000
0000
0010
0000
0000
0010
0000
0010
0000
0000
0010
0000
0000
0000
0000
,  // measure 27
0100
0000
0000
0100
0000
0000
0100
0000
0100
0000
0000
0100
0000
0000
0010
0000
,  // measure 28
2002
0000
0000
3003
,  // measure 29
1000
0100
0010
0100
0001
0100
0010
0100
,  // measure 30
1000
0000
0000
0100
0000
0000
0010
0000
0100
0000
0000
0001
0000
0000
0010
0000
,  // measure 31
0100
0000
0000
1000
0000
0000
0100
0000
1000
0000
0000
0010
0000
0000
0001
0000
,  // measure 32
1000
0000
0000
0010
0000
0000
0001
0000
0100
0000
0000
0010
0000
0000
0001
0000
,  // measure 33
1000
0000
0000
0100
0000
0000
1000
0000
0010
0000
0000
0001
0000
0000
0100
0000
,  // measure 34
0010
0000
0000
0100
0000
0000
1000
0000
0100
0000
0000
0010
0000
0000
0100
0000
,  // measure 35
1000
0000
0000
0100
0000
0000
0010
0000
0001
0000
0000
1000
0000
0000
0010
0000
,  // measure 36
0001
0000
0000
1000
0000
0000
0100
0000
0010
0000
0000
0100
0000
0000
0010
0000
,  // measure 37
0001
0000
0000
1000
0000
0000
0010
0000
1000
0000
0000
0001
0000
0000
0100
0000
,  // measure 38
0001
0000
0000
0010
0000
0000
0100
0000
0010
0000
0000
1000
0000
0000
0100
0000
,  // measure 39
0010
0000
0000
0001
0000
0000
0010
0000
0001
0000
0000
0100
0000
0000
1000
0000
,  // measure 40
0001
0000
0000
0100
0000
0000
1000
0000
0010
0000
0000
0100
0000
0000
1000
0000
,  // measure 41
0001
0000
0000
0010
0000
0000
0001
0000
0100
0000
0000
1000
0000
0000
0010
0000
,  // measure 42
0100
0000
0000
0010
0000
0000
0001
0000
0010
0000
0000
0100
0000
0000
0010
0000
,  // measure 43
0001
0000
0000
0010
0000
0000
0100
0000
1000
0000
0000
0001
0000
0000
0100
0000
,  // measure 44
1000
0000
0000
0001
0000
0000
0010
0000
0100
0000
0000
0010
0000
0000
0100
0000
,  // measure 45
2002
0000
0000
3003
,  // measure 46
0001
0100
0000
0001
0100
0001
0000
0001
,  // measure 47
0100
0001
0000
0110
0000
1000
1000
1000
,  // measure 48
0000
0010
0010
0010
0200
0000
0310
0000
,  // measure 49
0000
0100
0100
0100
0020
0000
0130
0000
,  // measure 50
1001
0000
0110
0000
,  // measure 51
1000
0100
1000
0100
0010
0001
0010
0001
,  // measure 52
1000
1000
0001
0001
0010
0010
0000
0000
,  // measure 53
0100
0100
0001
0001
1000
1000
0000
0000
,  // measure 54
0010
0010
0100
0100
0001
0001
0000
0000
,  // measure 55
1000
1000
0100
0100
0010
0010
0000
0000
,  // measure 56
1000
1000
0001
0001
0100
0100
0000
0000
,  // measure 57
0010
0010
0100
0100
0001
0001
0000
0000
,  // measure 58
1000
1000
0010
0010
0001
0001
0000
0000
,  // measure 59
0010
0010
0010
0010
0100
0100
0100
0100
,  // measure 60
0000
1000
0100
1000
0002
0000
1003
0000
,  // measure 61
0000
0010
0100
0010
0200
0000
0310
0000
,  // measure 62
0010
0000
0000
1000
0000
0000
0001
0000
1000
0000
0000
0100
0000
0000
0001
0000
,  // measure 63
1000
0000
0000
0010
0000
0000
1000
0000
0010
0000
0000
0001
0000
0000
0100
0000
,  // measure 64
0010
0000
0000
0001
0000
0000
0100
0000
1000
0000
0000
0001
0000
0000
0100
0000
,  // measure 65
0010
0000
0000
1000
0000
0000
0100
0000
0010
0000
0000
0001
0000
0000
1000
0000
,  // measure 66
2002
0000
0000
3003
,  // measure 67
0010
0010
1000
1000
0001
0001
0100
0100
,  // measure 68
0010
2002
0000
3003
,  // measure 69
1000
0000
0100
0000
0000
0000
0000
0000
0001
0000
0001
0000
0000
2002
0000
0000
,  // measure 70
0000
0000
3003
0000
;

//---------------dance-single - ----------------
#NOTES:
     dance-single:
     :
     Hard:
     10:
     0.921,0.987,1.000,0.152,0.729,552.000,113.000,16.000,0.000,0.000:  // measure 1
0000
0000
0000
0000
,  // measure 2
1010
1100
0000
0000
0000
0000
0000
0000
,  // measure 3
0101
0000
0011
0000
0000
0000
0000
0000
1001
0000
0000
0000
0010
1000
0010
1000
,  // measure 4
0110
0110
0000
0000
0000
0000
0000
0000
,  // measure 5
1001
1001
0000
0000
0000
0001
0000
0000
,  // measure 6
0011
1100
0000
0000
0000
0000
0000
0000
,  // measure 7
1100
0011
0000
0000
0220
0000
0330
0000
,  // measure 8
0001
0000
1000
0000
0100
0000
0010
0000
1000
0000
1000
0100
0000
0100
0010
0000
,  // measure 9
0000
0000
0001
0000
0100
0000
0010
0000
1000
0000
1000
0001
0000
0001
0010
0000
,  // measure 10
0000
0000
1000
0000
1000
0000
1000
0000
0001
0100
0001
0000
0001
1000
0001
0000
,  // measure 11
0000
0000
0010
0000
0010
0000
0010
0000
0100
0010
0100
0000
1000
0001
1000
0000
,  // measure 12
0012
0003
0000
0000
1200
0300
0000
0000
,  // measure 13
0010
1000
0010
0000
0100
0001
0100
0000
1000
0100
1000
0000
0010
0001
0010
0000
,  // measure 14
0010
0110
0001
0001
1000
1000
0001
0000
,  // measure 15
1000
1100
0001
0001
0100
0100
0010
0000
,  // measure 16
0001
0011
1000
1000
0010
0010
1001
0000
,  // measure 17
0100
0000
0110
0000
0010
0000
0010
0000
0001
0000
0001
0000
1000
0100
1000
0000
,  // measure 18
0110
0110
0001
0001
1000
1000
0110
0000
,  // measure 19
0011
0000
0011
0000
1000
0000
1000
0000
0100
0000
0100
0000
1000
0001
1000
0000
,  // measure 20
0001
0000
0001
0100
0000
0100
0010
0000
0010
1000
0000
0000
0001
1000
0001
0000
,  // measure 21
1000
0100
1000
0100
0010
0100
0010
0100
0001
0100
0001
0100
0010
1000
0010
0000
,  // measure 22
0000
0000
1001
0000
1001
0000
1001
0000
0010
1000
0010
0000
0100
0001
0100
0000
,  // measure 23
0000
0000
1100
0000
1100
0000
1100
0000
0010
0001
0010
0000
0100
1000
0100
0000
,  // measure 24
1001
0000
0001
0100
0000
0000
0010
0000
1000
0000
0001
0010
0000
0000
0000
0000
,  // measure 25
0110
0000
1000
0100
0000
0000
0010
0000
1000
0000
0001
0100
0000
0000
0000
0010
,  // measure 26
0100
0000
0001
1000
0000
0000
0010
0000
1000
0000
0100
1000
0000
0000
0000
0000
,  // measure 27
0001
0000
0100
0001
0000
0000
0010
0000
1000
0010
1000
0010
0100
0001
0100
0001
,  // measure 28
2002
0000
0000
3003
,  // measure 29
0110
1010
0110
0110
1001
0011
1001
0110
,  // measure 30
1001
0000
0001
0100
0000
0000
0010
0000
0100
0010
0000
0010
1000
0000
0001
0000
,  // measure 31
0011
0000
0001
1000
0000
0000
0010
0000
0001
0010
0000
0010
0001
0000
1000
0000
,  // measure 32
0110
0000
0010
0100
0000
0000
1000
0000
0010
1000
0000
1000
0010
0000
0100
0000
,  // measure 33
0011
0000
1000
0001
0000
0000
0010
0000
1000
0010
0000
0010
1000
0000
0001
0000
,  // measure 34
1000
0000
0100
0000
0010
1000
0000
1000
0010
0000
0100
0000
0001
0010
0000
0010
,  // measure 35
0001
0000
0100
0000
0010
1000
0000
1000
0001
0000
0100
0000
0010
0001
0010
0001
,  // measure 36
1000
0000
0001
0000
0100
0001
0000
0001
0100
0000
0010
0000
0100
1000
0000
1000
,  // measure 37
0100
0000
0010
0000
1000
0001
0000
0001
0100
0000
0010
0000
1000
0100
1000
0100
,  // measure 38
0010
0000
0001
0000
1000
0100
0000
0010
1000
0000
0100
0000
0010
0001
0000
0100
,  // measure 39
0001
0000
0100
0000
0010
1000
0000
0010
0001
0000
0100
0000
0010
1000
0010
0000
,  // measure 40
0001
0000
1000
0000
0010
0001
0000
1000
0010
0000
0100
0000
0010
1000
0000
0001
,  // measure 41
0010
0000
0100
0000
1000
0001
0000
0001
0100
0000
0010
0000
0100
1000
0100
1000
,  // measure 42
0010
0000
0011
0000
0001
1000
0000
1000
0001
0000
0110
0000
0010
0100
0000
0100
,  // measure 43
0010
0000
1010
0000
0100
0001
0000
0001
0100
0000
0101
0000
0010
0001
0000
0001
,  // measure 44
0010
0000
1010
0000
1000
0001
0000
0001
1000
0000
1001
0000
0001
0100
0000
0100
,  // measure 45
0220
0000
0000
0330
,  // measure 46
0000
0000
1000
0000
0100
0000
0010
0000
1001
0000
0001
0100
0000
0100
0010
0000
,  // measure 47
0000
0000
0001
0000
1000
0000
0010
0000
0110
0000
0001
0100
0000
0100
0010
0000
,  // measure 48
0000
0000
1010
0000
1010
0000
1010
0000
0100
0001
0100
0000
0010
1000
0010
0000
,  // measure 49
0000
0000
0101
0000
0101
0000
0101
0000
0010
1000
0010
0000
0001
1000
0001
0000
,  // measure 50
1002
0003
0000
0000
2010
3000
0000
0000
,  // measure 51
0001
0100
0001
0100
0010
1000
0010
1000
0100
0010
0100
0010
1000
0100
1000
0100
,  // measure 52
0001
0000
0101
0000
0001
0010
0000
0010
0100
0000
1010
0000
1010
0000
1010
0000
,  // measure 53
0100
0000
0110
0000
1000
0100
0000
0100
0010
0000
0011
0000
0011
0000
0011
0000
,  // measure 54
0001
0000
1001
0000
0010
1000
0000
1000
0010
0000
0110
0000
0110
0000
0110
0000
,  // measure 55
0100
0000
1100
0000
0100
0010
0000
0010
0001
0000
1001
0000
1001
0000
1001
0000
,  // measure 56
0011
0000
0011
0000
0001
0100
0000
0100
0010
0000
1010
0000
1100
0000
1010
0000
,  // measure 57
1001
0000
1001
0000
0100
0010
0000
0010
1000
0000
0101
0000
0011
0000
0101
0000
,  // measure 58
0110
0000
0110
0000
1000
0001
0000
0001
1000
0000
0011
0000
1100
0000
0011
0000
,  // measure 59
1000
0001
1000
0001
1000
0001
1000
0001
0100
0010
0100
0010
0100
0010
0100
0010
,  // measure 60
0000
0000
0110
0000
0101
0000
0110
0000
1000
0001
0100
0000
0001
1000
0100
0000
,  // measure 61
0000
0000
0110
0000
1010
0000
0110
0000
1000
0010
0100
0000
0001
0100
0010
0000
,  // measure 62
1010
0000
0010
0100
0000
0000
0001
0000
1001
0000
0001
1000
0000
0000
0001
0000
,  // measure 63
0101
0000
0001
0100
0000
0000
0010
0000
1010
0000
1000
0001
0000
0000
1000
0001
,  // measure 64
1000
0000
0001
0100
0000
0000
0010
0000
1010
0000
0001
1000
0000
0000
0001
0000
,  // measure 65
1001
0000
1000
0100
0000
0000
0010
0000
1010
0000
0001
1000
0000
0000
0001
0000
,  // measure 66
2002
0000
0000
3003
,  // measure 67
1000
0000
1000
0000
0001
0100
0001
0000
0010
1000
0010
0000
0001
1000
0001
0000
,  // measure 68
0010
0220
0000
0330
,  // measure 69
1001
0000
1001
0000
0000
0000
0000
0000
0001
1000
0001
0000
0000
2002
0000
0000
,  // measure 70
0000
0000
3003
0000
;

//---------------dance-single - ----------------
#NOTES:
     dance-single:
     :
     Challenge:
     9:
     0.798,0.921,1.000,0.114,0.227,463.000,115.000,12.000,0.000,0.000:  // measure 1
0000
0000
0000
0000
,  // measure 2
1001
1001
0000
0000
0000
0000
0000
0000
,  // measure 3
0110
0110
0000
0000
1001
0000
1000
0100
,  // measure 4
0011
0011
0000
0000
0000
0000
0000
0000
,  // measure 5
1001
1001
0000
0000
0000
0110
0000
0000
,  // measure 6
1100
1100
0000
0000
0000
0000
0000
0000
,  // measure 7
0011
0011
0000
0000
2002
0000
3003
0000
,  // measure 8
0001
0000
1000
0000
0010
0000
0100
0000
0001
0000
1000
0100
0000
0100
0010
0000
,  // measure 9
0000
0000
0001
0000
1000
0000
0010
0000
0100
0000
0100
0010
0000
0010
0100
0000
,  // measure 10
0000
0000
1000
0000
1000
0000
1000
0000
0001
1000
0001
0000
1000
0001
1000
0000
,  // measure 11
0000
0000
0010
0000
0010
0000
0010
0000
0100
0010
0100
0000
0010
0100
0010
0000
,  // measure 12
1001
0000
0110
0000
,  // measure 13
1000
0100
0010
0001
1000
0100
0010
0001
,  // measure 14
1000
1000
0010
0010
0100
0100
1001
0000
,  // measure 15
0001
0001
0010
0100
1000
0100
0010
0001
,  // measure 16
1000
1000
0010
0100
0001
1000
1001
0000
,  // measure 17
0010
0000
0100
0000
1000
0000
0100
0000
0010
0000
0001
0000
1000
0100
1000
0000
,  // measure 18
0010
0100
0001
1000
0100
0010
0011
0000
,  // measure 19
0001
0000
0010
0000
0100
0000
1000
0000
0100
0000
0010
0000
0001
1000
0001
0000
,  // measure 20
0001
0000
0001
0100
0000
0100
0010
0000
0010
1000
0000
0000
0001
1000
0001
0000
,  // measure 21
1000
0100
0010
0001
1000
0100
0010
0001
,  // measure 22
0000
0000
0100
0000
0100
0000
0100
0000
0010
0100
0010
0000
0100
0010
0100
0000
,  // measure 23
0000
0000
0001
0000
0001
0000
0001
0000
1000
0001
1000
0000
0001
1000
0001
0000
,  // measure 24
0001
0000
0000
0011
0000
0000
0110
0000
1100
0000
0000
1100
0000
0000
0000
0000
,  // measure 25
1000
0000
0000
1010
0000
0000
0110
0000
0101
0000
0000
0101
0000
0000
0000
0000
,  // measure 26
0010
0000
0000
0110
0000
0000
1001
0000
0110
0000
0000
1001
0000
0000
0000
0000
,  // measure 27
1000
0000
0000
1100
0000
0000
0011
0000
1100
0000
0000
0011
0000
0000
1000
0000
,  // measure 28
2002
0000
0000
3003
,  // measure 29
0110
0110
0110
0110
1001
1001
1001
1001
,  // measure 30
1000
0001
0100
0001
0010
0100
1000
0100
,  // measure 31
1000
0010
0001
0100
0010
0100
1000
0001
,  // measure 32
0100
0001
0010
0001
0100
1000
0010
1000
,  // measure 33
0100
0010
1000
0100
0010
0001
1000
1000
,  // measure 34
0001
0010
0100
1000
0001
0100
0010
1000
,  // measure 35
0001
0001
0010
0010
0100
0100
1000
1000
,  // measure 36
0100
1000
0010
0001
0100
0010
1000
0100
,  // measure 37
0001
0010
0100
1000
0001
0010
0100
1000
,  // measure 38
0100
1000
0010
0001
0100
1000
0010
0001
,  // measure 39
0100
0010
1000
0100
0010
0100
1000
0100
,  // measure 40
0010
1000
0001
0100
0010
1000
0100
1000
,  // measure 41
0010
0001
0100
0001
0010
0100
0010
1000
,  // measure 42
0001
0001
0100
0100
0010
0010
1000
1000
,  // measure 43
0001
0001
0100
0100
0010
0010
1000
1000
,  // measure 44
0001
0001
0010
0010
0100
0100
1000
1000
,  // measure 45
2002
0000
0000
3003
,  // measure 46
1001
1001
0000
0110
1001
0110
0000
1001
,  // measure 47
0110
1001
0000
1001
0000
1001
1001
1001
,  // measure 48
0000
0000
1010
0000
1100
0000
1100
0000
0001
0100
0001
0000
0100
0001
0100
0000
,  // measure 49
0000
0000
0011
0000
0101
0000
0101
0000
1000
0010
1000
0000
0010
1000
0010
0000
,  // measure 50
1001
0000
0110
0000
,  // measure 51
0001
0100
0010
1000
0001
0100
0010
1000
,  // measure 52
0100
0100
0010
0010
0001
0001
1000
1000
,  // measure 53
0100
0100
0010
0010
0001
0001
1000
1000
,  // measure 54
0100
0100
0010
0010
0001
0001
1000
1000
,  // measure 55
0100
0100
0010
0010
0001
0001
1000
1000
,  // measure 56
0001
0001
0010
0010
0100
0100
1000
1000
,  // measure 57
0001
0001
0010
0010
0100
0100
1000
1000
,  // measure 58
0011
0011
0110
0110
1100
1100
1000
1000
,  // measure 59
0110
0110
0110
0110
1001
1001
1001
1001
,  // measure 60
0000
0000
1001
0000
0110
0000
1001
0000
0001
0100
0001
0000
0001
1000
0001
0000
,  // measure 61
0000
0000
0110
0000
1010
0000
0110
0000
1000
0100
1000
0000
1000
0010
1000
0000
,  // measure 62
0011
0000
0000
0110
0000
0000
1010
0000
0110
0000
0000
1001
0000
0000
0110
0000
,  // measure 63
1001
0000
0000
0011
0000
0000
0110
0000
1100
0000
0000
1001
0000
0000
1100
0000
,  // measure 64
0110
0000
0000
1001
0000
0000
0101
0000
1010
0000
0000
1100
0000
0000
0011
0000
,  // measure 65
1100
0000
0000
0110
0000
0000
1001
0000
0110
0000
0000
1100
0000
0000
0011
0000
,  // measure 66
2200
0000
0000
3300
,  // measure 67
0001
0010
0001
0000
0100
0010
0100
0000
1000
0100
1000
0000
0010
0100
0010
0000
,  // measure 68
1000
2002
0000
3003
,  // measure 69
1001
0000
1001
0000
0000
0000
0000
0000
0001
1000
0001
0000
0000
2002
0000
0000
,  // measure 70
0000
0000
3003
0000
;
