#TITLE:AA;
#SUBTITLE:;
#ARTIST:DJ Amuro;
#TITLETRANSLIT:;
#SUBTITLETRANSLIT:;
#ARTISTTRANSLIT:;
#CREDIT:;
#BANNER:AABNR.PNG;
#BACKGROUND:AABG.PNG;
#LYRICSPATH:;
#CDTITLE:!eggmanTitle.png;
#MUSIC:Beatmania IIDX 11 - IIDX RED - AA.mp3;
#OFFSET:-0.325;
#SAMPLESTART:38.961;
#SAMPLELENGTH:12.000;
#SELECTABLE:YES;
#BPMS:0.000=154.000;
#STOPS:;
#BGCHANGES:;
// cache tags:
#FIRSTBEAT:0.000;
#LASTBEAT:292.000;
#SONGFILENAME:Songs/Community Keyboard Megapack - Volume 1/(EggmaniMN) AA/AA.sm;
#HASMUSIC:1;
#HASBANNER:1;
#MUSICLENGTH:118.386;
// end cache tags

//---------------dance-single - ----------------
#NOTES:
     dance-single:
     :
     Hard:
     10:
     1.000,1.000,0.304,0.000,1.000,1035.000,36.000,0.000,0.000,0.000:
1001
0100
0010
0001
1000
0010
0100
0001
1000
0100
0010
0100
1000
0010
0100
0001
,
0100
0010
0100
0001
0010
0100
1000
0100
0010
0001
1000
0010
0100
0001
0010
0100
,
1000
0100
0010
0001
0100
0001
0100
0010
1000
0001
0010
0100
1000
0100
1000
0100
,
0010
0001
1000
0010
0100
0010
1000
0100
0010
0100
1000
0010
0100
0001
1000
0100
,
0100
1000
0100
1000
0001
1000
0010
1000
0001
1000
0100
1000
0010
1000
0100
1000
,
0001
0100
0001
0010
0001
0100
0001
1000
0001
0100
0001
0010
0001
0100
0001
1000
,
0001
0010
0100
1000
0010
0100
0001
0100
0010
0100
0001
0010
0100
1000
0010
0100
,
0001
1000
0001
1000
0001
1000
0001
1000
0100
0010
0001
1000
0001
1000
0001
1000
,
0100
0000
1100
0000
0011
0000
1001
0000
1010
0000
1000
0100
0010
0000
0010
0000
,
0110
0000
1100
0000
0011
0000
1001
0000
1010
0000
1000
0010
0100
0000
0010
0100
,
0001
0000
0101
0000
1010
0000
0011
0000
0100
0000
0010
0100
1000
0000
0001
0000
,
1000
0010
0000
0100
0001
0010
0000
0001
0010
0100
0000
1000
0100
1000
0010
1000
,
0001
0000
0011
0000
1010
0000
0101
0000
1010
0000
0010
1000
0001
0000
1000
0000
,
1001
0000
0101
0000
1100
0000
0011
0000
1010
0000
1000
0010
0100
0000
0001
0100
,
0010
0000
1010
0000
1100
0000
0011
0000
0100
0000
1000
0010
0100
0000
0010
0000
,
1010
0000
0101
0000
0011
0000
0110
0000
1000
0010
0000
0010
0100
0000
0100
0000
,
0001
0100
0010
1000
0100
0000
0010
0100
1000
0000
0000
0010
0100
0000
0010
0100
,
0010
0100
0001
0010
0100
1000
0010
0100
0001
0010
0000
0100
1000
0010
0100
0001
,
0010
0100
1000
0010
0100
0001
1000
0000
1001
0000
0000
0001
1000
0010
0100
0000
,
0010
0100
0001
1000
0100
0010
0001
0010
0100
0010
0001
0010
0100
0010
0001
0010
,
0001
0010
0100
1000
0100
0000
1000
0100
0010
0000
0000
0010
0001
0000
1000
0100
,
0010
0100
1000
0010
0100
0010
0100
0001
0010
0100
0000
0100
1000
0100
0010
0001
,
1000
0010
0100
0001
0100
0001
0100
0000
1010
0000
0000
0100
0010
0100
0001
0000
,
1001
0100
0010
0001
0010
0100
0010
0001
0010
0100
1000
0010
0100
0001
0100
0010
,
1000
0010
0100
0001
0010
0100
1000
0010
0100
0000
0000
0010
1000
0000
0010
0100
,
0001
0010
0000
0100
0010
0100
1000
0100
0010
0100
0000
0010
0001
0100
0010
1000
,
0100
0010
0000
0001
0100
0010
1000
0000
1010
0000
0000
0010
0100
0010
1000
0000
,
0100
0010
0000
0001
0010
0100
1000
0010
0100
0010
0000
1000
0010
0100
0001
1000
,
0100
0010
0000
0001
0010
0000
0100
1000
0001
0000
0000
0010
0100
0000
1000
0010
,
0100
0010
0000
1000
0010
0100
0001
0010
0001
0100
0000
0001
1000
0100
0010
0001
,
0100
0001
0000
0010
0100
0010
0001
0000
0110
0000
0000
0010
0001
0100
0010
0000
,
1001
0010
0100
0001
0100
0010
0100
0001
1000
0100
0010
0100
1000
0100
0010
0001
,
0100
0000
0000
0000
,
1000
0100
0010
0001
1000
0100
0010
0001
1000
0010
0100
0001
1000
0010
0100
0001
,
1000
0010
0100
0001
1000
0100
0010
0100
1000
0010
0100
0001
1000
0100
0010
0100
,
1000
0010
0100
0001
0010
0100
0010
0001
1000
0010
0100
0001
1000
0100
0010
0100
,
1000
0010
0100
0001
1000
0100
0010
0100
1000
0010
0100
0001
0010
0100
0010
0001
,
1000
0010
0100
0001
1000
0100
0010
0001
0010
0100
1000
0010
0100
0010
1000
0010
,
1000
0100
0010
0100
1000
0010
0100
0001
0010
0100
0010
0001
1000
0100
0010
0100
,
1000
0010
0100
0001
1000
0100
1000
0010
0100
0001
1000
0100
0010
0100
1000
0010
,
0100
0001
1000
0100
0010
0100
1000
0010
0100
0001
0010
0100
0010
0001
1000
0100
,
0010
0001
1000
0010
0100
0001
0010
0100
1000
0100
0010
0001
0100
0010
0100
0000
,
0010
1000
0010
0100
0010
1000
0100
0010
0001
1000
0100
0010
0001
0100
0010
1000
,
0100
0010
0100
0010
0001
0010
0100
1000
0001
0100
0010
0100
0001
0010
0100
1000
,
0001
0100
0010
0100
0001
0010
0100
1000
0001
0100
0010
0100
0001
1000
0010
0100
,
0001
0100
0010
1000
0001
0010
0100
1000
0100
0010
0100
1000
0010
0100
0010
1000
,
0100
0010
0001
1000
0100
0010
0100
1000
0010
0100
0001
0010
0100
0010
0001
1000
,
0010
0100
0001
0010
0100
1000
1000
0100
0010
0100
1000
0001
0010
0100
1000
0010
,
0100
0001
0010
0100
1000
0100
0010
0100
1000
0010
0100
0001
0100
0010
0100
0001
,
0100
0001
1000
0010
0100
0010
1000
0100
0010
0100
1000
0001
0100
0010
0100
0001
,
1000
0100
0010
0001
0100
0010
1000
0010
0100
0001
0100
0010
1000
0100
0010
0001
,
0010
0100
0010
0100
1000
0100
0010
0001
0010
0100
0010
0001
0100
0010
1000
0100
,
0010
0001
1000
0100
0010
0100
1000
0010
0100
0001
0100
0010
1000
0100
0010
0001
,
1000
0100
0010
0001
0010
0100
1000
0100
0010
0001
0100
0001
0100
0010
0100
0010
,
1000
0010
0100
0001
0010
0001
0100
0010
0100
0010
1000
0100
0010
0100
1000
0010
,
0100
0001
0010
0100
1000
0100
0010
0001
1000
0010
0100
0001
0100
0010
0100
0010
,
1000
0100
0010
0001
1000
0010
0100
0010
1000
0100
0000
0100
0010
0000
0010
0000
,
0001
0100
0000
0001
1000
0000
0100
0010
0001
0000
0000
0100
1000
0000
0010
0100
,
0010
0100
0000
0001
0010
0100
1000
0010
0100
0001
0000
0100
0010
1000
0010
0100
,
0001
1000
0000
0100
0010
0001
0100
0000
0101
0000
0000
0001
0010
0100
1000
0000
,
0010
0100
0000
0001
1000
0100
0010
0100
1000
0010
0000
0100
0001
1000
0000
0000
,
0010
0100
0001
0010
0100
0000
0010
0100
1000
0000
0000
1000
0100
0000
0010
0100
,
1000
0001
0100
0010
0100
0001
1000
0100
0010
0001
0000
1000
0010
0100
0001
1000
,
0100
1000
0001
0100
0010
0100
0001
1000
0100
0000
0010
0001
0010
0100
1000
0000
,
0100
0010
0001
0100
0010
0100
0001
1000
0100
0010
0001
0100
0010
1000
0010
0100
,
0001
0100
0010
1000
0100
0010
0001
0100
0010
0100
0010
1000
0010
0100
0010
0100
,
0001
1000
0100
0010
0100
1000
0010
0100
0001
1000
0100
0010
0001
0010
0100
1000
,
0100
0010
0001
0010
0100
1000
0001
0100
0010
0100
0001
0100
0010
1000
0010
0100
,
0001
0100
0010
1000
0010
0100
0001
0100
0010
0100
0001
0010
0100
0010
0100
1000
,
0100
1000
0010
0100
0010
0100
0001
0010
0100
1000
0100
0010
0001
1000
0010
0100
,
0001
0100
0010
1000
0100
0010
0001
0100
0010
0100
0001
0010
0100
1000
0010
1000
,
0100
1000
0001
0100
0001
0100
0010
0100
0001
0010
0001
0100
0001
0100
0010
0100
,
0001
0010
0100
1000
0100
0010
0001
0010
0100
1000
0010
0100
0001
0010
0100
1000
,
0010
0000
0000
0000
;

//---------------dance-single - ----------------
#NOTES:
     dance-single:
     :
     Challenge:
     12:
     1.000,1.000,1.000,0.000,1.000,1033.000,223.000,0.000,0.000,0.000:
1001
0100
0010
0001
1000
0010
0100
0001
1000
0100
0001
0100
1000
0010
0100
0001
,
1100
0010
0100
0001
0010
0100
1000
0100
0010
0001
1000
0010
0100
0001
0010
0100
,
1001
0100
0010
0001
0100
0001
0100
0010
1000
0001
0010
0100
1000
0100
1000
0100
,
1010
0001
1000
0010
0101
0010
1000
0100
0011
0100
1000
0010
1100
0001
1000
0100
,
0011
1000
0100
1000
0101
1000
0010
1000
0101
1000
0100
1000
0011
1000
0100
1000
,
0011
0100
0010
1000
0011
0100
0010
0001
1010
0100
0010
1000
0011
0100
0010
0001
,
1010
0100
0010
0100
1001
0100
0001
0100
0011
0100
1000
0100
0011
0100
0001
0100
,
0001
1000
0001
1000
0001
1000
0001
1000
0110
0001
1000
0001
1000
0001
1000
0001
,
0110
0000
1100
0000
0011
0000
1001
0000
1010
0000
1000
0100
0001
0000
0010
0000
,
0110
0000
1100
0000
0011
0000
1001
0000
1010
0000
1000
0010
0001
0000
0001
0100
,
1010
0000
0101
0000
1010
0000
0011
0000
0100
0000
0010
0100
0001
0000
0001
0000
,
1001
0010
0000
0010
0101
0010
0000
1000
0110
0001
0000
1000
0101
1000
0010
1000
,
0011
0000
0011
0000
1010
0000
0101
0000
1010
0000
0010
1000
0001
0000
1000
0000
,
1001
0000
0101
0000
1100
0000
0011
0000
1010
0000
1000
0010
0001
0000
0001
0100
,
0011
0000
1100
0000
1010
0000
0011
0000
0100
0000
1000
0010
0101
0000
0010
0000
,
1010
0000
0101
0000
0011
0000
0110
0000
1000
0010
0000
0010
0100
0000
0100
0000
,
1001
0100
0010
1000
0100
0000
0011
0100
1000
0000
0000
0110
0001
0000
1000
0100
,
0011
0100
1000
0010
0101
0010
0100
0001
1100
0010
0000
0110
0001
1000
0010
0100
,
0011
0100
0010
1000
0011
0100
0011
0000
1001
0000
0000
0110
1000
0010
0100
0000
,
1010
0100
0001
1000
0101
0010
0001
0010
1100
0010
0000
0010
0100
0010
1001
0010
,
0001
0010
0100
1000
0110
0000
1100
0010
0001
0000
0000
0110
0001
0000
1000
0100
,
0011
0100
1000
0010
0101
0010
0100
0001
1010
0100
0000
0100
1000
0100
0010
0001
,
1100
0010
0100
0001
0110
0001
0100
0000
1010
0000
0000
0101
0010
0100
0001
0000
,
1001
0100
0010
0001
1010
0100
0010
0001
1010
0100
1000
0010
1100
0001
0100
0010
,
1001
0010
0100
0001
1010
0100
1000
0010
0101
0000
0000
0010
1001
0000
0010
0100
,
1001
0010
0000
0100
0011
0100
1000
0100
0011
0100
0000
0010
0001
0100
0010
1000
,
0101
0010
0000
0001
0110
1000
0010
0000
0101
0000
0000
0010
0101
0010
1000
0000
,
0110
0001
0000
1000
0011
0100
0001
0010
1100
0010
0000
1000
0110
0001
1000
0100
,
0011
0100
0000
1000
0110
0000
0001
1000
0110
0000
0000
0010
0101
0000
1000
0010
,
0101
0010
0000
1000
0110
0001
0100
0010
1001
0100
0000
0001
1000
0100
0010
0001
,
0110
1000
0000
0010
0101
0010
1000
0000
0110
0000
0000
0010
0001
0100
0010
0000
,
1001
0010
0100
0001
0110
1000
0100
0010
0101
0010
1000
0100
1001
0100
0010
0001
,
0110
0000
0000
0000
,
1000
0100
0010
0001
1000
0100
0010
0001
1000
0010
0100
0001
1000
0010
0100
0001
,
1000
0010
0100
0001
1000
0100
0010
0100
1000
0010
0100
0001
1000
0100
0001
0100
,
1000
0010
0100
0001
0010
1000
0010
0001
1000
0010
0100
0001
1000
0100
0010
0100
,
1000
0010
0100
0001
1000
0100
0001
0100
1000
0010
0100
0001
0010
1000
0010
0001
,
1000
0010
0100
0001
1000
0100
0001
0100
0010
0100
1000
0010
0100
0010
0001
0010
,
1000
0100
0001
0100
1000
0010
0100
0001
0010
0100
0010
0001
1000
0100
0010
0100
,
1000
0010
0100
0001
1000
0100
1000
0010
0100
0001
1000
0100
0010
0100
1000
0010
,
0100
0001
1000
0100
0010
0100
1000
0010
0100
0001
0010
0100
0010
0001
1000
0100
,
1001
0010
0001
1000
0010
0100
0001
0010
0100
1000
0100
0010
1001
0100
0010
0000
,
0110
1000
0010
0101
0010
1000
0101
0010
0001
1000
0110
0001
1000
0100
0010
0001
,
1100
0010
0100
0010
1001
0010
0100
0001
1000
0100
0011
0100
1000
0010
1100
0001
,
1000
0100
0011
0100
1000
0010
1100
0001
1000
0100
0011
0100
1000
0001
1010
0100
,
1001
0100
0010
0001
1000
0010
0100
0001
0110
1000
0101
0010
1001
0100
1010
0001
,
1010
0100
0011
1000
0100
0010
0101
1000
0010
0100
0001
0010
0100
0010
0101
1000
,
0011
0100
0001
0010
0000
0010
1000
0100
0011
0100
1000
0001
1010
0100
0001
1000
,
0100
1000
0010
0100
0001
1000
0010
0100
0001
0010
0100
1000
0100
0001
0100
1000
,
0110
0001
1000
0010
0101
0010
1000
0100
0011
0100
1000
0001
0110
1000
0010
0100
,
1001
0100
0010
1000
0101
0010
0001
0010
0101
1000
0100
0010
1001
0100
0010
1000
,
0011
1000
0010
0100
1001
0100
0010
1000
0110
1000
0010
0100
1010
0100
0001
1000
,
0110
0001
1000
0100
0011
0100
1000
0010
0101
0010
0100
0001
1100
0010
0100
0010
,
1001
0100
0010
0001
1010
0100
1000
0100
1010
0001
0100
0001
1100
0010
0100
0010
,
1001
0010
0100
0001
0110
0001
0100
0010
0101
0010
1000
0100
1001
0100
1000
0010
,
1100
0001
0010
0100
1010
0100
0010
0001
1100
0010
0100
0001
1100
0010
0100
0010
,
1000
0100
0010
0001
1000
0010
0100
0010
1000
0100
0000
0100
0010
0000
0010
0000
,
0011
0100
0000
0001
1000
0000
0100
0010
1001
0000
0000
0110
1000
0000
0010
0100
,
0011
0100
0000
1000
0010
0100
0001
1000
0110
0001
0000
0101
0010
0001
0100
0010
,
1001
0100
0000
0001
0110
1000
0100
0000
0011
0000
0000
0001
0010
0100
1000
0000
,
1010
0100
1000
0001
1010
0100
0010
0100
1001
0010
0000
0110
0001
1000
0000
0000
,
0011
0100
1000
0010
0101
0000
0010
0100
1001
0000
0000
1001
0100
0000
0010
0100
,
1010
0001
0100
0010
1100
0001
1000
0100
1010
0001
0000
1000
0010
0100
0001
1000
,
0110
1000
0001
0100
0010
0100
1001
0000
0110
0000
0001
1000
0011
0100
0001
0000
,
0101
0010
0001
0100
1010
0100
0001
1000
0110
0001
1000
0100
1010
0001
1000
0100
,
0011
0100
1000
0010
1001
0010
1000
0100
1010
0100
0010
0001
0110
1000
0010
0100
,
0011
1000
0100
0010
0101
1000
0010
0100
0011
1000
0100
0010
1001
0010
0100
1000
,
0110
0001
1000
0010
1100
0001
1000
0100
0011
0100
1000
0001
0110
1000
0010
0100
,
1001
0100
0010
1000
0110
0001
1000
0100
1010
0100
1000
0010
0101
0010
0100
0001
,
0110
1000
0010
0100
0011
0100
1000
0010
0100
0001
1000
0100
0010
0001
1000
0100
,
0011
0100
1000
0010
0101
0010
1001
0100
0010
0100
1000
0001
0010
0100
1000
0001
,
0110
1000
0010
0100
0011
0100
1000
0010
0100
0001
0010
0100
1000
0001
0010
0100
,
1000
0010
0100
0001
1000
0100
1000
0010
0100
0001
0010
0100
1000
0010
0100
0001
,
0110
0000
0000
0000
;
