#TITLE:Ktn Gtr;
#SUBTITLE:;
#ARTIST:DJ Sharpnel;
#TITLETRANSLIT:;
#SUBTITLETRANSLIT:;
#ARTISTTRANSLIT:;
#CREDIT:;
#BANNER:katana bn.png;
#BACKGROUND:katana bg.png;
#LYRICSPATH:;
#CDTITLE:;
#MUSIC:Ktn Gtr.ogg;
#OFFSET:-0.060;
#SAMPLESTART:164.312;
#SAMPLELENGTH:20.370;
#SELECTABLE:YES;
#DISPLAYBPM:189.000;
#BPMS:0.000=188.500;
#STOPS:;
#BGCHANGES:;
// cache tags:
#FIRSTBEAT:24.000;
#LASTBEAT:789.000;
#SONGFILENAME:Songs/SHARPNELSTREAMZ v2/Ktn Gtr/Ktn Gtr.sm;
#HASMUSIC:1;
#HASBANNER:1;
#MUSICLENGTH:253.440;
// end cache tags

//---------------dance-single - 15+ (CTalon)----------------
#NOTES:
     dance-single:
     15+ (CTalon):
     Challenge:
     15:
     1.000,1.000,0.189,0.114,1.000,2320.000,48.000,29.000,32.000,0.000:
0000
0000
0000
0000
,
0000
0000
0000
0000
,
0000
0000
0000
0000
,
0000
0000
0000
0000
,
0000
0000
0000
0000
,
0000
0000
0000
0000
,
1000
0000
0000
0001
0000
0000
1000
0000
0000
0001
0000
0000
0000
0000
0000
0000
0000
0000
1000
0000
0000
0100
0000
0000
0010
0000
0000
0000
0000
0000
0000
0000
0000
0000
0000
0000
0001
0000
0100
0000
0001
0000
0100
0000
0001
0000
0100
0000
,
0001
0000
0010
0000
0100
0000
0010
0001
0010
0001
0010
0000
0001
1000
0001
1000
,
0100
0000
0010
0000
0001
0000
1000
0010
1000
0010
1000
0000
0100
0010
0100
0010
,
0001
0000
1000
0000
0010
0000
0100
0001
0100
0001
0100
0000
0010
1000
0010
1000
,
0100
0000
0000
1100
0000
0000
1001
0000
0011
0000
0000
1010
0000
0000
1001
0000
,
0001
0000
1000
0000
0010
0000
0100
0001
0100
0001
0100
0000
0001
1000
0001
0000
,
0100
0000
0000
0000
0000
0000
0001
0000
0000
0000
0000
0000
0010
0000
0000
0000
0000
0000
0100
0000
0000
1000
0000
0000
0100
0000
0000
1000
0000
0000
0100
0000
0000
0000
0000
0000
1000
0000
0001
0000
1000
0000
0001
0000
1000
0000
0001
0000
,
1000
0000
0000
0000
,
1001
0000
0000
1010
0000
0000
0101
0000
0000
1001
0000
0000
1000
0001
1000
0001
1000
0001
1000
0001
1000
0001
1000
0001
,
1000
0000
0100
0000
0110
0000
0010
0001
1000
0010
0100
0000
0001
1000
0100
0010
,
0001
0000
1000
0000
1010
0000
0010
0100
0001
0100
0010
0000
1000
0100
0010
0100
,
1000
0000
0001
0000
0101
0000
0100
0001
0010
0100
0010
0000
0001
1000
0010
1000
,
0100
0000
1000
0000
1001
0000
0001
0010
0100
0010
0001
0000
0010
0100
1000
0001
,
0100
0000
0001
0000
1001
0000
1000
0100
0010
0001
1000
0000
0001
0100
0010
1000
,
0010
0000
1000
0000
1001
0000
0001
0010
0001
0100
0001
0000
1000
0100
0010
0001
,
1000
0000
0100
0000
1100
0000
1000
0010
0100
0001
0100
0000
0001
0010
0100
1000
,
0001
0011
0011
0011
1001
1001
1001
1001
,
0101
0000
0100
0000
0110
0000
0010
1000
0001
1000
0100
0000
0010
0100
1000
0001
,
0100
0000
0010
0000
1010
0000
1000
0100
0010
0001
0010
0000
0001
0100
0010
0100
,
0001
0000
1000
0000
1100
0000
0100
1000
0001
1000
0001
0000
0100
0010
1000
0010
,
0100
0000
0001
0000
1001
0000
1000
0100
0010
0100
0010
0000
0001
0100
0010
0100
,
0001
0000
1000
0000
1010
0000
0010
1000
0100
1000
0001
0000
0010
0001
0100
0001
,
1000
0000
0100
0000
0110
0000
0010
0001
1000
0001
0100
0000
0010
1000
0001
1000
,
0100
0000
0010
0000
0011
0000
0001
1000
0010
1000
0001
0000
0010
0100
1000
0100
,
1000
0000
1000
0000
1000
0000
1000
0000
0100
0010
0001
1000
0040
0030
0400
0300
,
0001
0000
1000
0001
0100
0000
0020
0000
0000
0000
1030
0100
0010
0001
1000
0000
,
0010
0000
0100
0001
0100
0000
0002
0000
0000
0000
0013
0100
1000
0100
0010
0000
,
0001
0000
1000
0010
1000
0000
0200
0000
0000
0000
0310
0001
0010
0100
0010
0000
,
0001
0000
0000
1000
0000
0000
0010
0000
0000
0100
0000
0000
0000
0000
0000
0000
0000
0000
0001
0000
0000
1000
0000
0000
0001
0000
0000
0000
0000
0000
0000
0000
0000
0000
0000
0000
1000
0000
0100
0000
1000
0000
0100
0000
1000
0000
0100
0000
,
1000
0000
0010
1000
0001
0000
0020
0000
0000
0000
0130
1000
0100
1000
0001
0000
,
0100
0000
0010
1000
0001
0000
2000
0000
0000
0000
3100
0010
0001
0010
0001
0000
,
1000
0000
0001
0100
0010
0000
0200
0000
0000
0000
0301
0010
0100
1000
0001
0000
,
0100
0000
0000
0010
0000
0000
1000
0000
0000
0010
0000
0000
0000
0000
0000
0000
0000
0000
0100
0000
0000
0001
0000
0000
1000
0000
0000
0000
0000
0000
0000
0000
0000
0000
0000
0000
0001
0000
0100
0000
0001
0000
0100
0000
0001
0000
0100
0000
,
0001
0000
0010
0100
1000
0000
0002
0000
0000
0000
0013
0100
0010
0001
1000
0000
,
0010
0000
0100
0001
0100
0000
0020
0000
0000
0000
1030
0100
0010
0100
0010
0000
,
0001
0000
1000
0010
1000
0000
0200
0000
0000
0000
1300
0001
0100
0010
0100
0000
,
0101
0000
0000
1010
0000
0000
1001
0000
0011
0000
0000
0110
0000
0000
1001
0000
,
1000
0000
0010
0100
0001
0000
0020
0000
0000
0000
0130
1000
0100
1000
0001
0000
,
0100
0000
0010
1000
0100
0000
2000
0000
0000
0000
3100
0010
0001
0100
0001
0000
,
1000
0000
0001
0100
0010
0000
0200
0000
0000
0000
0301
0010
0100
1000
0100
0000
,
0020
0000
0000
0000
0000
0000
0000
0000
0000
0000
0000
0000
0000
0000
0000
0000
0000
0000
0031
1000
0001
1000
0001
1000
,
0001
0000
0010
0100
0010
0000
0001
1000
0010
0000
1000
0100
1000
0001
0100
0001
,
1000
0000
0100
0010
0001
0000
1000
0010
0100
0000
0001
0010
0001
0100
0010
1000
,
0001
0000
0010
0100
0010
0000
0001
1000
0010
0000
1000
0001
0100
0010
0100
0001
,
1000
0000
0001
0010
0100
0000
0010
0000
0001
0100
0001
0000
1000
0000
0001
0100
,
0001
0000
1000
0001
0100
0000
0010
0100
0001
0000
1000
0001
0010
0100
0010
0001
,
1000
0000
0010
0100
0001
0000
0100
0010
0100
0000
0001
1000
0100
0010
0100
1000
,
0001
0000
0100
0001
1000
0000
0001
0100
0001
0000
1000
0100
0010
0001
1000
0100
,
0010
0000
0001
1000
0001
0000
0100
0000
0010
1000
0001
1000
0100
0000
0010
0001
,
1000
0000
0010
0100
0001
0000
1000
0100
0010
0000
0100
1000
0100
1000
0001
0100
,
0001
0000
1000
0010
0100
0000
0010
1000
0001
0000
0010
0100
1000
0100
0010
0100
,
1000
0000
0001
0100
0010
0000
0100
0001
1000
0000
0001
0010
0100
0010
0001
0010
,
0001
0000
1000
0010
0100
0000
0010
0000
1000
0100
1000
0000
0010
0000
0100
0010
,
1000
0000
0100
0010
0001
0000
1000
0001
0100
0000
0001
0010
0100
0010
0100
1000
,
0001
0000
0100
0010
1000
0000
0100
0010
0001
0000
0010
0100
0010
0001
0010
0001
,
1000
0000
0010
0100
0001
0000
0100
0010
0100
0000
0001
1000
0100
0010
0100
1000
,
0100
0000
0010
0001
1000
0000
0010
0000
0100
0001
0100
0010
1000
0000
0100
0010
,
0001
0000
0010
0100
0010
0000
0001
1000
0010
0000
1000
0100
1000
0001
0100
0001
,
1000
0000
0100
0010
0001
0000
1000
0010
0100
0000
0001
0010
0001
0100
0010
1000
,
0001
0000
0010
0100
0010
0000
0001
1000
0010
0000
1000
0001
0100
0010
0100
0001
,
1000
0000
0001
0010
0100
0000
0010
0000
0001
0100
0001
0000
1000
0000
0001
0100
,
0001
0000
1000
0001
0100
0000
0010
0100
0001
0000
1000
0001
0010
0100
0010
0001
,
1000
0000
0010
0100
0001
0000
0100
0010
0100
0000
0001
1000
0100
0010
0100
1000
,
0001
0000
0100
0001
1000
0000
0001
0100
0001
0000
1000
0100
0010
0001
1000
0100
,
0010
0000
0001
1000
0001
0000
0100
0000
0010
1000
0001
1000
0100
0000
0010
0001
,
1000
0000
0010
0100
0001
0000
1000
0100
0010
0000
0100
1000
0100
1000
0001
0100
,
0001
0000
1000
0010
0100
0000
0010
1000
0001
0000
0010
0100
1000
0100
0010
0100
,
1000
0000
0001
0100
0010
0000
0100
0001
1000
0000
0001
0010
0100
0010
0001
0010
,
0001
0000
1000
0010
0100
0000
0010
0000
1000
0100
1000
0000
0010
0000
0100
0010
,
1000
0000
0100
0010
0001
0000
1000
0001
0100
0000
0001
0010
0100
0010
0100
1000
,
0001
0000
0100
0010
1000
0000
0100
0010
0001
0000
0010
0100
0010
0001
0010
0001
,
1000
0000
0010
0100
0001
0000
0100
0010
0100
0000
0001
1000
0100
0010
0100
1000
,
0100
1000
0010
1000
0001
0100
0010
1000
0100
0010
0001
0010
0100
0000
1000
0010
,
2000
0000
0000
0000
,
3001
0000
0100
0000
0001
0000
0100
0000
0000
0000
0000
0000
0001
0000
1000
0000
0001
0000
1000
0000
0000
0000
0000
0000
0100
0000
0000
0010
0000
0000
0001
0000
0000
0010
0000
0000
0001
0000
0000
0000
0000
0000
1000
0000
0000
0000
0000
0000
,
0010
0000
0100
0001
0100
0000
0010
0000
1000
0000
0001
0010
M00M
0010
1000
0000
,
0001
0000
0100
0010
0100
0000
0001
0000
1000
0000
0100
0010
0001
0000
1000
0000
,
0010
0000
0100
0001
1000
0000
0100
0000
0010
0000
0001
0100
M00M
0100
0010
0000
,
0001
0000
1000
0010
1000
0000
0001
0000
0010
0000
0100
1000
0001
0000
0100
0000
,
0010
0000
1000
0001
0010
0000
0100
0000
1000
0000
0010
0100
M00M
0100
1000
0000
,
0001
0000
0100
0001
1000
0000
0100
0000
0010
0000
0001
0010
0100
0000
0010
0000
,
0001
0000
1000
0010
0100
0000
0001
0000
1000
0000
0100
0010
M00M
0010
1000
0000
,
0100
0000
0010
0001
0010
0000
0001
0000
1000
0000
0010
0100
0001
0000
1000
0000
,
0001
0000
0010
0100
1000
0000
0001
0000
1000
0000
0001
0010
M00M
0010
1000
0000
,
0001
0000
0100
0010
0100
0000
0001
0000
1000
0000
0100
0010
0001
0000
1000
0000
,
0010
0000
0100
0001
1000
0000
0001
0000
0010
0000
0001
0100
M00M
0100
1000
0000
,
0001
0000
0100
0010
1000
0000
0100
0000
0010
0000
0100
1000
0001
0000
0100
0000
,
0010
0000
1000
0001
0100
0000
0001
0000
0010
0000
0100
0010
M00M
0010
1000
0000
,
0001
0000
0010
0100
1000
0000
0001
0000
1000
0000
0010
0100
0001
0000
1000
0000
,
0001
0000
0010
0001
1000
0000
0010
0000
0100
0000
0001
0100
M00M
0100
1000
0000
,
0100
0000
0000
0000
0000
0000
0010
0000
0000
0001
0000
0000
1000
0000
0000
0000
0000
0000
0001
0000
0000
0000
0000
0000
0100
0000
0000
0000
0000
0000
0010
0000
0000
1000
0000
0000
0001
0000
0100
0000
0001
0000
0100
0000
0001
0000
0100
0000
,
0001
0000
0100
0001
0100
0000
0010
0000
1000
0000
0001
0010
M00M
0010
1000
0000
,
0001
0000
0100
0010
0100
0000
0001
0000
1000
0000
0100
0010
0001
0000
1000
0000
,
0010
0000
0100
0001
1000
0000
0100
0000
0010
0000
0001
0100
M00M
0100
0010
0000
,
0001
0000
1000
0010
1000
0000
0001
0000
0010
0000
0100
1000
0001
0000
0100
0000
,
0010
0000
1000
0001
0010
0000
0100
0000
1000
0000
0010
0100
M00M
0100
1000
0000
,
0001
0000
0100
0001
1000
0000
0100
0000
0010
0000
0001
0010
0100
0000
0010
0000
,
0001
0000
1000
0010
0100
0000
0001
0000
1000
0000
0100
0010
M00M
0010
1000
0000
,
0100
0000
0010
0001
0010
0000
0001
0000
1000
0100
0010
0001
1000
0000
0001
0100
,
0001
0000
0010
0100
1000
0000
0001
0000
1000
0000
0001
0010
M00M
0010
1000
0000
,
0001
0000
0100
0010
0100
0000
0001
0000
1000
0000
0100
0010
0001
0000
1000
0000
,
0010
0000
0100
0001
1000
0000
0001
0000
0010
0000
0001
0100
M00M
0100
1000
0000
,
0001
0000
0100
0010
1000
0000
0100
0000
0010
0000
0100
1000
0001
0000
0100
0000
,
0010
0000
1000
0001
0100
0000
0001
0000
0010
0000
0100
0010
M00M
0010
1000
0000
,
0001
0000
0010
0100
1000
0000
0001
0000
1000
0000
0010
0100
0001
0000
1000
0000
,
0001
0000
0010
0001
1000
0000
0010
0000
0100
0000
0001
0100
M00M
0100
1000
0000
,
0100
0000
0010
0001
1000
0000
0001
0000
0100
0000
0010
1000
0002
0000
0000
0000
,
1003
0100
0010
0001
1000
0100
0010
0001
1000
0010
0100
0010
1000
0010
0100
0010
,
1000
0001
0010
0100
0010
0001
0010
0100
1000
0001
0010
0100
0010
0001
0010
0100
,
1000
0010
0100
0001
1000
0010
0100
0001
1000
0100
1000
0001
1000
0100
1000
0001
,
1000
0000
0000
0010
0000
0000
1000
0000
0000
0100
0000
0000
0000
0000
0000
0000
0000
0000
0010
0000
0000
0001
0000
0000
0100
0000
0000
0000
0000
0000
0000
0000
0000
0000
0000
0000
0001
0000
1000
0000
0001
0000
1000
0000
0001
0000
1000
0000
,
0001
0100
0010
1000
0001
0100
0010
1000
0001
1000
0100
1000
0001
1000
0100
1000
,
0001
0100
0010
1000
0010
0100
0010
1000
0001
0100
0010
1000
0010
0100
0010
1000
,
0001
0010
0100
1000
0001
0010
0100
1000
0001
0100
0010
0100
0001
0100
0010
0100
,
0001
0000
0000
0010
0000
0000
0100
0000
0000
0010
0000
0000
0000
0000
0000
0000
0000
0000
0001
0000
0000
1000
0000
0000
0010
0000
0000
0000
0000
0000
0000
0000
0000
0000
0000
0000
0100
0000
0001
0000
0100
0000
0001
0000
0100
0000
0001
0000
,
0100
0010
1000
0010
0100
0001
0100
0010
1000
0001
0010
0100
0010
0001
1000
0100
,
1000
0001
0100
0010
0100
0001
0100
0001
1000
0100
0010
0100
0010
0001
1000
0100
,
1000
0010
0100
0001
0100
0001
1000
0010
0100
0001
0100
0001
1000
0010
0100
0001
,
1000
0100
1000
0001
0010
0001
1000
0100
1000
0010
1000
0001
0100
0001
1000
0010
,
1000
0100
0010
0001
1000
0100
0010
0001
1000
0010
0100
0010
1000
0010
0100
0010
,
1000
0001
0010
0100
0010
0001
0010
0100
1000
0001
0010
0100
0010
0001
0010
0100
,
1000
0010
0100
0001
1000
0010
0100
0001
1000
0100
1000
0001
1000
0100
1000
0001
,
1000
0000
0000
1010
0000
0000
1010
0000
0000
1010
0000
0000
0101
0000
0000
0101
0000
0000
0001
1000
0001
1000
0001
1000
,
0001
0100
0010
1000
0100
0010
0001
0010
0100
1000
0001
0100
0001
0010
0100
1000
,
0001
0010
0001
0100
0010
1000
0100
1000
0010
0100
0001
0010
0001
0100
0010
1000
,
0100
1000
0001
0010
0001
0100
0001
0010
0100
1000
0100
1000
0010
0100
0010
1000
,
0001
1000
0100
0010
0001
1000
0100
0010
0001
1000
0100
0010
0001
1000
0100
0010
,
0001
1000
0010
0100
0010
1000
0100
0010
0001
0010
0100
1000
0010
0100
0010
1000
,
0001
0010
0001
0100
0010
1000
0100
1000
0010
0100
0001
0010
0001
0100
0010
1000
,
0100
1000
0001
0100
0010
0100
0001
1000
0010
1000
0100
0010
0100
0010
0001
0100
,
0001
1000
0010
0100
0001
1000
0010
0100
0001
1000
0010
0100
0001
1000
0010
1000
,
0001
0010
0100
1000
0010
0100
0010
1000
0100
0010
0001
0100
0010
0100
0001
0010
,
0100
1000
0010
0100
0010
1000
0100
0010
0001
0100
0010
0100
0001
0010
0100
1000
,
0001
0010
0001
1000
0010
1000
0001
0010
0001
0100
0001
1000
0100
1000
0001
0100
,
0001
0010
0100
1000
0001
0010
0100
1000
0001
0010
0100
1000
0100
0010
0001
1000
,
0001
0100
0010
1000
0100
0010
0001
0010
0100
1000
0001
0100
0001
0010
0100
1000
,
0001
0010
0001
0100
0010
1000
0100
1000
0010
0100
0001
0010
0001
0100
0010
1000
,
0100
1000
0001
0010
0001
0100
0001
0010
0100
1000
0100
1000
0010
0100
0010
1000
,
0001
1000
0100
0010
0001
1000
0100
0010
0001
1000
0100
0010
0001
1000
0100
0010
,
0001
1000
0010
0100
0010
1000
0100
0010
0001
0010
0100
1000
0010
0100
0010
1000
,
0001
0010
0001
0100
0010
1000
0100
1000
0010
0100
0001
0010
0001
0100
0010
1000
,
0100
1000
0001
0100
0010
0100
0001
1000
0010
1000
0100
0010
0100
0010
0001
0100
,
0001
1000
0010
0100
0001
1000
0010
0100
0001
1000
0010
0100
0001
1000
0010
1000
,
0001
0000
1000
0001
0100
0000
0020
0000
0000
0000
1030
0100
0010
0001
1000
0000
,
0010
0000
0100
0001
0100
0000
0002
0000
0000
0000
0013
0100
1000
0100
0010
0000
,
0001
0000
1000
0010
1000
0000
0200
0000
0000
0000
0310
0001
0010
0100
0010
0000
,
0001
0000
0000
1000
0000
0000
0010
0000
0000
0100
0000
0000
0000
0000
0000
0000
0000
0000
0001
0000
0000
1000
0000
0000
0001
0000
0000
0000
0000
0000
0000
0000
0000
0000
0000
0000
1000
0000
0100
0000
1000
0000
0100
0000
1000
0000
0100
0000
,
1000
0000
0010
1000
0001
0000
0020
0000
0000
0000
0130
1000
0100
1000
0001
0000
,
0100
0000
0010
1000
0001
0000
2000
0000
0000
0000
3100
0010
0001
0010
0001
0000
,
1000
0000
0001
0100
0010
0000
0200
0000
0000
0000
0301
0010
0100
1000
0001
0000
,
0100
0000
0000
0010
0000
0000
1000
0000
0000
0010
0000
0000
0000
0000
0000
0000
0000
0000
0100
0000
0000
0001
0000
0000
1000
0000
0000
0000
0000
0000
0000
0000
0000
0000
0000
0000
0001
0000
0100
0000
0001
0000
0100
0000
0001
0000
0100
0000
,
0001
0000
0010
0100
1000
0000
0002
0000
0000
0000
0013
0100
0010
0001
1000
0000
,
0010
0000
0100
0001
0100
0000
0020
0000
0000
0000
1030
0100
0010
0100
0010
0000
,
0001
0000
1000
0010
1000
0000
0200
0000
0000
0000
1300
0001
0100
0010
0100
0000
,
0101
0000
0000
1010
0000
0000
1001
0000
0011
0000
0000
0110
0000
0000
1001
0000
,
1000
0000
0010
0100
0001
0000
0020
0000
0000
0000
0130
1000
0100
1000
0001
0000
,
0100
0000
0010
1000
0100
0000
2000
0000
0000
0000
3100
0010
0001
0100
0001
0000
,
1000
0000
0001
0100
0010
0000
0200
0000
0000
0000
0301
0010
0100
1000
0100
0000
,
0020
0000
0000
0000
0000
0000
0000
0000
0000
0000
0000
0000
0000
0000
0000
0000
0000
0000
0031
1000
0001
1000
0001
1000
,
0001
0000
0010
0100
0010
0000
0001
1000
0010
0000
1000
0100
1000
0001
0100
0001
,
1000
0000
0100
0010
0001
0000
1000
0010
0100
0000
0001
0010
0001
0100
0010
1000
,
0001
0000
0010
0100
0010
0000
0001
1000
0010
0000
1000
0001
0100
0010
0100
0001
,
1000
0000
0001
0010
0100
0000
0010
0000
0001
0100
0001
0000
1000
0000
0001
0100
,
0001
0000
1000
0001
0100
0000
0010
0100
0001
0000
1000
0001
0010
0100
0010
0001
,
1000
0000
0010
0100
0001
0000
0100
0010
0100
0000
0001
1000
0100
0010
0100
1000
,
0001
0000
0100
0001
1000
0000
0001
0100
0001
0000
1000
0100
0010
0001
1000
0100
,
0010
0000
0001
1000
0001
0000
0100
0000
0010
1000
0001
1000
0100
0000
0010
0001
,
1000
0000
0010
0100
0001
0000
1000
0100
0010
0000
0100
1000
0100
1000
0001
0100
,
0001
0000
1000
0010
0100
0000
0010
1000
0001
0000
0010
0100
1000
0100
0010
0100
,
1000
0000
0001
0100
0010
0000
0100
0001
1000
0000
0001
0010
0100
0010
0001
0010
,
0001
0000
1000
0010
0100
0000
0010
0000
1000
0100
1000
0000
0010
0000
0100
0010
,
1000
0000
0100
0010
0001
0000
1000
0001
0100
0000
0001
0010
0100
0010
0100
1000
,
0001
0000
0100
0010
1000
0000
0100
0010
0001
0000
0010
0100
0010
0001
0010
0001
,
1000
0000
0010
0100
0001
0000
0100
0010
0100
0000
0001
1000
0100
0010
0100
1000
,
0100
0000
0010
0001
1000
0000
0010
0000
0100
0001
0100
0010
1000
0000
0100
0010
,
0001
0000
0010
0100
0010
0000
0001
1000
0010
0000
1000
0100
1000
0001
0100
0001
,
1000
0000
0100
0010
0001
0000
1000
0010
0100
0000
0001
0010
0001
0100
0010
1000
,
0001
0000
0010
0100
0010
0000
0001
1000
0010
0000
1000
0001
0100
0010
0100
0001
,
1000
0000
0001
0010
0100
0000
0010
0000
0001
0100
0001
0000
1000
0000
0001
0100
,
0001
0000
1000
0001
0100
0000
0010
0100
0001
0000
1000
0001
0010
0100
0010
0001
,
1000
0000
0010
0100
0001
0000
0100
0010
0100
0000
0001
1000
0100
0010
0100
1000
,
0001
0000
0100
0001
1000
0000
0001
0100
0001
0000
1000
0100
0010
0001
1000
0100
,
0010
0000
0001
1000
0001
0000
0100
0000
0010
1000
0001
1000
0100
0000
0010
0001
,
1000
0000
0010
0100
0001
0000
1000
0100
0010
0000
0100
1000
0100
1000
0001
0100
,
0001
0000
1000
0010
0100
0000
0010
1000
0001
0000
0010
0100
1000
0100
0010
0100
,
1000
0000
0001
0100
0010
0000
0100
0001
1000
0000
0001
0010
0100
0010
0001
0010
,
0001
0000
1000
0010
0100
0000
0010
0000
1000
0100
1000
0000
0010
0000
0100
0010
,
1000
0000
0100
0010
0001
0000
1000
0001
0100
0000
0001
0010
0100
0010
0100
1000
,
0001
0000
0100
0010
1000
0000
0100
0010
0001
0000
0010
0100
0010
0001
0010
0001
,
1000
0000
0010
0100
0001
0000
0100
0010
0100
0000
0001
1000
0100
0010
0100
1000
,
0100
1000
0010
1000
0001
0100
0010
1000
0100
0010
0001
0010
0100
0000
1000
0010
,
2000
3000
0000
0000
;

//---------------dance-single - 14+ (CTalon)----------------
#NOTES:
     dance-single:
     14+ (CTalon):
     Hard:
     14:
     1.000,1.000,0.182,0.114,1.000,2230.000,46.000,29.000,32.000,0.000:
0000
0000
0000
0000
,
0000
0000
0000
0000
,
0000
0000
0000
0000
,
0000
0000
0000
0000
,
0000
0000
0000
0000
,
0000
0000
0000
0000
,
1000
0001
1000
0001
0000
0000
1000
0100
0010
0000
0000
0000
0004
0000
0000
0000
,
1003
0000
0100
0000
0010
0000
0100
1000
0100
1000
0100
0000
1000
0001
1000
0001
,
0010
0000
0100
0000
1000
0000
0001
0100
0001
0100
0001
0000
0010
0100
0010
0100
,
1000
0000
0001
0000
0100
0000
0010
1000
0010
1000
0010
0000
0100
0001
0100
0001
,
0010
0000
0000
0011
0000
0000
1001
0000
1100
0000
0000
0101
0000
0000
1001
0000
,
1000
0000
0001
0000
0100
0000
0010
1000
0010
1000
0010
0000
1000
0001
1000
0000
,
0010
0000
1000
0000
0100
0000
0010
0001
0010
0001
0010
0000
0004
0000
0000
0000
,
1003
0000
0000
0000
,
0001
0010
0001
1000
0004
0000
0000
0000
,
1003
0000
0100
0000
0110
0000
0010
0001
1000
0010
0100
0000
0001
1000
0100
0010
,
0001
0000
1000
0000
1010
0000
0010
0100
0001
0100
0010
0000
1000
0100
0010
0100
,
1000
0000
0001
0000
0101
0000
0100
0001
0010
0100
0010
0000
0001
1000
0010
1000
,
0100
0000
1000
0000
1001
0000
0001
0010
0100
0010
0001
0000
0010
0100
1000
0001
,
0100
0000
0001
0000
1001
0000
1000
0100
0010
0001
1000
0000
0001
0100
0010
1000
,
0010
0000
1000
0000
1001
0000
0001
0010
0001
0100
0001
0000
1000
0100
0010
0001
,
1000
0000
0100
0000
1100
0000
1000
0010
0100
0001
0100
0000
0001
0010
0100
1000
,
0001
0100
0001
0010
0001
0100
0010
1000
,
0001
0000
0100
0000
0110
0000
0010
1000
0001
1000
0100
0000
0010
0100
1000
0001
,
0100
0000
0010
0000
1010
0000
1000
0100
0010
0001
0010
0000
0001
0100
0010
0100
,
0001
0000
1000
0000
1100
0000
0100
1000
0001
1000
0001
0000
0100
0010
1000
0010
,
0100
0000
0001
0000
1001
0000
1000
0100
0010
0100
0010
0000
0001
0100
0010
0100
,
0001
0000
1000
0000
1010
0000
0010
1000
0100
1000
0001
0000
0010
0001
0100
0001
,
1000
0000
0100
0000
0110
0000
0010
0001
1000
0001
0100
0000
0010
1000
0001
1000
,
0100
0000
0010
0000
0011
0000
0001
1000
0010
1000
0001
0000
0010
0100
1000
0100
,
1000
0000
1000
0000
1000
0000
1000
0000
0100
0010
0001
1000
0040
0030
0400
0300
,
0001
0000
1000
0001
0100
0000
0020
0000
0000
0000
1030
0100
0010
0001
1000
0000
,
0010
0000
0100
0001
0100
0000
0002
0000
0000
0000
0013
0100
1000
0100
0010
0000
,
0001
0000
1000
0010
1000
0000
0200
0000
0000
0000
0310
0001
0010
0100
0010
0000
,
0001
1000
0010
0100
0000
0000
0001
1000
0001
0000
0000
0000
4000
0000
0000
0000
,
3001
0000
0100
0001
1000
0000
0200
0000
0000
0000
0310
0001
0010
0001
1000
0000
,
0010
0000
0100
0001
1000
0000
0002
0000
0000
0000
0013
0100
1000
0100
1000
0000
,
0001
0000
1000
0010
0100
0000
0020
0000
0000
0000
1030
0100
0010
0001
1000
0000
,
0010
0100
0001
0100
0000
0000
0010
1000
0001
0000
0000
0000
4000
0000
0000
0000
,
3001
0000
0010
0100
1000
0000
0002
0000
0000
0000
0013
0100
0010
0001
1000
0000
,
0010
0000
0100
0001
0100
0000
0020
0000
0000
0000
1030
0100
0010
0100
0010
0000
,
0001
0000
1000
0010
1000
0000
0200
0000
0000
0000
1300
0001
0100
0010
0100
0000
,
0101
0000
0000
1010
0000
0000
1001
0000
0011
0000
0000
0110
0000
0000
1001
0000
,
1000
0000
0010
0100
0001
0000
0020
0000
0000
0000
0130
1000
0100
1000
0001
0000
,
0100
0000
0010
1000
0100
0000
2000
0000
0000
0000
3100
0010
0001
0100
0001
0000
,
1000
0000
0001
0100
0010
0000
0200
0000
0000
0000
0301
0010
0100
1000
0100
0000
,
0020
0000
0000
0034
,
1003
0000
0100
0010
0100
0000
1000
0001
0100
0000
0001
0010
0001
1000
0010
1000
,
0001
0000
0010
0100
1000
0000
0001
0100
0010
0000
1000
0100
1000
0010
0100
0001
,
1000
0000
0100
0010
0100
0000
1000
0001
0100
0000
0001
1000
0010
0100
0010
1000
,
0001
0000
1000
0100
0010
0000
0100
0000
1000
0010
1000
0000
0001
0000
1000
0010
,
1000
0000
0001
1000
0010
0000
0100
0010
1000
0000
0001
1000
0100
0010
0100
1000
,
0001
0000
0100
0010
1000
0000
0010
0100
0010
0000
1000
0001
0010
0100
0010
0001
,
1000
0000
0010
1000
0001
0000
1000
0010
1000
0000
0001
0010
0100
1000
0001
0010
,
0100
0000
1000
0001
1000
0000
0010
0000
0100
0001
1000
0001
0010
0000
0100
1000
,
0001
0000
0100
0010
1000
0000
0001
0010
0100
0000
0010
0001
0010
0001
1000
0010
,
1000
0000
0001
0100
0010
0000
0100
0001
1000
0000
0100
0010
0001
0010
0100
0010
,
0001
0000
1000
0010
0100
0000
0010
1000
0001
0000
1000
0100
0010
0100
1000
0100
,
1000
0000
0001
0100
0010
0000
0100
0000
0001
0010
0001
0000
0100
0000
0010
0100
,
0001
0000
0010
0100
1000
0000
0001
1000
0010
0000
1000
0100
0010
0100
0010
0001
,
1000
0000
0010
0100
0001
0000
0010
0100
1000
0000
0100
0010
0100
1000
0100
1000
,
0001
0000
0100
0010
1000
0000
0010
0100
0010
0000
1000
0001
0010
0100
0010
0001
,
0010
0000
0100
1000
0001
0000
0100
0000
0010
1000
0010
0100
0001
0000
0010
0100
,
1000
0000
0100
0010
0100
0000
1000
0001
0100
0000
0001
0010
0001
1000
0010
1000
,
0001
0000
0010
0100
1000
0000
0001
0100
0010
0000
1000
0100
1000
0010
0100
0001
,
1000
0000
0100
0010
0100
0000
1000
0001
0100
0000
0001
1000
0010
0100
0010
1000
,
0001
0000
1000
0100
0010
0000
0100
0000
1000
0010
1000
0000
0001
0000
1000
0010
,
1000
0000
0001
1000
0010
0000
0100
0010
1000
0000
0001
1000
0100
0010
0100
1000
,
0001
0000
0100
0010
1000
0000
0010
0100
0010
0000
1000
0001
0010
0100
0010
0001
,
1000
0000
0010
1000
0001
0000
1000
0010
1000
0000
0001
0010
0100
1000
0001
0010
,
0100
0000
1000
0001
1000
0000
0010
0000
0100
0001
1000
0001
0010
0000
0100
1000
,
0001
0000
0100
0010
1000
0000
0001
0010
0100
0000
0010
0001
0010
0001
1000
0010
,
1000
0000
0001
0100
0010
0000
0100
0001
1000
0000
0100
0010
0001
0010
0100
0010
,
0001
0000
1000
0010
0100
0000
0010
1000
0001
0000
1000
0100
0010
0100
1000
0100
,
1000
0000
0001
0100
0010
0000
0100
0000
0001
0010
0001
0000
0100
0000
0010
0100
,
0001
0000
0010
0100
1000
0000
0001
1000
0010
0000
1000
0100
0010
0100
0010
0001
,
1000
0000
0010
0100
0001
0000
0010
0100
1000
0000
0100
0010
0100
1000
0100
1000
,
0001
0000
0100
0010
1000
0000
0010
0100
0010
0000
1000
0001
0010
0100
0010
0001
,
0010
0001
0100
0001
1000
0010
0100
0001
0010
0100
1000
0100
0010
0000
0001
0100
,
0002
0000
0000
0000
,
4003
0000
3010
0000
4000
0000
3001
0000
0010
0100
1000
0100
1000
0000
0001
0000
,
0100
0000
0010
1000
0010
0000
0100
0000
0001
0000
1000
0100
M00M
0100
0001
0000
,
1000
0000
0010
0100
0010
0000
1000
0000
0001
0000
0010
0100
1000
0000
0001
0000
,
0100
0000
0010
1000
0001
0000
0010
0000
0100
0000
1000
0010
M00M
0010
0100
0000
,
1000
0000
0001
0100
0001
0000
1000
0000
0100
0000
0010
0001
1000
0000
0010
0000
,
0100
0000
0001
1000
0100
0000
0010
0000
0001
0000
0100
0010
M00M
0010
0001
0000
,
1000
0000
0010
1000
0001
0000
0010
0000
0100
0000
1000
0100
0010
0000
0100
0000
,
1000
0000
0001
0100
0010
0000
1000
0000
0001
0000
0010
0100
M00M
0100
0001
0000
,
0010
0000
0100
1000
0100
0000
1000
0000
0001
0000
0100
0010
1000
0000
0001
0000
,
1000
0000
0100
0010
0001
0000
1000
0000
0001
0000
1000
0100
M00M
0100
0001
0000
,
1000
0000
0010
0100
0010
0000
1000
0000
0001
0000
0010
0100
1000
0000
0001
0000
,
0100
0000
0010
1000
0001
0000
1000
0000
0100
0000
1000
0010
M00M
0010
0001
0000
,
1000
0000
0010
0100
0001
0000
0010
0000
0100
0000
0010
0001
1000
0000
0010
0000
,
0100
0000
0001
1000
0010
0000
1000
0000
0100
0000
0010
0100
M00M
0100
0001
0000
,
1000
0000
0100
0010
0001
0000
1000
0000
0001
0000
0100
0010
1000
0000
0001
0000
,
1000
0000
0100
1000
0001
0000
0100
0000
0010
0000
1000
0010
M00M
0010
0001
0000
,
0010
0000
0100
1000
0001
0000
1000
0000
0010
0000
0100
0001
4000
0000
0000
0000
,
3001
0000
0100
0001
0100
0000
0010
0000
1000
0000
0001
0010
M00M
0010
1000
0000
,
0001
0000
0100
0010
0100
0000
0001
0000
1000
0000
0100
0010
0001
0000
1000
0000
,
0010
0000
0100
0001
1000
0000
0100
0000
0010
0000
0001
0100
M00M
0100
0010
0000
,
0001
0000
1000
0010
1000
0000
0001
0000
0010
0000
0100
1000
0001
0000
0100
0000
,
0010
0000
1000
0001
0010
0000
0100
0000
1000
0000
0010
0100
M00M
0100
1000
0000
,
0001
0000
0100
0001
1000
0000
0100
0000
0010
0000
0001
0010
0100
0000
0010
0000
,
0001
0000
1000
0010
0100
0000
0001
0000
1000
0000
0100
0010
M00M
0010
1000
0000
,
0100
0000
0010
0001
0010
0000
0001
0000
1000
0100
0010
0001
1000
0000
0001
0100
,
0001
0000
0010
0100
1000
0000
0001
0000
1000
0000
0001
0010
M00M
0010
1000
0000
,
0001
0000
0100
0010
0100
0000
0001
0000
1000
0000
0100
0010
0001
0000
1000
0000
,
0010
0000
0100
0001
1000
0000
0001
0000
0010
0000
0001
0100
M00M
0100
1000
0000
,
0001
0000
0100
0010
1000
0000
0100
0000
0010
0000
0100
1000
0001
0000
0100
0000
,
0010
0000
1000
0001
0100
0000
0001
0000
0010
0000
0100
0010
M00M
0010
1000
0000
,
0001
0000
0010
0100
1000
0000
0001
0000
1000
0000
0010
0100
0001
0000
1000
0000
,
0001
0000
0010
0001
1000
0000
0010
0000
0100
0000
0001
0100
M00M
0100
1000
0000
,
0100
0000
0010
0001
1000
0000
0001
0000
0100
0000
0010
1000
0002
0000
0000
0000
,
1003
0100
0010
0001
1000
0100
0010
0001
1000
0010
0100
0010
1000
0010
0100
0010
,
1000
0001
0010
0100
0010
0001
0010
0100
1000
0001
0010
0100
0010
0001
0010
0100
,
1000
0010
0100
0001
1000
0010
0100
0001
1000
0100
1000
0001
1000
0100
1000
0001
,
1000
0010
1000
0100
0000
0000
0010
0001
0100
0000
0000
0000
0004
0000
0000
0000
,
1003
0010
0100
0001
1000
0010
0100
0001
1000
0001
0010
0001
1000
0001
0010
0001
,
1000
0010
0100
0001
0100
0010
0100
0001
1000
0010
0100
0001
0100
0010
0100
0001
,
1000
0100
0010
0001
1000
0100
0010
0001
1000
0010
0100
0010
1000
0010
0100
0010
,
1000
0100
0010
0100
0000
0000
1000
0001
0100
0000
0000
0000
0004
0000
0000
0000
,
0103
0010
1000
0010
0100
0001
0100
0010
1000
0001
0010
0100
0010
0001
1000
0100
,
1000
0001
0100
0010
0100
0001
0100
0001
1000
0100
0010
0100
0010
0001
1000
0100
,
1000
0010
0100
0001
0100
0001
1000
0010
0100
0001
0100
0001
1000
0010
0100
0001
,
1000
0100
1000
0001
0010
0001
1000
0100
1000
0010
1000
0001
0100
0001
1000
0010
,
1000
0100
0010
0001
1000
0100
0010
0001
1000
0010
0100
0010
1000
0010
0100
0010
,
1000
0001
0010
0100
0010
0001
0010
0100
1000
0001
0010
0100
0010
0001
0010
0100
,
1000
0010
0100
0001
1000
0010
0100
0001
1000
0100
1000
0001
1000
0100
1000
0001
,
1000
0010
1000
0100
0010
0001
4000
0000
,
3001
0010
0100
1000
0001
0010
0100
1000
0001
0100
0010
0100
0001
0100
0010
0100
,
0001
1000
0100
0010
0100
1000
0100
0010
0001
1000
0100
0010
0100
1000
0100
0010
,
0001
0100
0010
1000
0001
0100
0010
1000
0001
0010
0001
1000
0001
0010
0001
1000
,
0001
1000
0100
0010
0001
1000
0100
0010
0001
1000
0100
0010
0001
1000
0100
0010
,
0001
0100
0010
1000
0001
0100
0010
1000
0001
0010
0100
0010
0001
0010
0100
0010
,
0001
1000
0010
0100
0010
1000
0010
0100
0001
1000
0010
0100
0010
1000
0010
0100
,
0001
0010
0100
1000
0001
0010
0100
1000
0001
0100
0001
1000
0001
0100
0001
1000
,
0001
1000
0010
0100
0001
1000
0010
0100
0001
1000
0010
0100
0001
1000
0010
1000
,
0001
0010
0100
1000
0001
0100
0001
1000
0100
0010
0001
1000
0010
1000
0001
0010
,
0100
1000
0001
0100
0001
1000
0100
0010
0001
1000
0010
1000
0001
0010
0100
1000
,
0001
0010
0001
1000
0010
1000
0001
0010
0001
0100
0001
1000
0100
1000
0001
0100
,
0001
0010
0100
1000
0001
0010
0100
1000
0001
0010
0100
1000
0100
0010
0001
1000
,
0001
0100
0010
1000
0001
0100
0010
1000
0001
0010
0100
0010
0001
0010
0100
0010
,
0001
1000
0010
0100
0010
1000
0010
0100
0001
1000
0010
0100
0010
1000
0010
0100
,
0001
0010
0100
1000
0001
0010
0100
1000
0001
0100
0001
1000
0001
0100
0001
1000
,
0001
1000
0010
0100
0001
1000
0010
0100
0001
1000
0010
0100
0001
1000
0010
0100
,
0001
0010
0100
1000
0001
0010
0100
1000
0001
0100
0010
0100
0001
0100
0010
0100
,
0001
1000
0100
0010
0100
1000
0100
0010
0001
1000
0100
0010
0100
1000
0100
0010
,
0001
0100
0010
1000
0001
0100
0010
1000
0001
0010
0001
1000
0001
0010
0001
1000
,
0001
1000
0100
0010
0001
1000
0100
0010
0001
1000
0100
0010
0001
1000
0100
1000
,
0001
0000
1000
0001
0100
0000
0020
0000
0000
0000
1030
0100
0010
0001
1000
0000
,
0010
0000
0100
0001
0100
0000
0002
0000
0000
0000
0013
0100
1000
0100
0010
0000
,
0001
0000
1000
0010
1000
0000
0200
0000
0000
0000
0310
0001
0010
0100
0010
0000
,
0001
1000
0010
0100
0000
0000
0001
1000
0001
0000
0000
0000
4000
0000
0000
0000
,
3001
0000
0100
0001
1000
0000
0200
0000
0000
0000
0310
0001
0010
0001
1000
0000
,
0010
0000
0100
0001
1000
0000
0002
0000
0000
0000
0013
0100
1000
0100
1000
0000
,
0001
0000
1000
0010
0100
0000
0020
0000
0000
0000
1030
0100
0010
0001
1000
0000
,
0010
0100
0001
0100
0000
0000
0010
1000
0001
0000
0000
0000
4000
0000
0000
0000
,
3001
0000
0010
0100
1000
0000
0002
0000
0000
0000
0013
0100
0010
0001
1000
0000
,
0010
0000
0100
0001
0100
0000
0020
0000
0000
0000
1030
0100
0010
0100
0010
0000
,
0001
0000
1000
0010
1000
0000
0200
0000
0000
0000
1300
0001
0100
0010
0100
0000
,
0101
0000
0000
1010
0000
0000
1001
0000
0011
0000
0000
0110
0000
0000
1001
0000
,
1000
0000
0010
0100
0001
0000
0020
0000
0000
0000
0130
1000
0100
1000
0001
0000
,
0100
0000
0010
1000
0100
0000
2000
0000
0000
0000
3100
0010
0001
0100
0001
0000
,
1000
0000
0001
0100
0010
0000
0200
0000
0000
0000
0301
0010
0100
1000
0100
0000
,
0020
0000
0000
0034
,
1003
0000
0100
0010
0100
0000
1000
0001
0100
0000
0001
0010
0001
1000
0010
1000
,
0001
0000
0010
0100
1000
0000
0001
0100
0010
0000
1000
0100
1000
0010
0100
0001
,
1000
0000
0100
0010
0100
0000
1000
0001
0100
0000
0001
1000
0010
0100
0010
1000
,
0001
0000
1000
0100
0010
0000
0100
0000
1000
0010
1000
0000
0001
0000
1000
0010
,
1000
0000
0001
1000
0010
0000
0100
0010
1000
0000
0001
1000
0100
0010
0100
1000
,
0001
0000
0100
0010
1000
0000
0010
0100
0010
0000
1000
0001
0010
0100
0010
0001
,
1000
0000
0010
1000
0001
0000
1000
0010
1000
0000
0001
0010
0100
1000
0001
0010
,
0100
0000
1000
0001
1000
0000
0010
0000
0100
0001
1000
0001
0010
0000
0100
1000
,
0001
0000
0100
0010
1000
0000
0001
0010
0100
0000
0010
0001
0010
0001
1000
0010
,
1000
0000
0001
0100
0010
0000
0100
0001
1000
0000
0100
0010
0001
0010
0100
0010
,
0001
0000
1000
0010
0100
0000
0010
1000
0001
0000
1000
0100
0010
0100
1000
0100
,
1000
0000
0001
0100
0010
0000
0100
0000
0001
0010
0001
0000
0100
0000
0010
0100
,
0001
0000
0010
0100
1000
0000
0001
1000
0010
0000
1000
0100
0010
0100
0010
0001
,
1000
0000
0010
0100
0001
0000
0010
0100
1000
0000
0100
0010
0100
1000
0100
1000
,
0001
0000
0100
0010
1000
0000
0010
0100
0010
0000
1000
0001
0010
0100
0010
0001
,
0010
0000
0100
1000
0001
0000
0100
0000
0010
1000
0010
0100
0001
0000
0010
0100
,
1000
0000
0100
0010
0100
0000
1000
0001
0100
0000
0001
0010
0001
1000
0010
1000
,
0001
0000
0010
0100
1000
0000
0001
0100
0010
0000
1000
0100
1000
0010
0100
0001
,
1000
0000
0100
0010
0100
0000
1000
0001
0100
0000
0001
1000
0010
0100
0010
1000
,
0001
0000
1000
0100
0010
0000
0100
0000
1000
0010
1000
0000
0001
0000
1000
0010
,
1000
0000
0001
1000
0010
0000
0100
0010
1000
0000
0001
1000
0100
0010
0100
1000
,
0001
0000
0100
0010
1000
0000
0010
0100
0010
0000
1000
0001
0010
0100
0010
0001
,
1000
0000
0010
1000
0001
0000
1000
0010
1000
0000
0001
0010
0100
1000
0001
0010
,
0100
0000
1000
0001
1000
0000
0010
0000
0100
0001
1000
0001
0010
0000
0100
1000
,
0001
0000
0100
0010
1000
0000
0001
0010
0100
0000
0010
0001
0010
0001
1000
0010
,
1000
0000
0001
0100
0010
0000
0100
0001
1000
0000
0100
0010
0001
0010
0100
0010
,
0001
0000
1000
0010
0100
0000
0010
1000
0001
0000
1000
0100
0010
0100
1000
0100
,
1000
0000
0001
0100
0010
0000
0100
0000
0001
0010
0001
0000
0100
0000
0010
0100
,
0001
0000
0010
0100
1000
0000
0001
1000
0010
0000
1000
0100
0010
0100
0010
0001
,
1000
0000
0010
0100
0001
0000
0010
0100
1000
0000
0100
0010
0100
1000
0100
1000
,
0001
0000
0100
0010
1000
0000
0010
0100
0010
0000
1000
0001
0010
0100
0010
0001
,
0010
0001
0100
0001
1000
0010
0100
0001
0010
0100
1000
0100
0010
0000
0001
0100
,
0002
0003
0000
0000
;

//---------------dance-single - 13 (CTalon)----------------
#NOTES:
     dance-single:
     13 (CTalon):
     Medium:
     13:
     1.000,1.000,0.205,0.260,1.000,2093.000,52.000,66.000,34.000,0.000:
0000
0000
0000
0000
,
0000
0000
0000
0000
,
0000
0000
0000
0000
,
0000
0000
0000
0000
,
0000
0000
0000
0000
,
0000
0000
0000
0000
,
1000
0001
1000
0001
0000
0000
1000
0100
0010
0000
0000
0000
0004
0000
0000
0000
,
1003
0000
0100
0000
0010
0000
0100
1000
0100
1000
0100
0000
1000
0001
1000
0001
,
0010
0000
0100
0000
1000
0000
0001
0100
0001
0100
0001
0000
0010
0100
0010
0100
,
1000
0000
0001
0000
0100
0000
0010
1000
0010
1000
0010
0000
0100
0001
0100
0001
,
0010
0000
0000
0011
0000
0000
1001
0000
1100
0000
0000
0101
0000
0000
1001
0000
,
1000
0000
0001
0000
0100
0000
0010
1000
0010
1000
0010
0000
1000
0001
1000
0000
,
0010
0000
1000
0000
0100
0000
0010
0001
0010
0001
0010
0000
0004
0000
0000
0000
,
1003
0000
0000
0000
,
0001
0010
0001
1000
0004
0000
0000
0000
,
1003
0000
0100
0000
0110
0000
0010
0001
1000
0010
0100
0000
0001
1000
0100
0010
,
0001
0000
1000
0000
1010
0000
0010
0100
0001
0100
0010
0000
1000
0100
0010
0100
,
1000
0000
0001
0000
0101
0000
0100
0001
0010
0100
0010
0000
0001
1000
0010
1000
,
0100
0000
1000
0000
1001
0000
0001
0010
0100
0010
0001
0000
0010
0100
1000
0001
,
0100
0000
0001
0000
1001
0000
1000
0100
0010
0001
1000
0000
0001
0100
0010
1000
,
0010
0000
1000
0000
1001
0000
0001
0010
0001
0100
0001
0000
1000
0100
0010
0001
,
1000
0000
0100
0000
1100
0000
1000
0010
0100
0001
0100
0000
0001
0010
0100
1000
,
0001
0100
0001
0010
0001
0100
0010
1000
,
0001
0000
0100
0000
0110
0000
0010
1000
0001
1000
0100
0000
0010
0100
1000
0001
,
0100
0000
0010
0000
1010
0000
1000
0100
0010
0001
0010
0000
0001
0100
0010
0100
,
0001
0000
1000
0000
1100
0000
0100
1000
0001
1000
0001
0000
0100
0010
1000
0010
,
0100
0000
0001
0000
1001
0000
1000
0100
0010
0100
0010
0000
0001
0100
0010
0100
,
0001
0000
1000
0000
1010
0000
0010
1000
0100
1000
0001
0000
0010
0001
0100
0001
,
1000
0000
0100
0000
0110
0000
0010
0001
1000
0001
0100
0000
0010
1000
0001
1000
,
0100
0000
0010
0000
0011
0000
0001
1000
0010
1000
0001
0000
0010
0100
1000
0100
,
1000
0000
1000
0000
1000
0000
1000
0000
0100
0010
0001
1000
0040
0030
0400
0300
,
0001
0000
1000
0001
0100
0000
0020
0000
0000
0000
1030
0100
0010
0001
1000
0000
,
0010
0000
0100
0001
0100
0000
0002
0000
0000
0000
0013
0100
1000
0100
0010
0000
,
0001
0000
1000
0010
1000
0000
0200
0000
0000
0000
0310
0001
0010
0100
0010
0000
,
0001
1000
0010
0100
0000
0000
0001
1000
0001
0000
0000
0000
4000
0000
0000
0000
,
3001
0000
0100
0001
1000
0000
0200
0000
0000
0000
0310
0001
0010
0001
1000
0000
,
0010
0000
0100
0001
1000
0000
0002
0000
0000
0000
0013
0100
1000
0100
1000
0000
,
0001
0000
1000
0010
0100
0000
0020
0000
0000
0000
1030
0100
0010
0001
1000
0000
,
0010
0100
0001
0100
0000
0000
0010
1000
0001
0000
0000
0000
4000
0000
0000
0000
,
3001
0000
0010
0100
1000
0000
0002
0000
0000
0000
0013
0100
0010
0001
1000
0000
,
0010
0000
0100
0001
0100
0000
0020
0000
0000
0000
1030
0100
0010
0100
0010
0000
,
0001
0000
1000
0010
1000
0000
0200
0000
0000
0000
1300
0001
0100
0010
0100
0000
,
0101
0000
0000
1010
0000
0000
1001
0000
0011
0000
0000
0110
0000
0000
1001
0000
,
1000
0000
0010
0100
0001
0000
0020
0000
0000
0000
0130
1000
0100
1000
0001
0000
,
0100
0000
0010
1000
0100
0000
2000
0000
0000
0000
3100
0010
0001
0100
0001
0000
,
1000
0000
0001
0100
0010
0000
0200
0000
0000
0000
0301
0010
0100
1000
0100
0000
,
0020
0000
0000
0034
,
1003
0000
0100
0010
0100
0000
1000
0001
0100
0000
0001
0010
0001
1000
0010
1000
,
0001
0000
0010
0100
1000
0000
0001
0100
0010
0000
1000
0100
1000
0010
0100
0001
,
1000
0000
0100
0010
0100
0000
1000
0001
0100
0000
0001
1000
0010
0100
0010
1000
,
0001
0000
1000
0100
0010
0000
0100
0000
1000
0010
1000
0000
0001
0000
1000
0010
,
1000
0000
0001
1000
0010
0000
0100
0010
1000
0000
0001
1000
0100
0010
0100
1000
,
0001
0000
0100
0010
1000
0000
0010
0100
0010
0000
1000
0001
0010
0100
0010
0001
,
1000
0000
0010
1000
0001
0000
1000
0010
1000
0000
0001
0010
0100
1000
0001
0010
,
0100
0000
1000
0001
1000
0000
0010
0000
0100
0001
1000
0001
0010
0000
0100
1000
,
0001
0000
0100
0010
1000
0000
0001
0010
0100
0000
0010
0001
0010
0001
1000
0010
,
1000
0000
0001
0100
0010
0000
0100
0001
1000
0000
0100
0010
0001
0010
0100
0010
,
0001
0000
1000
0010
0100
0000
0010
1000
0001
0000
1000
0100
0010
0100
1000
0100
,
1000
0000
0001
0100
0010
0000
0100
0000
0001
0010
0001
0000
0100
0000
0010
0100
,
0001
0000
0010
0100
1000
0000
0001
1000
0010
0000
1000
0100
0010
0100
0010
0001
,
1000
0000
0010
0100
0001
0000
0010
0100
1000
0000
0100
0010
0100
1000
0100
1000
,
0001
0000
0100
0010
1000
0000
0010
0100
0010
0000
1000
0001
0010
0100
0010
0001
,
0010
0000
0100
1000
0001
0000
0100
0000
0010
1000
0010
0100
0001
0000
0010
0100
,
1000
0000
0100
0010
0100
0000
1000
0001
0100
0000
0001
0010
0001
1000
0010
1000
,
0001
0000
0010
0100
1000
0000
0001
0100
0010
0000
1000
0100
1000
0010
0100
0001
,
1000
0000
0100
0010
0100
0000
1000
0001
0100
0000
0001
1000
0010
0100
0010
1000
,
0001
0000
1000
0100
0010
0000
0100
0000
1000
0010
1000
0000
0001
0000
1000
0010
,
1000
0000
0001
1000
0010
0000
0100
0010
1000
0000
0001
1000
0100
0010
0100
1000
,
0001
0000
0100
0010
1000
0000
0010
0100
0010
0000
1000
0001
0010
0100
0010
0001
,
1000
0000
0010
1000
0001
0000
1000
0010
1000
0000
0001
0010
0100
1000
0001
0010
,
0100
0000
1000
0001
1000
0000
0010
0000
0100
0001
1000
0001
0010
0000
0100
1000
,
0001
0000
0100
0010
1000
0000
0001
0010
0100
0000
0010
0001
0010
0001
1000
0010
,
1000
0000
0001
0100
0010
0000
0100
0001
1000
0000
0100
0010
0001
0010
0100
0010
,
0001
0000
1000
0010
0100
0000
0010
1000
0001
0000
1000
0100
0010
0100
1000
0100
,
1000
0000
0001
0100
0010
0000
0100
0000
0001
0010
0001
0000
0100
0000
0010
0100
,
0001
0000
0010
0100
1000
0000
0001
1000
0010
0000
1000
0100
0010
0100
0010
0001
,
1000
0000
0010
0100
0001
0000
0010
0100
1000
0000
0100
0010
0100
1000
0100
1000
,
0001
0000
0100
0010
1000
0000
0010
0100
0010
0000
1000
0001
0010
0100
0010
0001
,
0010
0001
0100
0001
1000
0010
0100
0001
0010
0100
1000
0100
0010
0000
0001
0100
,
0002
0000
0000
0000
,
4003
0000
3010
0000
4000
0000
3001
0000
0010
0100
1000
0100
1000
0000
0001
0000
,
0100
0000
0010
1000
0010
0000
0100
0000
0001
0000
1000
0100
M00M
0100
0001
0000
,
1000
0000
0010
0100
0010
0000
1000
0000
0001
0000
0010
0100
1000
0000
0001
0000
,
0100
0000
0010
1000
0001
0000
0010
0000
0100
0000
1000
0010
M00M
0010
0100
0000
,
1000
0000
0001
0100
0001
0000
1000
0000
0100
0000
0010
0001
1000
0000
0010
0000
,
0100
0000
0001
1000
0100
0000
0010
0000
0001
0000
0100
0010
M00M
0010
0001
0000
,
1000
0000
0010
1000
0001
0000
0010
0000
0100
0000
1000
0100
0010
0000
0100
0000
,
1000
0000
0001
0100
0010
0000
1000
0000
0001
0000
0010
0100
M00M
0100
0001
0000
,
0010
0000
0100
1000
0100
0000
1000
0000
0001
0000
0100
0010
1000
0000
0001
0000
,
1000
0000
0100
0010
0001
0000
1000
0000
0001
0000
1000
0100
M00M
0100
0001
0000
,
1000
0000
0010
0100
0010
0000
1000
0000
0001
0000
0010
0100
1000
0000
0001
0000
,
0100
0000
0010
1000
0001
0000
1000
0000
0100
0000
1000
0010
M00M
0010
0001
0000
,
1000
0000
0010
0100
0001
0000
0010
0000
0100
0000
0010
0001
1000
0000
0010
0000
,
0100
0000
0001
1000
0010
0000
1000
0000
0100
0000
0010
0100
M00M
0100
0001
0000
,
1000
0000
0100
0010
0001
0000
1000
0000
0001
0000
0100
0010
1000
0000
0001
0000
,
1000
0000
0100
1000
0001
0000
0100
0000
0010
0000
1000
0010
M00M
0010
0001
0000
,
0010
0000
0100
1000
0001
0000
1000
0000
0010
0000
0100
0001
4000
0000
0000
0000
,
3001
0000
0100
0001
0100
0000
0010
0000
1000
0000
0001
0010
M00M
0010
1000
0000
,
0001
0000
0100
0010
0100
0000
0001
0000
1000
0000
0100
0010
0001
0000
1000
0000
,
0010
0000
0100
0001
1000
0000
0100
0000
0010
0000
0001
0100
M00M
0100
0010
0000
,
0001
0000
1000
0010
1000
0000
0001
0000
0010
0000
0100
1000
0001
0000
0100
0000
,
0010
0000
1000
0001
0010
0000
0100
0000
1000
0000
0010
0100
M00M
0100
1000
0000
,
0001
0000
0100
0001
1000
0000
0100
0000
0010
0000
0001
0010
0100
0000
0010
0000
,
0001
0000
1000
0010
0100
0000
0001
0000
1000
0000
0100
0010
M00M
0010
1000
0000
,
0100
0000
0010
0001
0010
0000
0001
0000
1000
0100
0010
0001
1000
0000
0001
0100
,
0001
0000
0010
0100
1000
0000
0001
0000
1000
0000
0001
0010
M00M
0010
1000
0000
,
0001
0000
0100
0010
0100
0000
0001
0000
1000
0000
0100
0010
0001
0000
1000
0000
,
0010
0000
0100
0001
1000
0000
0001
0000
0010
0000
0001
0100
M00M
0100
1000
0000
,
0001
0000
0100
0010
1000
0000
0100
0000
0010
0000
0100
1000
0001
0000
0100
0000
,
0010
0000
1000
0001
0100
0000
0001
0000
0010
0000
0100
0010
M00M
0010
1000
0000
,
0001
0000
0010
0100
1000
0000
0001
0000
1000
0000
0010
0100
0001
0000
1000
0000
,
0001
0000
0010
0001
1000
0000
0010
0000
0100
0000
0001
0100
M00M
0100
1000
0000
,
0100
0000
0010
0001
1000
0000
0001
0000
0100
0000
0010
1000
0002
0000
0000
0000
,
0023
0130
2000
3010
0200
0301
0010
0020
,
0130
1000
0002
0103
0020
1030
0200
1300
,
0020
1030
0002
0013
0200
1300
0010
0020
,
1030
0001
1000
0001
0000
0000
1000
0100
0010
0000
0000
0000
0004
0000
0000
0000
,
2003
3001
0200
0310
2000
3100
0010
0020
,
0031
1000
0020
0130
0002
0013
0200
1300
,
0002
0013
0100
0010
0001
1000
0010
0020
,
1030
0001
1000
0001
0000
0000
1000
0010
0100
0000
0000
0000
0040
0000
0000
0000
,
1030
2000
3001
0100
0200
0301
1000
2000
,
3001
0010
0100
0200
1300
0010
0100
0001
,
0002
0013
0100
0M02
0013
0100
0M02
0013
,
0011
0000
0000
1001
0000
0000
1100
0000
0101
0000
0000
0110
0000
0000
1010
0000
,
2000
3001
0020
0130
2000
3001
0200
0301
,
2000
3100
0020
0130
2000
3001
0200
0310
,
2000
3100
0010
0001
0002
0000
0000
0000
,
1003
0010
1000
0100
0010
0001
4000
0000
,
3001
0010
0100
1000
0001
0010
0100
1000
0001
0100
0010
0100
0001
0100
0010
0100
,
0001
1000
0100
0010
0100
1000
0100
0010
0001
1000
0100
0010
0100
1000
0100
0010
,
0001
0100
0010
1000
0001
0100
0010
1000
0001
0010
0001
1000
0001
0010
0001
1000
,
0001
0000
1000
0000
0010
0000
0100
0000
0001
0000
0010
0000
0100
0000
1000
0001
,
1000
0010
0100
0001
1000
0010
0100
0001
1000
0100
0010
0100
1000
0100
0010
0100
,
1000
0001
0100
0010
0100
0001
0100
0010
1000
0001
0100
0010
0100
0001
0100
0010
,
1000
0100
0010
0001
1000
0100
0010
0001
1000
0010
1000
0001
1000
0010
1000
0001
,
1000
0000
0010
0000
0100
0000
0001
0000
0010
0100
1000
0001
1000
0000
0010
1000
,
0001
0010
0100
1000
0001
0100
0001
1000
0100
0010
0001
1000
0010
1000
0001
0010
,
0100
1000
0001
0100
0001
1000
0100
0010
0001
1000
0010
1000
0001
0010
0100
1000
,
0001
0010
0001
1000
0010
1000
0001
0010
0001
0100
0001
1000
0100
1000
0001
0100
,
0001
0000
1000
0000
0010
0000
0100
0000
0001
0000
0010
0000
0100
0010
0001
1000
,
0001
0100
0010
1000
0001
0100
0010
1000
0001
0010
0100
0010
0001
0010
0100
0010
,
0001
1000
0010
0100
0010
1000
0010
0100
0001
1000
0010
0100
0010
1000
0010
0100
,
0001
0010
0100
1000
0001
0010
0100
1000
0001
0100
0001
1000
0001
0100
0001
1000
,
0001
0000
0010
0000
0100
0000
0010
0000
0001
1000
0010
0100
0001
0000
1000
0001
,
1000
0100
0010
0001
1000
0100
0010
0001
1000
0010
0100
0010
1000
0010
0100
0010
,
1000
0001
0010
0100
0010
0001
0010
0100
1000
0001
0010
0100
0010
0001
0010
0100
,
1000
0010
0100
0001
1000
0010
0100
0001
1000
0100
1000
0001
1000
0100
1000
0001
,
1000
0000
0010
0000
0100
0000
0001
0000
0010
0100
1000
0001
1000
0000
0010
0100
,
0001
0000
1000
0001
0100
0000
0020
0000
0000
0000
1030
0100
0010
0001
1000
0000
,
0010
0000
0100
0001
0100
0000
0002
0000
0000
0000
0013
0100
1000
0100
0010
0000
,
0001
0000
1000
0010
1000
0000
0200
0000
0000
0000
0310
0001
0010
0100
0010
0000
,
0001
1000
0010
0100
0000
0000
0001
1000
0001
0000
0000
0000
4000
0000
0000
0000
,
3001
0000
0100
0001
1000
0000
0200
0000
0000
0000
0310
0001
0010
0001
1000
0000
,
0010
0000
0100
0001
1000
0000
0002
0000
0000
0000
0013
0100
1000
0100
1000
0000
,
0001
0000
1000
0010
0100
0000
0020
0000
0000
0000
1030
0100
0010
0001
1000
0000
,
0010
0100
0001
0100
0000
0000
0010
1000
0001
0000
0000
0000
4000
0000
0000
0000
,
3001
0000
0010
0100
1000
0000
0002
0000
0000
0000
0013
0100
0010
0001
1000
0000
,
0010
0000
0100
0001
0100
0000
0020
0000
0000
0000
1030
0100
0010
0100
0010
0000
,
0001
0000
1000
0010
1000
0000
0200
0000
0000
0000
1300
0001
0100
0010
0100
0000
,
0101
0000
0000
1010
0000
0000
1001
0000
0011
0000
0000
0110
0000
0000
1001
0000
,
1000
0000
0010
0100
0001
0000
0020
0000
0000
0000
0130
1000
0100
1000
0001
0000
,
0100
0000
0010
1000
0100
0000
2000
0000
0000
0000
3100
0010
0001
0100
0001
0000
,
1000
0000
0001
0100
0010
0000
0200
0000
0000
0000
0301
0010
0100
1000
0100
0000
,
0020
0000
0000
0034
,
1003
0000
0100
0010
0100
0000
1000
0001
0100
0000
0001
0010
0001
1000
0010
1000
,
0001
0000
0010
0100
1000
0000
0001
0100
0010
0000
1000
0100
1000
0010
0100
0001
,
1000
0000
0100
0010
0100
0000
1000
0001
0100
0000
0001
1000
0010
0100
0010
1000
,
0001
0000
1000
0100
0010
0000
0100
0000
1000
0010
1000
0000
0001
0000
1000
0010
,
1000
0000
0001
1000
0010
0000
0100
0010
1000
0000
0001
1000
0100
0010
0100
1000
,
0001
0000
0100
0010
1000
0000
0010
0100
0010
0000
1000
0001
0010
0100
0010
0001
,
1000
0000
0010
1000
0001
0000
1000
0010
1000
0000
0001
0010
0100
1000
0001
0010
,
0100
0000
1000
0001
1000
0000
0010
0000
0100
0001
1000
0001
0010
0000
0100
1000
,
0001
0000
0100
0010
1000
0000
0001
0010
0100
0000
0010
0001
0010
0001
1000
0010
,
1000
0000
0001
0100
0010
0000
0100
0001
1000
0000
0100
0010
0001
0010
0100
0010
,
0001
0000
1000
0010
0100
0000
0010
1000
0001
0000
1000
0100
0010
0100
1000
0100
,
1000
0000
0001
0100
0010
0000
0100
0000
0001
0010
0001
0000
0100
0000
0010
0100
,
0001
0000
0010
0100
1000
0000
0001
1000
0010
0000
1000
0100
0010
0100
0010
0001
,
1000
0000
0010
0100
0001
0000
0010
0100
1000
0000
0100
0010
0100
1000
0100
1000
,
0001
0000
0100
0010
1000
0000
0010
0100
0010
0000
1000
0001
0010
0100
0010
0001
,
0010
0000
0100
1000
0001
0000
0100
0000
0010
1000
0010
0100
0001
0000
0010
0100
,
1000
0000
0100
0010
0100
0000
1000
0001
0100
0000
0001
0010
0001
1000
0010
1000
,
0001
0000
0010
0100
1000
0000
0001
0100
0010
0000
1000
0100
1000
0010
0100
0001
,
1000
0000
0100
0010
0100
0000
1000
0001
0100
0000
0001
1000
0010
0100
0010
1000
,
0001
0000
1000
0100
0010
0000
0100
0000
1000
0010
1000
0000
0001
0000
1000
0010
,
1000
0000
0001
1000
0010
0000
0100
0010
1000
0000
0001
1000
0100
0010
0100
1000
,
0001
0000
0100
0010
1000
0000
0010
0100
0010
0000
1000
0001
0010
0100
0010
0001
,
1000
0000
0010
1000
0001
0000
1000
0010
1000
0000
0001
0010
0100
1000
0001
0010
,
0100
0000
1000
0001
1000
0000
0010
0000
0100
0001
1000
0001
0010
0000
0100
1000
,
0001
0000
0100
0010
1000
0000
0001
0010
0100
0000
0010
0001
0010
0001
1000
0010
,
1000
0000
0001
0100
0010
0000
0100
0001
1000
0000
0100
0010
0001
0010
0100
0010
,
0001
0000
1000
0010
0100
0000
0010
1000
0001
0000
1000
0100
0010
0100
1000
0100
,
1000
0000
0001
0100
0010
0000
0100
0000
0001
0010
0001
0000
0100
0000
0010
0100
,
0001
0000
0010
0100
1000
0000
0001
1000
0010
0000
1000
0100
0010
0100
0010
0001
,
1000
0000
0010
0100
0001
0000
0010
0100
1000
0000
0100
0010
0100
1000
0100
1000
,
0001
0000
0100
0010
1000
0000
0010
0100
0010
0000
1000
0001
0010
0100
0010
0001
,
0010
0001
0100
0001
1000
0010
0100
0001
0010
0100
1000
0100
0010
0000
0001
0100
,
0002
0003
0000
0000
;
