#TITLE:Hurry Somebody Up;
#SUBTITLE:IcyWorld;
#ARTIST:Daisuke Ishiwatari;
#TITLETRANSLIT:;
#SUBTITLETRANSLIT:;
#ARTISTTRANSLIT:;
#CREDIT:;
#BANNER:bn.JPG;
#BACKGROUND:bg.jpg;
#LYRICSPATH:;
#CDTITLE:CDTitle.png;
#MUSIC:19. Hurry Somebody Up.mp3;
#OFFSET:-0.586;
#SAMPLESTART:48.640;
#SAMPLELENGTH:11.980;
#SELECTABLE:YES;
#BPMS:0.000=110.827,1.000=125.035,2.000=125.030,3.000=125.035,4.000=125.030,5.000=125.024,6.000=125.035,7.000=125.030,8.000=125.035,9.000=125.030,10.000=125.024,11.000=125.035,12.000=125.030,13.000=125.035,14.000=125.030,15.000=125.024,16.000=125.035,17.000=125.030,18.000=125.024,19.000=125.035,20.000=125.030,21.000=125.035,22.000=125.030,23.000=125.024,24.000=125.035,25.000=125.030,26.000=125.035,27.000=125.030,28.000=125.024,29.000=125.035,30.000=125.030,31.000=125.024,32.000=125.035,33.000=125.030,34.000=125.035,35.000=125.030,36.000=125.024,37.000=125.035,38.000=125.030,39.000=125.035,40.000=125.030,41.000=125.024,42.000=125.035,43.000=125.030,44.000=125.024,45.000=125.035,46.000=125.030,47.000=125.035,48.000=125.030,49.000=125.024,50.000=125.035,51.000=125.030,52.000=125.035,53.000=125.030,54.000=125.024,55.000=125.035,56.000=125.030,57.000=125.035,58.000=125.030,59.000=125.024,60.000=125.035,61.000=125.030,62.000=125.024,63.000=125.035,64.000=125.030,65.000=125.035,66.000=125.030,67.000=125.024,68.000=125.035,69.000=125.030,70.000=125.035,71.000=125.030,72.000=125.024,73.000=125.035,74.000=125.030,75.000=125.024,76.000=125.035,77.000=125.030,78.000=125.035,79.000=125.030,80.000=125.024,81.000=125.035,82.000=125.030,83.000=125.035,84.000=125.030,85.000=125.024,86.000=125.035,87.000=125.030,88.000=125.024,89.000=125.035,90.000=125.030,91.000=125.035,92.000=125.030,93.000=125.024,94.000=125.035,95.000=125.030,96.000=125.035,97.000=125.030,98.000=125.024,99.000=125.035,100.000=125.030,101.000=125.035,102.000=125.030,103.000=125.024,104.000=125.035,105.000=125.030,106.000=125.024,107.000=125.035,108.000=125.030,109.000=125.035,110.000=125.030,111.000=125.024,112.000=125.035,113.000=125.030,114.000=125.035,115.000=125.030,116.000=125.024,117.000=125.035,118.000=125.030,119.000=125.024,120.000=125.035,121.000=125.030,122.000=125.035,123.000=125.030,124.000=125.024,125.000=125.018;
#STOPS:;
#BGCHANGES:;
// cache tags:
#FIRSTBEAT:1.000;
#LASTBEAT:123.000;
#SONGFILENAME:Songs/IcyWorld MiniPack/Hurry Somebody Up IcyWorld/Hurry Somebody Up.sm;
#HASMUSIC:1;
#HASBANNER:1;
#MUSICLENGTH:63.717;
// end cache tags

//---------------dance-single - ----------------
#NOTES:
     dance-single:
     :
     Hard:
     11:
     1.000,1.000,1.000,0.722,1.000,374.000,107.000,46.000,0.000,28.000:
0000
0111
0100
0100
,
0100
0000
0000
0000
0000
0010
0001
0010
1100
0000
0000
0000
0000
0000
0000
0000
0100
0000
0000
0000
0000
0000
0000
0000
0100
0000
0000
0000
0100
0000
0000
0000
,
0100
1110
0111
0000
0100
0000
0100
0000
,
0100
0000
0000
0000
1101
0000
0000
0000
0100
0000
0000
0000
1110
0000
0000
1000
,
0100
0000
0010
0001
0010
0000
0100
0000
1012
0000
0000
0000
0010
0000
0000
0000
1000
0000
0100
0000
0010
0000
0000
0000
1000
0000
0000
0000
0013
0000
0000
0000
,
1002
0100
0010
0000
1203
0000
0010
0000
1000
0010
0001
0000
1000
0000
0310
0000
,
2010
0000
0000
0000
0100
0000
0000
0000
3022
0033
0000
0000
0100
0000
0000
0000
1002
0000
0000
0000
0000
0000
0000
0000
0010
0000
0000
0000
0000
0000
0000
0000
1000
0000
0000
0000
0100
0000
0000
0000
0010
0000
0000
0000
0000
0000
0000
0000
1000
0000
0000
0000
0000
0000
0000
0000
0013
0000
0000
0000
0000
0000
0000
0000
,
2000
0000
0000
0000
0100
0000
0000
0000
3010
0000
0000
0000
0001
0000
0000
0000
2200
3300
0010
0000
0001
0000
0000
0000
0010
0000
0100
0000
1000
0000
0000
0000
0010
0000
0000
0000
0100
0000
0000
0000
1000
0000
0000
0000
0100
0000
0000
0000
2002
3003
0000
0000
0010
0000
0000
0000
0100
0000
0000
0000
0000
0000
0000
0000
,
1001
0000
0000
0000
0001
0000
0000
0000
0101
0000
0000
0000
0001
0000
0000
0000
2201
3300
0000
0000
0000
0000
0000
0000
0010
0000
0000
0000
0000
0000
0000
0000
1000
0000
0000
0000
0100
0000
0000
0000
0010
0000
0000
0000
0000
0000
0000
0000
1000
0000
0000
0000
0000
0000
0000
0000
0010
0000
0000
0000
0000
0000
0000
0000
,
1001
0000
0000
0000
0100
0000
0000
0000
0010
0000
0000
0000
0000
0000
0000
0000
1010
0000
0000
0000
0000
0000
0000
0000
0010
0000
0000
0000
0000
0000
0000
0000
1000
0000
0000
0000
0100
0000
0000
0000
0010
0000
0000
0000
0000
0000
0000
0000
1000
0000
0000
0000
0000
0000
0000
0000
0022
0033
0000
0000
0000
0000
0000
0000
,
1011
0000
0000
0000
0000
0000
0000
0000
0000
0000
0000
0000
0100
0000
0000
0000
0000
0000
0000
0000
0000
0000
0000
0000
0012
0003
0000
0000
0000
0000
0000
0000
0000
0000
0000
0000
0100
0000
0000
0000
0000
0000
0000
0000
0000
0000
0000
0000
2010
3000
0000
0000
0000
0000
0000
0000
0000
0000
0000
0000
0000
0000
0000
0000
0000
0000
0000
0000
0000
0000
0000
0000
0010
0000
0000
0000
0000
0000
0000
0000
0000
0000
0000
0000
0000
0000
0000
0000
0000
0000
0000
0000
0000
0000
0000
0000
1000
0000
0000
0000
0000
0000
0000
0000
0000
0000
0000
0000
0100
0000
0000
0000
0000
0000
0000
0000
0000
0000
0000
0000
0010
0000
0000
0000
0000
0000
0000
0000
0000
0000
0000
0000
0000
0000
0000
0000
0000
0000
0000
0000
0000
0000
0000
0000
1000
0000
0000
0000
0000
0000
0000
0000
0000
0000
0000
0000
0000
0000
0000
0000
0000
0000
0000
0000
0000
0000
0000
0000
0010
0000
0000
0000
0000
0000
0000
0000
0000
0000
0000
0000
0000
0000
0000
0000
0000
0000
0000
0000
0000
0000
0000
0000
,
1001
0000
0000
0000
0100
0000
0000
0000
0010
0000
0000
0000
0000
0000
0000
0000
1100
0000
0000
0000
0010
0000
0000
0000
0100
0000
0000
0000
1000
0000
0000
0000
0100
0000
0000
0000
0022
0033
0000
0000
2200
3300
0000
0000
0010
0000
0000
0000
1001
0000
0000
0000
0001
0000
0000
0000
0001
0000
0000
0000
0001
0000
0000
0000
,
1000
1000
1000
1000
1101
0010
0001
0010
0100
1000
0100
0010
2100
0010
0001
0010
,
0001
0000
0001
3000
1010
0000
0101
0000
1021
0000
0100
0000
0001
0000
0100
0000
1000
0000
0100
0000
0101
0030
0010
0000
1002
0000
0100
0000
0010
0000
0100
0000
,
0013
0000
0000
0000
0000
0000
0000
0000
0000
0000
0000
0000
0100
0000
0000
0000
0000
0000
0000
0000
0000
0000
0000
0000
0100
0000
0000
0000
0000
0000
0000
0000
0000
0000
0000
0000
0010
0000
0000
0000
0000
0000
0000
0000
0000
0000
0000
0000
0202
0000
0000
0303
0000
0000
0000
0000
0000
0000
0000
0000
1000
0000
0000
0000
0000
0000
0000
0000
0100
0000
0000
0000
0000
0000
0000
0000
0010
0000
0000
0000
0000
0000
0001
0000
0000
0000
0000
0000
0010
0000
0000
0000
0000
0000
0000
0000
0100
0000
0000
0000
0000
0000
0000
0000
1000
0000
0000
0000
0000
0000
0000
0000
0000
0000
0000
0000
0000
0000
0000
0000
1000
0000
0000
0000
0000
0000
0000
0000
0000
0000
0000
0000
0100
0000
0000
0000
0000
0000
0000
0000
0000
0000
0000
0000
1020
0000
0000
0000
0000
0000
0000
0000
0000
0000
0000
0000
0100
0000
0000
0000
0000
0000
0000
0000
0000
0000
0000
0000
0001
0000
0000
0000
0000
0000
0000
0000
0000
0000
0000
0000
0100
0000
0000
0000
0000
0000
0000
0000
0000
0000
0000
0000
,
0001
0000
0000
0000
0001
0000
0030
0000
1100
0000
0000
0000
1010
0000
0100
0000
0022
0033
0000
0000
0100
0000
0000
0000
1010
0000
0000
0000
0001
0000
0000
0000
0100
0000
0000
0000
0010
0000
0000
0000
2100
0000
0000
0000
0000
0000
0000
0000
0100
0000
0000
0000
0010
0000
0000
0000
0101
0000
0000
0000
0000
0000
0000
0000
,
3100
0000
0000
0010
0000
0000
0101
0000
0000
0010
0000
0000
1000
0000
0000
0100
0000
0000
0010
0000
0001
0000
0010
0000
0100
0000
0000
1000
0000
0000
1000
0000
0000
0100
0000
0000
1020
0000
0000
0100
0000
0000
0001
0000
0000
0100
0000
0000
,
1000
0000
1000
0030
0101
0000
0011
0000
1012
0000
0100
0000
0010
0000
0100
0000
1000
0000
0100
0003
0100
0000
0010
0000
1002
0000
0100
0000
0010
0000
0100
0000
,
0100
0000
0010
0003
0010
0000
0100
0000
1011
0000
0000
0000
0002
0000
0000
0000
0023
0000
0000
0000
0230
0000
0000
0000
2300
0000
0000
0000
0000
0000
3020
0000
,
0000
0000
0000
0000
0000
0000
0000
0000
0000
0000
0000
0000
0130
0000
0000
0000
0000
0000
1000
0000
0000
0100
0000
0000
0001
0000
0000
0000
0000
0000
1000
0000
0000
0100
0000
0000
0011
0000
0000
0000
0000
0000
0000
0000
0000
0000
0000
0000
0000
0000
0000
0000
0000
0000
0010
0000
0100
0000
1000
0000
0011
0000
0000
0000
0000
0000
0000
0000
0000
0000
0000
0000
0000
0000
0000
0000
0000
0000
0100
0000
0000
0100
0000
0000
0011
0000
0000
0000
0000
0000
0000
0000
0000
0000
0000
0000
,
0000
0000
0100
0100
0011
0000
0000
0000
0010
0000
0100
0000
0100
0000
0010
0000
0100
0000
0100
0000
0010
0000
0100
0000
0011
0000
0001
0000
0001
0000
0011
0000
,
0001
0100
1000
0000
0110
0000
0100
0000
1011
0000
0000
0000
0110
0000
0001
0000
1000
0000
0100
0000
0011
0000
0000
0000
1001
0100
0010
0000
0100
0000
0010
0000
,
1001
1100
0011
0100
1011
0000
0010
0001
1000
0100
0011
0000
1001
0100
0010
0100
,
1010
0101
1010
0011
1101
0000
0010
0001
1000
0100
0011
0000
1001
0000
0011
0000
,
1010
0000
0000
0000
0101
0000
0000
0000
1010
0000
0000
0000
0001
0000
0000
0000
1110
0000
0000
0000
0001
0000
0000
0000
0001
0000
0000
0000
0100
0000
0000
0000
0000
0000
0000
0000
0001
0000
0000
0000
0010
0000
0000
0000
0000
0000
0000
0000
0010
0000
0000
0000
0002
0000
0000
0000
2200
3300
0000
0000
0000
0000
0000
0000
,
0100
0100
0103
0100
1101
0000
0010
0001
1000
0100
0011
0000
1000
0000
0011
0000
,
1001
0100
1010
0001
1110
0000
0010
0001
1000
0100
1010
0000
1000
0000
0011
0000
,
1010
0000
0100
0000
0011
0000
1010
0100
1011
0000
0000
0000
0010
0000
0001
0000
1000
0000
0100
0000
1010
0000
0000
0000
1000
0000
0000
0000
0110
0000
0000
0000
,
1010
0000
0000
0101
0000
0000
1010
0000
0000
0000
0000
0000
1012
0000
0000
0000
0000
0000
1110
0000
0000
0000
0000
0000
1000
0000
0000
0100
0000
0000
0013
0000
0000
0000
0000
0000
0011
0000
0100
1000
0010
0000
0101
0000
0000
1010
0000
0000
,
0110
0000
1000
0001
0100
0000
1010
0000
0000
0100
0000
0000
2011
0000
0000
0000
0000
0000
0000
0000
0000
0000
0000
0000
0000
0000
0000
3000
0000
0000
0000
0000
0000
0000
0000
0000
0021
0000
0000
0000
0000
0000
1230
0000
0000
0000
0000
0000
,
0000
0000
0000
0000
0000
0000
0000
0000
0000
0000
0000
0000
0000
0000
0000
0000
0300
0000
0000
0000
0001
0100
0001
0000
1000
0000
0000
0000
0000
0000
0000
0000
,
0000
0000
0000
0000
,
0000
0000
0000
0000
;
