#TITLE:Master of Shadow;
#SUBTITLE:Persona 3;
#ARTIST:Shoji Meguro;
#TITLETRANSLIT:;
#SUBTITLETRANSLIT:;
#ARTISTTRANSLIT:;
#CREDIT:;
#BANNER:Master of Shadow.png;
#BACKGROUND:Master of Shadow-bg.png;
#LYRICSPATH:;
#CDTITLE:!yesssss-cdtitle.png;
#MUSIC:Master of Shadow.ogg;
#OFFSET:0.600;
#SAMPLESTART:27.508;
#SAMPLELENGTH:12.000;
#SELECTABLE:YES;
#BPMS:0.000=222.001,92.000=111.001,96.000=222.001,160.000=111.001,191.500=222.001,192.000=111.001,207.500=222.001,208.000=222.001,264.000=111.001,268.000=222.001,332.000=111.001,363.500=222.001,364.000=111.001,379.500=222.001,380.000=222.001;
#STOPS:191.500=0.136
,207.500=0.136
,363.500=0.136
,379.500=0.136
;
#BGCHANGES:;
// cache tags:
#FIRSTBEAT:4.000;
#LASTBEAT:208.000;
#SONGFILENAME:Songs/VGMP 2/Master of Shadow (Yesssss)/Master of Shadow.sm;
#HASMUSIC:1;
#HASBANNER:1;
#MUSICLENGTH:74.941;
// end cache tags

//---------------dance-single - ----------------
#NOTES:
     dance-single:
     :
     Hard:
     13:
     1.000,1.000,1.000,1.000,0.987,542.000,124.000,82.000,0.000,1.000:
0000
0000
0000
0000
,
1001
0000
0000
0000
0000
0000
0100
0000
0000
0000
0000
0000
0020
0000
0000
0030
0000
0000
0100
0000
0000
0000
0000
0000
1000
0000
0001
0000
0000
0000
2000
0000
0000
3000
0000
0000
0110
0000
0000
0000
0000
0000
1000
0000
0001
0000
0000
0000
,
0020
0030
1000
0000
0001
0000
0020
0030
0100
0000
0100
0000
2010
3000
0010
0000
,
1002
0000
0000
0003
0000
0000
0010
0000
0000
0000
0000
0000
0100
0000
0000
0000
0000
0000
0200
0000
0000
0300
0000
0000
0010
0000
0000
0000
0000
0000
0100
0000
0000
0000
0000
0000
1020
0000
0000
0030
0000
0000
0100
0000
0001
0000
0000
0000
,
1000
0000
0020
0030
0100
0000
0010
0000
0012
0003
0100
0000
1001
0000
0010
1000
,
0100
0000
0000
0000
0000
0000
1000
0000
0000
0000
0000
0000
0002
0000
0000
0003
0000
0000
1000
0000
0000
0000
0000
0000
0100
0000
0001
0000
0000
0000
2000
0000
0000
3000
0000
0000
0010
0000
0000
0000
0000
0000
0100
0000
0010
0000
0000
0000
,
0002
0003
0100
0000
1000
0000
0002
0003
0100
0000
0010
0000
2100
3000
0001
0000
,
1020
0000
0000
0030
0000
0000
0001
0000
0000
0000
0000
0000
0100
0000
0000
0000
0000
0000
0200
0000
0000
0300
0000
0000
0010
0000
0000
0000
0000
0000
1000
0000
0000
0000
0000
0000
0021
0000
0000
0030
0000
0000
0100
0000
0001
0000
0000
0000
,
1000
0000
0020
0030
1000
0000
0110
0000
0201
0300
0000
0110
1000
0001
0100
0010
,
1001
0000
0000
0100
0000
0000
1010
0000
0000
0110
0000
0000
0010
1000
0000
0100
0000
0000
0010
0000
0100
0010
1000
0000
,
0010
0000
0100
0000
1001
0000
0110
0000
1000
0000
1001
0000
1000
0100
1000
0010
,
1000
0000
0000
0010
0000
0000
0101
0000
0000
0110
0000
0000
1000
0000
0000
0100
0000
0000
0001
0000
1000
0001
1000
0000
,
0001
0000
1000
0000
0011
0000
0110
0000
0100
0000
0010
0100
0001
0010
0100
0010
,
0001
0000
0000
0100
0000
0000
0011
0000
0000
1001
0000
0000
0010
0001
0000
0100
0000
0000
0001
0000
0010
0100
1000
0000
,
0010
0000
0100
0000
0011
0000
1001
0000
0100
0000
0100
0000
0010
0001
0100
0010
,
1000
0000
0000
0001
0000
0000
1010
0000
0000
0110
0000
0000
0001
0000
0000
1000
0000
0000
0001
0000
0010
0001
1000
0000
,
0100
0000
0010
0000
0101
0000
0011
0000
0100
0000
0001
0100
0001
0100
0010
1000
,
0100
0000
0000
0010
0000
0000
1001
0000
0000
0110
0000
0000
0010
1000
0000
0010
0000
0000
0100
0000
0001
0010
0100
0000
,
1000
0000
0010
0000
0101
0000
1100
0000
0010
0000
0001
0000
0100
1000
0100
0010
,
0001
0000
0000
0010
0000
0000
0101
0000
0000
1100
0000
0000
0010
0000
0000
1000
0000
0000
0001
0000
0010
0100
0010
0000
,
0001
0000
1000
0000
0011
0000
0110
0000
1000
0000
0100
1000
0010
0100
0001
0100
,
0010
0000
0000
1000
0000
0000
0101
0000
0000
0011
0000
0000
1000
0100
0000
0010
0000
0000
0001
0000
0100
0001
0010
0000
,
0100
0000
0010
0000
1100
0000
0011
0000
1000
0000
0010
0000
0100
0001
0100
0010
,
1000
0000
0000
0000
0000
0000
0000
0000
0000
0000
0000
0000
0100
0000
0000
0000
0000
0000
0000
0000
0000
0000
0000
0000
0010
0000
0000
0000
0000
0000
0000
0000
0000
0000
0000
0000
0001
0000
0000
0000
0000
0000
0000
0000
0000
0000
0000
0000
1000
0000
0000
0000
0000
0000
0000
0000
0000
0000
0000
0000
0001
0000
0000
0000
0000
0000
0000
0000
0000
0000
0000
0000
0100
0000
0000
0000
0000
0000
0000
0000
1000
0000
0000
0000
0001
0000
0000
0000
0010
0000
0000
0000
0000
0000
0000
0000
0100
0000
0000
0000
0000
0000
0000
0000
0000
0000
0000
0000
0001
0000
0000
0000
0000
0000
0000
0000
0000
0000
0000
0000
0010
0000
0000
0000
0000
0000
0000
0000
0000
0000
0000
0000
0100
0000
0000
0000
0000
0000
0000
0000
0000
0000
0000
0000
0001
0000
0000
0000
0000
0000
0000
0000
0000
0000
0000
0000
0100
0000
0000
0000
0000
0000
0001
0000
0000
0000
0000
0000
0100
0000
0000
0000
0000
0000
0010
0000
0000
0000
0000
0000
0100
0000
0000
0000
0000
0000
0010
0000
0000
0000
0000
0000
,
1000
0000
0000
0100
0000
0000
1010
0000
0000
1100
0000
0000
0010
0001
0000
0100
0000
0000
0010
0000
0100
0010
1000
0000
,
0002
0003
0100
0000
1002
0003
0210
0300
1000
0000
0002
0003
0010
0100
2000
3010
,
0100
0000
0000
0010
0000
0000
0101
0000
0000
0110
0000
0000
1000
0000
0000
0100
0000
0000
0001
0000
1000
0010
1000
0000
,
0002
0003
1000
0000
0012
0003
0120
0030
0100
0000
0010
1000
0100
0010
0100
0010
,
0001
0000
0000
0100
0000
0000
0011
0000
0000
1100
0000
0000
0010
0001
0000
1000
0000
0000
0100
0000
0010
1000
0001
0000
,
0020
0030
0100
0000
0021
0030
2001
3000
0100
0000
0200
0300
0010
0100
2000
3010
,
1000
0000
0000
0001
0000
0000
1010
0000
0000
0110
0000
0000
0001
0000
0000
1000
0000
0000
0001
0000
0010
0001
1000
0000
,
0200
0300
0020
0030
0102
0003
0020
2030
3200
0300
0002
0103
0002
0203
0320
2030
,
3100
0000
0000
0010
0000
0000
1001
0000
0000
0011
0000
0000
0010
1000
0000
0010
0000
0000
1000
0000
0001
0010
0100
0000
,
2000
3000
0010
0000
0102
0003
1200
0300
0010
0000
1002
0003
0010
1000
0200
0310
,
0100
0000
0000
0010
0000
0000
0101
0000
0000
1100
0000
0000
0100
0000
0000
1000
0000
0000
0001
0000
0010
0100
0010
0000
,
0002
0003
1000
0000
0012
0003
0120
0030
1000
0000
0100
1000
0001
0100
0001
0100
,
0001
0000
0000
1000
0000
0000
0101
0000
0000
0011
0000
0000
1000
0100
0000
0001
0000
0000
0010
0000
0100
1000
0010
0000
,
0200
0300
0010
0000
1200
0300
0012
0003
1000
0000
0002
0003
0100
0010
2000
3100
,
0010
0000
0000
0100
0000
0000
1010
0000
0000
1100
0000
0000
0010
0001
0000
1000
0000
0000
0001
0000
0100
0010
1000
0000
,
0020
0030
0200
0300
2001
3000
0200
0302
2003
3000
1002
0003
0020
0230
2300
3020
,
2230
3300
0110
0000
1001
0000
0100
0010
0100
1000
0110
0000
1010
0001
0100
0001
,
0220
0330
1100
0000
0011
0000
1000
0001
1000
0010
1100
1000
0011
0100
1000
0010
,
0202
0303
1010
0000
1001
0000
0010
1000
0010
0001
0110
0000
1010
0001
1000
0001
,
0220
0330
1010
0000
0101
0000
0001
0010
0001
1000
0100
0100
1010
0100
0010
0100
,
2002
3003
0010
0000
0101
0000
0001
1000
0001
0010
0101
0000
1010
0100
0001
0100
,
0022
0033
1010
0000
0110
0000
1000
0001
1000
0100
0011
0010
0101
1000
0001
1000
,
0220
0330
0101
0000
1100
0000
0001
1000
0001
0010
0100
0000
1001
0010
0100
0010
,
1100
0000
0010
0000
1001
0000
0010
0000
0100
0000
0100
1000
0011
0000
0000
0000
,
1001
0000
0010
0000
0101
0000
0000
0010
0000
0010
0100
0000
1010
0100
0000
0001
,
0010
0000
0010
0000
1100
0000
0000
0001
0000
0001
1000
1000
1001
1000
0000
0010
,
0100
0000
0100
0000
1001
0000
0000
0100
0000
0100
1000
0000
0011
0100
0000
0000
,
1010
0000
0000
0000
0101
1000
0000
0010
0000
0000
0110
0110
1001
0110
0000
0000
,
1001
0000
0000
0000
;

//---------------dance-single - Copied from----------------
#NOTES:
     dance-single:
     Copied from:
     Challenge:
     14:
     1.000,1.000,1.000,1.000,0.987,542.000,272.000,83.000,0.000,8.000:
0000
0000
0000
0000
,
1001
0000
0000
0000
0000
0000
0100
0000
0000
0000
0000
0000
0020
0000
0000
0030
0000
0000
0100
0000
0000
0000
0000
0000
1000
0000
0001
0000
0000
0000
2000
0000
0000
3000
0000
0000
0110
0000
0000
0000
0000
0000
1000
0000
0001
0000
0000
0000
,
0020
0030
1000
0000
0001
0000
0020
0030
0100
0000
0100
0000
2010
3000
0010
0000
,
1002
0000
0000
0003
0000
0000
0010
0000
0000
0000
0000
0000
0100
0000
0000
0000
0000
0000
0200
0000
0000
0300
0000
0000
0010
0000
0000
0000
0000
0000
0100
0000
0000
0000
0000
0000
1020
0000
0000
0030
0000
0000
0100
0000
0001
0000
0000
0000
,
1000
0000
0020
0030
0100
0000
0010
0000
0012
0003
0100
0000
1001
0000
0010
1000
,
0101
0000
0000
0000
0000
0000
1000
0000
0000
0000
0000
0000
0002
0000
0000
0003
0000
0000
1000
0000
0000
0000
0000
0000
0100
0000
0001
0000
0000
0000
2000
0000
0000
3000
0000
0000
0010
0000
0000
0000
0000
0000
1100
0000
0010
0000
0000
0000
,
0002
0003
0100
0000
1000
0000
0002
0003
0100
0000
0010
0000
2100
3000
0001
0000
,
1020
0000
0000
0030
0000
0000
0001
0000
0000
0000
0000
0000
0100
0000
0000
0000
0000
0000
0200
0000
0000
0300
0000
0000
0010
0000
0000
0000
0000
0000
1000
0000
0000
0000
0000
0000
0021
0000
0000
0030
0000
0000
0100
0000
0001
0000
0000
0000
,
1000
0000
0020
0030
1000
0000
0110
0000
0201
0300
0000
0110
1000
0001
0100
0010
,
1001
0000
0000
0100
0000
0000
1010
0000
0000
1100
0000
0000
0010
0001
0000
1100
0000
0000
0011
0000
1100
0011
1100
0000
,
0011
0000
0100
0000
1001
0000
0110
0000
1000
0000
1001
0000
1010
0101
1010
0101
,
1010
0000
0000
0010
0000
0000
0101
0000
0000
0110
0000
0000
1001
0000
0000
0110
0000
0000
0011
0000
1100
0011
1100
0000
,
0011
0000
1000
0000
0011
0000
0110
0000
0100
0000
0010
1000
0001
1000
0100
0010
,
0001
0000
0000
0100
0000
0000
0011
0000
0000
1100
0000
0000
0010
0001
0000
1010
0000
0000
1100
0000
0011
1100
0011
0000
,
1100
0000
0100
0000
0011
0000
1001
0000
0100
0000
0101
0000
1001
0110
1001
0110
,
1001
0000
0000
0001
0000
0000
1010
0000
0000
0110
0000
0000
0011
0000
0000
1100
0000
0000
1001
0000
0110
1001
0110
0000
,
1001
0000
0010
0000
0101
0000
0011
0000
0100
0000
0001
0100
0001
0100
0010
1000
,
0100
0000
0000
0010
0000
0000
1001
0000
0000
0011
0000
0000
0010
1000
0000
0011
0000
0000
1010
0000
0101
1010
0101
0000
,
1010
0000
0010
0000
0101
0000
1100
0000
0010
0000
1001
0000
0110
1001
0110
1001
,
0110
0000
0000
0010
0000
0000
0101
0000
0000
1100
0000
0000
0110
0000
0000
1001
0000
0000
1100
0000
0011
1100
0011
0000
,
1100
0000
1000
0000
0011
0000
0110
0000
1000
0000
0100
1000
0010
0100
0001
0100
,
0010
0000
0000
1000
0000
0000
0101
0000
0000
0011
0000
0000
1000
0100
0000
0001
0000
0000
1001
0000
0110
1001
0110
0000
,
1001
0000
0010
0000
1100
0000
0011
0000
1000
0000
0011
0000
1010
0101
1010
0101
,
1010
0000
0000
0000
0000
0000
0000
0000
0000
0000
0000
0000
0100
0000
0000
0000
0000
0000
0000
0000
0000
0000
0000
0000
0010
0000
0000
0000
0000
0000
0000
0000
0000
0000
0000
0000
0001
0000
0000
0000
0000
0000
0000
0000
0000
0000
0000
0000
1000
0000
0000
0000
0000
0000
0000
0000
0000
0000
0000
0000
0001
0000
0000
0000
0000
0000
0000
0000
0000
0000
0000
0000
0100
0000
0000
0000
0000
0000
0000
0000
1000
0000
0000
0000
0001
0000
0000
0000
0010
0000
0000
0000
0000
0000
0000
0000
0100
0000
0000
0000
0000
0000
0000
0000
0000
0000
0000
0000
0001
0000
0000
0000
0000
0000
0000
0000
0000
0000
0000
0000
0010
0000
0000
0000
0000
0000
0000
0000
0000
0000
0000
0000
0100
0000
0000
0000
0000
0000
0000
0000
0000
0000
0000
0000
0001
0000
0000
0000
0000
0000
0000
0000
0000
0000
0000
0000
0100
0000
0000
0000
0000
0000
0001
0000
0000
0000
0000
0000
0100
0000
0000
0000
0000
0000
0010
0000
0000
0000
0000
0000
0100
0000
0000
0000
0000
0000
0010
0000
0000
0000
0000
0000
,
1001
0000
0000
0100
0000
0000
1010
0000
0000
1100
0000
0000
0010
0001
0000
1100
0000
0000
0011
0000
1100
0011
1100
0000
,
0012
0003
0100
0000
1002
0003
0210
0300
1000
0000
1002
0003
1010
0101
2010
3101
,
1010
0000
0000
0010
0000
0000
0101
0000
0000
0110
0000
0000
1001
0000
0000
0110
0000
0000
0011
0000
1100
0011
1100
0000
,
0012
0003
1000
0000
0012
0003
0120
0030
0100
0000
0010
1000
0100
0010
0100
0010
,
1001
0000
0000
0100
0000
0000
0011
0000
0000
1100
0000
0000
0010
0001
0000
1100
0000
0000
1001
0000
0101
1010
0101
0000
,
1020
0030
0100
0000
0021
0030
2001
3000
0100
0000
0201
0300
1010
0101
2010
3101
,
1010
0000
0000
0001
0000
0000
1010
0000
0000
0110
0000
0000
0011
0000
0000
1010
0000
0000
1100
0000
0011
1100
0011
0000
,
1200
0300
0020
0030
0102
0003
0021
2030
3200
0300
0002
0103
2001
3200
0320
2030
,
3101
0000
0000
0010
0000
0000
1001
0000
0000
0011
0000
0000
0010
1000
0000
0011
0000
0000
1001
0000
0110
1001
0110
0000
,
1002
0003
0010
0000
0102
0003
1200
0300
0010
0000
1002
0003
0110
1001
0210
1301
,
0110
0000
0000
0010
0000
0000
0101
0000
0000
1100
0000
0000
0110
0000
0000
1001
0000
0000
0101
0000
1010
0101
1010
0000
,
0102
0003
1000
0000
0012
0003
0120
0030
1000
0000
0100
1000
0001
0100
0001
0100
,
0001
0000
0000
1000
0000
0000
0101
0000
0000
0011
0000
0000
1000
0100
0000
0001
0000
0000
1100
0000
0011
1100
0011
0000
,
1200
0300
0010
0000
1200
0300
0012
0003
1000
0000
0012
0003
1010
0101
2010
3101
,
1010
0000
0000
0100
0000
0000
1010
0000
0000
1100
0000
0000
0010
0001
0000
1100
0000
0000
0011
0000
1100
0011
1100
0000
,
0021
0030
0200
0300
2001
3000
0210
0302
2003
3000
1002
0003
0020
0230
2300
3020
,
2230
3300
0110
0000
1001
0000
0100
0010
0100
1000
0110
0000
1010
0001
0100
0001
,
0220
0330
1100
0000
0011
0000
1000
0001
1000
0010
1100
1000
0011
0100
1000
0010
,
0202
0303
1010
0000
1001
0000
0010
1000
0010
0001
0110
0000
1010
0001
1000
0001
,
0220
0330
1010
0000
0101
0000
0001
0010
0001
1000
0100
0100
1010
0100
0010
0100
,
2002
3003
0010
0000
0101
0000
0001
1000
0001
0010
0101
0000
1010
0100
0001
0100
,
0022
0033
1010
0000
0110
0000
1000
0001
1000
0100
0011
0010
0101
1000
0001
1000
,
0220
0330
0101
0000
1100
0000
0001
1000
0001
0010
0100
0000
1001
0010
0100
0010
,
2100
0000
0010
0000
0101
0000
0010
0000
0100
0000
0100
0010
0101
0000
3000
0000
,
1001
0000
0010
0000
0101
0000
0000
0010
0000
0010
0100
0000
1010
0100
0000
0001
,
0010
0000
0010
0000
1100
0000
0000
0001
0000
0001
1000
1000
1001
1000
0000
0010
,
0100
0000
0100
0000
1001
0000
0000
0100
0000
0100
1000
0000
0011
0100
0000
0000
,
1010
0000
0000
0000
0101
1000
0000
0010
0000
0000
0110
0110
1001
0110
0000
0000
,
1001
0000
0000
0000
;
