#TITLE:Splash Hill Zone Act 1;
#SUBTITLE:Sonic 4\;
#ARTIST:Jun Senoue;
#TITLETRANSLIT:;
#SUBTITLETRANSLIT:;
#ARTISTTRANSLIT:;
#CREDIT:Owem;
#BANNER:../Banner.png;
#BACKGROUND:../BG.png;
#LYRICSPATH:;
#CDTITLE:../CDTitleOV1.png;
#MUSIC:Splash Hill Zone Act 1.ogg;
#OFFSET:-0.691;
#SAMPLESTART:18.919;
#SAMPLELENGTH:29.999;
#SELECTABLE:YES;
#BPMS:0.000=158.000;
#STOPS:;
#BGCHANGES:;
// cache tags:
#FIRSTBEAT:0.000;
#LASTBEAT:208.000;
#SONGFILENAME:Songs/Owem Extras -l/Splash Hill Zone Act 1 - [Owem]/Splash Hill Zone Act 1.sm;
#HASMUSIC:1;
#HASBANNER:0;
#MUSICLENGTH:83.591;
// end cache tags

//---------------dance-single - 13- (Owem)----------------
#NOTES:
     dance-single:
     13- (Owem):
     Challenge:
     13:
     1.000,1.000,0.036,0.156,1.000,766.000,3.000,13.000,0.000,6.000:
1000
0100
0010
0001
1000
0001
0100
0010
1000
0010
0100
0001
1000
0001
0010
0001
,
0100
0010
0100
0001
1000
0010
1000
0100
0010
0001
1000
0001
0100
0010
1000
0010
,
0100
0001
1000
0001
0010
0001
0100
0010
1000
0010
0100
0001
1000
0100
0010
0100
,
1000
0001
0100
0001
1000
0001
0010
0100
1000
0001
0010
0001
0100
0010
1000
0010
,
0100
0001
1000
0100
0010
0001
0010
0100
1000
0001
0010
0001
0100
0010
1000
0010
,
0100
0001
1000
0010
1000
0001
0100
0001
1000
0001
0100
0010
0100
0001
1000
0010
,
1000
0100
0010
0001
1000
0001
0100
0010
1000
0010
0100
0001
0100
0010
1000
0001
,
2000
3100
0010
0001
2000
0001
0001
3001
,
0010
0100
1000
0001
0100
0010
1000
0010
0100
0001
0100
0010
1000
0001
1000
0100
,
0010
0001
1000
0001
0100
0010
0100
0001
1000
0010
1000
0001
0100
0001
0010
0100
,
1000
0100
0010
0001
1000
0100
1000
0001
0010
0001
0100
0010
1000
0010
0100
0001
,
1000
0100
0010
0001
0100
0001
1000
0100
1000
0010
0100
0010
1000
0001
1000
0001
,
0100
0010
1000
0001
0010
0100
1000
0001
0010
0001
0100
0010
1000
0010
0100
0001
,
1000
0010
1000
0100
0010
0001
1000
0100
1000
0001
0010
0001
1000
0100
0010
0001
,
1000
0100
1000
0001
0100
0001
1000
0010
0100
0001
0100
0010
1000
0001
1000
0100
,
1000
0001
1000
0010
0100
0010
1000
0010
0100
0001
1000
0001
0010
0100
1000
0010
,
0100
0001
1000
0001
0100
0010
0100
0001
1000
0100
0010
0001
1000
0001
0200
0000
,
0300
0000
0020
0000
1030
0001
0100
0010
0100
0001
1000
0010
1000
0100
0010
0001
,
1000
0100
1000
0001
0100
0010
0100
0001
1000
0001
0100
0010
1000
0010
0100
0001
,
1000
0001
0010
0100
1000
0001
0010
0001
0100
0010
1000
0010
0100
0001
0100
0001
,
1000
0010
0100
0010
1000
0001
0010
0001
0100
0010
1000
0010
0100
0001
1000
0100
,
1000
0010
0100
0001
1000
0001
0010
0100
1000
0001
0010
0001
0100
0010
2000
0000
,
0000
0010
0010
0200
0001
0000
0001
3301
,
1000
0100
0010
0001
1000
0001
0100
0010
1000
0010
0100
0001
1000
0001
0010
0001
,
0100
0010
0100
0001
1000
0010
1000
0100
0010
0001
1000
0001
0100
0010
1000
0010
,
0100
0001
1000
0001
0010
0001
0100
0010
1000
0010
0100
0001
1000
0100
0010
0100
,
1000
0001
0100
0001
1000
0001
0010
0100
1000
0001
0010
0001
0100
0010
1000
0010
,
0100
0001
1000
0100
0010
0001
0010
0100
1000
0001
0010
0001
0100
0010
1000
0010
,
0100
0001
1000
0010
1000
0001
0100
0001
1000
0001
0100
0010
0100
0001
1000
0010
,
1000
0100
0010
0001
1000
0001
0100
0010
1000
0010
0100
0001
0100
0010
1000
0001
,
2000
3100
0010
0001
2000
0001
0001
3001
,
0010
0100
1000
0001
0100
0010
1000
0010
0100
0001
0100
0010
1000
0001
1000
0100
,
0010
0001
1000
0001
0100
0010
0100
0001
1000
0010
1000
0001
0100
0001
0010
0100
,
1000
0100
0010
0001
1000
0100
1000
0001
0010
0001
0100
0010
1000
0010
0100
0001
,
1000
0100
0010
0001
0100
0001
1000
0100
1000
0010
0100
0010
1000
0001
1000
0001
,
0100
0010
1000
0001
0010
0100
1000
0001
0010
0001
0100
0010
1000
0010
0100
0001
,
1000
0010
1000
0100
0010
0001
1000
0100
1000
0001
0010
0001
1000
0100
0010
0001
,
1000
0100
1000
0001
0100
0001
1000
0010
0100
0001
0100
0010
1000
0001
1000
0100
,
1000
0001
1000
0010
0100
0010
1000
0010
0100
0001
1000
0001
0010
0100
1000
0010
,
0100
0001
1000
0001
0100
0010
0100
0001
1000
0100
0010
0001
1000
0001
0200
0000
,
0300
0000
0020
0000
1030
0001
0100
0010
0100
0001
1000
0010
1000
0100
0010
0001
,
1000
0100
1000
0001
0100
0010
0100
0001
1000
0001
0100
0010
1000
0010
0100
0001
,
1000
0001
0010
0100
1000
0001
0010
0001
0100
0010
1000
0010
0100
0001
0100
0001
,
1000
0010
0100
0010
1000
0001
0010
0001
0100
0010
1000
0010
0100
0001
1000
0100
,
1000
0010
0100
0001
1000
0001
0010
0100
1000
0001
0010
0001
0100
0010
2000
0000
,
0000
0010
0010
0200
0011
0000
0011
3311
,
1000
0100
0010
0001
1000
0001
0100
0010
1000
0010
0100
0001
1000
0001
0010
0001
,
0100
0010
0100
0001
1000
0010
1000
0100
0010
0001
1000
0001
0100
0010
1000
0010
,
0100
0001
1000
0001
0010
0001
0100
0010
1000
0010
0100
0001
1000
0100
0010
0100
,
1000
0001
0100
0001
1000
0001
0010
0100
1000
0001
0010
0001
0100
0010
1000
0010
,
0100
0001
1000
0100
0010
0001
0010
0100
1000
0000
0010
0000
0100
0000
0002
0000
,
0000
0000
0000
0000
,
0003
0000
0000
0000
;
