#TITLE:AYU Trance 2;
#SUBTITLE:;
#ARTIST:Cyber TRANCE Presents;
#TITLETRANSLIT:;
#SUBTITLETRANSLIT:;
#ARTISTTRANSLIT:;
#CREDIT:;
#BANNER:ayutrance2.png;
#BACKGROUND:ayutrance2-bg.png;
#LYRICSPATH:;
#CDTITLE:;
#MUSIC:ayutrance2.mp3;
#OFFSET:0.232;
#SAMPLESTART:42.640;
#SAMPLELENGTH:12.000;
#SELECTABLE:YES;
#BPMS:0.000=139.950,332.500=139.950,648.000=139.970,872.000=139.970,1405.000=140.100,1569.000=139.970,2017.000=139.960,2357.000=140.000,2739.000=110.000,2739.250=140.000,2739.500=165.000,2739.750=210.000,2740.000=240.000,2740.250=279.000,2740.500=280.000,2806.000=140.000,2868.000=110.000,2868.250=140.000,2868.500=165.000,2868.750=210.000,2869.000=240.000,2869.250=279.000,2869.500=280.000,3031.000=140.000,3171.000=140.080,3507.250=139.980,3765.000=280.000,4078.000=139.980,4434.000=35.000,4450.000=139.980,4578.000=140.000,5074.000=139.980;
#STOPS:1208.000=2.980
,3507.250=1.000
,3773.000=1.500
;
#BGCHANGES:;
// cache tags:
#FIRSTBEAT:12.000;
#LASTBEAT:5346.000;
#SONGFILENAME:Songs/IzzySM Keyboard Mega Pack/Cyber Trance Presents Ayu Trance 2/ayutrance2.sm;
#HASMUSIC:1;
#HASBANNER:1;
#MUSICLENGTH:2204.638;
// end cache tags

//---------------dance-single - ----------------
#NOTES:
     dance-single:
     :
     Easy:
     6:
     0.322,0.546,0.267,0.279,0.000,3761.000,588.000,615.000,0.000,0.000:  // measure 1
0000
0000
0000
0000
,  // measure 2
0000
0000
0000
0000
,  // measure 3
0000
0000
0000
0000
,  // measure 4
2000
0000
0000
3000
,  // measure 5
0002
0000
0000
0003
,  // measure 6
0020
0000
0000
0000
,  // measure 7
0000
0030
0100
1000
,  // measure 8
0200
0000
0000
0000
,  // measure 9
0000
0300
0010
0001
,  // measure 10
2000
0000
0000
3000
,  // measure 11
0010
0110
0100
0001
,  // measure 12
1001
0000
1001
0000
,  // measure 13
1100
0000
1100
0000
,  // measure 14
1001
0000
1001
0000
,  // measure 15
0101
0000
0101
0000
,  // measure 16
0010
1000
0100
0100
,  // measure 17
0010
0001
0100
0100
,  // measure 18
0010
1000
0001
0001
,  // measure 19
0010
0001
1000
1000
,  // measure 20
1001
0000
0000
0100
,  // measure 21
1001
1001
0010
0010
,  // measure 22
1001
1001
0100
0100
,  // measure 23
0010
0001
1000
0001
,  // measure 24
0010
1000
0001
1000
,  // measure 25
0110
0001
0110
1000
,  // measure 26
0110
0110
1001
1001
,  // measure 27
0100
0100
0010
0010
,  // measure 28
0001
1000
0100
0010
,  // measure 29
0002
0000
0000
0003
,  // measure 30
0200
0000
0000
0300
,  // measure 31
0010
1000
0010
1000
,  // measure 32
0001
0100
0001
0100
,  // measure 33
0010
1000
0001
0100
,  // measure 34
0010
0001
1000
0100
,  // measure 35
0010
0010
0001
0001
,  // measure 36
0100
0100
1000
1000
,  // measure 37
0010
0100
0001
1000
,  // measure 38
1100
1100
0101
0101
,  // measure 39
0010
2000
3001
0100
,  // measure 40
0200
0310
0020
1030
,  // measure 41
0001
0002
1003
0200
,  // measure 42
0310
0001
1000
0100
,  // measure 43
0000
0010
0002
1003
,  // measure 44
0100
0200
0310
0020
,  // measure 45
0031
1000
2000
3001
,  // measure 46
0200
0310
1000
0001
,  // measure 47
0200
0000
0000
0310
,  // measure 48
0020
0000
0000
0030
,  // measure 49
2000
0000
0000
3001
,  // measure 50
0002
0000
0000
0003
,  // measure 51
2000
0000
0000
3100
,  // measure 52
0200
0000
0000
0300
,  // measure 53
0020
0000
0000
0030
,  // measure 54
2002
0000
0000
3003
,  // measure 55
0200
0000
0000
0300
,  // measure 56
0220
0000
0000
0330
,  // measure 57
1001
0000
0000
0000
,  // measure 58
1000
1000
0001
0001
,  // measure 59
1000
0001
1000
0001
,  // measure 60
2000
0010
0100
3001
,  // measure 61
0002
0010
0100
1003
,  // measure 62
0110
0000
1001
0000
,  // measure 63
0010
0010
0010
0010
,  // measure 64
1000
0100
0001
0100
,  // measure 65
1000
0010
0001
0010
,  // measure 66
1001
0001
1000
1000
,  // measure 67
0001
1000
0001
1000
,  // measure 68
0002
0010
0100
1003
,  // measure 69
2000
0010
0100
3001
,  // measure 70
0110
0000
1001
0000
,  // measure 71
0010
0010
0010
0010
,  // measure 72
0001
0100
1000
0100
,  // measure 73
0001
0010
1000
0010
,  // measure 74
1001
1001
0010
0010
,  // measure 75
1001
1001
0100
0100
,  // measure 76
0010
1000
0001
1000
,  // measure 77
0010
0001
1000
0001
,  // measure 78
0110
1000
0110
0001
,  // measure 79
0110
0110
1001
1001
,  // measure 80
0100
0100
0010
0010
,  // measure 81
1000
0001
0100
0010
,  // measure 82
1000
1000
1000
1000
,  // measure 83
0001
0001
0001
0001
,  // measure 84
2002
0000
0000
3003
,  // measure 85
0020
0000
0000
0030
,  // measure 86
2000
0000
0000
3000
,  // measure 87
0200
0000
0000
0300
,  // measure 88
0002
0000
0000
0003
,  // measure 89
2000
0000
0000
0000
,  // measure 90
0000
0000
0000
3000
,  // measure 91
0020
0000
0000
0000
,  // measure 92
0000
0000
0000
0030
,  // measure 93
0200
0000
0000
0300
,  // measure 94
0002
0000
0000
0003
,  // measure 95
0020
0000
0000
0030
,  // measure 96
2000
0000
0000
3000
,  // measure 97
0002
0000
0000
0000
,  // measure 98
0000
0000
0000
0003
,  // measure 99
0200
0000
0000
0000
,  // measure 100
0000
0000
0000
0300
,  // measure 101
0010
0010
1001
0100
,  // measure 102
0001
0001
0000
1000
,  // measure 103
0000
0001
0000
1000
,  // measure 104
0000
1001
0000
0110
,  // measure 105
0000
1001
1100
0101
,  // measure 106
0020
1030
2000
3100
,  // measure 107
0200
0310
0020
0031
,  // measure 108
0001
1000
0100
0010
,  // measure 109
0002
0100
1000
0103
,  // measure 110
0020
0031
0002
0103
,  // measure 111
0200
0310
0020
1030
,  // measure 112
1000
0001
0100
0010
,  // measure 113
2000
0100
0001
3100
,  // measure 114
1002
0013
0002
0103
,  // measure 115
2000
3100
2000
3010
,  // measure 116
1000
0001
0100
0010
,  // measure 117
1000
0100
0100
0100
,  // measure 118
2000
3010
2000
3100
,  // measure 119
0002
0103
0002
0013
,  // measure 120
0001
1000
0100
0010
,  // measure 121
0001
0100
0100
0100
,  // measure 122
1010
0000
1000
0000
,  // measure 123
0001
0000
1000
0000
,  // measure 124
1100
0000
0001
0000
,  // measure 125
0100
0000
0010
0000
,  // measure 126
0011
0000
0001
0000
,  // measure 127
1000
0000
0001
0000
,  // measure 128
0101
0000
1000
0000
,  // measure 129
0100
0000
0010
0000
,  // measure 130
1001
0000
1001
0000
,  // measure 131
0110
0000
0011
0000
,  // measure 132
0101
0000
1010
0000
,  // measure 133
1100
0000
1001
0000
,  // measure 134
0110
0000
0110
0000
,  // measure 135
1001
0000
1010
0000
,  // measure 136
1100
0000
0011
0000
,  // measure 137
0101
0000
1001
0000
,  // measure 138
0110
0000
0000
0000
,  // measure 139
1000
1000
0100
0100
,  // measure 140
1000
0010
1000
0100
,  // measure 141
0010
0010
0001
0001
,  // measure 142
0100
0001
0010
0001
,  // measure 143
0100
1000
0100
0001
,  // measure 144
0100
0010
1000
0010
,  // measure 145
0001
0010
1000
0100
,  // measure 146
0001
0100
0010
0001
,  // measure 147
0001
0001
0100
0100
,  // measure 148
0001
0010
0001
0100
,  // measure 149
0010
0010
1000
1000
,  // measure 150
0100
1000
0010
1000
,  // measure 151
2000
0000
0000
3000
,  // measure 152
0002
0000
0000
0003
,  // measure 153
0200
0000
0000
0300
,  // measure 154
0010
0000
1000
1000
,  // measure 155
2000
0000
0000
3000
,  // measure 156
0001
0000
0001
0000
,  // measure 157
0100
0000
0100
0000
,  // measure 158
0010
0000
0010
0000
,  // measure 159
1000
0000
0100
0000
,  // measure 160
0010
0000
0001
0000
,  // measure 161
0100
0010
1000
0100
,  // measure 162
0010
0001
0001
0001
,  // measure 163
1001
0100
1000
0100
,  // measure 164
0010
0000
0010
0000
0002
0003
0001
0000
,  // measure 165
1001
0100
0001
0100
,  // measure 166
0010
0000
0010
0000
2000
3000
1000
0000
,  // measure 167
0001
0100
0010
2000
,  // measure 168
3100
0000
0200
0300
0100
0000
1001
0000
,  // measure 169
1000
0100
0010
0002
,  // measure 170
0103
0000
0200
0300
0100
0000
1001
0000
,  // measure 171
0001
1001
1001
1001
,  // measure 172
1000
0001
1000
0001
,  // measure 173
1000
1001
1001
1001
,  // measure 174
0001
1000
0001
1000
,  // measure 175
0010
0110
0110
0100
,  // measure 176
0001
1001
1001
1000
,  // measure 177
0100
0110
0110
0010
,  // measure 178
1000
1001
1001
0001
,  // measure 179
0220
0330
1000
0001
,  // measure 180
2002
3003
0100
0100
,  // measure 181
0220
0330
0001
1000
,  // measure 182
2002
3003
0100
0100
,  // measure 183
0022
0033
0001
0100
,  // measure 184
2020
3030
1000
0100
,  // measure 185
0220
0330
2002
3003
,  // measure 186
1000
0001
0001
1000
,  // measure 187
0200
0000
0000
0300
,  // measure 188
0020
0000
0000
0030
,  // measure 189
0002
0003
2000
3000
,  // measure 190
0002
0000
2000
3003
,  // measure 191
0200
0000
0000
0300
,  // measure 192
0020
0000
0000
0030
,  // measure 193
2000
3000
0002
0003
,  // measure 194
2000
0000
0002
3003
,  // measure 195
1001
0100
1001
0010
,  // measure 196
1001
1000
1001
0001
,  // measure 197
1001
0100
0001
0010
,  // measure 198
1001
0100
1000
0010
,  // measure 199
1001
1001
0100
0100
,  // measure 200
1001
1001
0010
0010
,  // measure 201
1001
1000
1000
1001
,  // measure 202
1001
0001
0001
1001
,  // measure 203
0110
0000
1000
1000
,  // measure 204
0002
1003
2000
3001
,  // measure 205
0110
0000
0001
0001
,  // measure 206
1000
0100
0110
0000
,  // measure 207
1001
0000
0010
0010
,  // measure 208
0002
0103
0100
0010
,  // measure 209
1000
0000
1001
0000
,  // measure 210
0001
0001
1000
1000
,  // measure 211
0220
0000
0000
0000
,  // measure 212
0000
0000
0000
0000
,  // measure 213
0000
0000
0000
0000
,  // measure 214
0000
0000
0330
0000
,  // measure 215
0001
0000
0000
0000
,  // measure 216
1000
0000
0000
0000
,  // measure 217
0100
0000
0000
0000
,  // measure 218
0010
0000
0000
0000
,  // measure 219
0002
0000
0000
0000
,  // measure 220
2003
0000
0000
0000
,  // measure 221
3200
0000
0000
0000
,  // measure 222
2300
0000
0000
0000
,  // measure 223
3020
0000
0000
0000
,  // measure 224
0032
0000
0000
0000
,  // measure 225
0023
0000
0000
0000
,  // measure 226
0230
0000
0000
0000
,  // measure 227
0310
0000
0000
0000
,  // measure 228
0000
0001
1000
0001
,  // measure 229
0000
0100
0010
0100
,  // measure 230
0000
1000
0001
1000
,  // measure 231
0000
0010
0100
0010
,  // measure 232
0000
1000
0100
0010
,  // measure 233
0000
0001
0100
1000
,  // measure 234
0000
0001
0100
0010
,  // measure 235
0000
1000
0100
0001
,  // measure 236
2002
0000
0000
3003
,  // measure 237
0220
0000
0000
0330
,  // measure 238
0001
0000
1000
0000
,  // measure 239
0002
0000
0203
0000
,  // measure 240
0320
0000
2030
0000
,  // measure 241
3001
0000
1000
0000
,  // measure 242
0001
0000
1000
0000
,  // measure 243
0010
0010
0100
0100
,  // measure 244
0010
0010
1000
1000
,  // measure 245
0100
0100
0001
0001
,  // measure 246
0100
0100
1000
1000
,  // measure 247
0010
0010
0001
0100
,  // measure 248
1000
1000
0010
0010
,  // measure 249
0001
0001
0010
0010
,  // measure 250
1000
1000
0100
0100
,  // measure 251
0001
0001
0100
1000
,  // measure 252
0010
0110
1001
0110
,  // measure 253
2000
3001
0100
0100
,  // measure 254
0020
1000
0130
0100
,  // measure 255
0002
1003
0100
0100
,  // measure 256
0020
0001
0130
0100
,  // measure 257
1000
0010
0010
1000
,  // measure 258
0001
0010
0010
0001
,  // measure 259
2000
0000
0002
3003
,  // measure 260
0100
0010
0100
0000
,  // measure 261
1000
0010
0100
0001
,  // measure 262
1010
0101
1010
0000
,  // measure 263
0001
0010
0100
1000
,  // measure 264
0011
1100
0011
0000
,  // measure 265
1001
0000
0100
1001
,  // measure 266
0010
0100
0010
0110
,  // measure 267
0002
0000
2000
3003
,  // measure 268
0100
0110
0010
0110
,  // measure 269
0200
0000
0000
0300
,  // measure 270
1000
0010
1000
0010
,  // measure 271
0100
0001
0100
0001
,  // measure 272
1000
0100
0010
0001
,  // measure 273
1000
0100
0001
0100
,  // measure 274
1000
0010
1000
0010
,  // measure 275
0001
0100
1000
0100
,  // measure 276
0001
0010
0001
0010
,  // measure 277
0002
0000
0000
0003
,  // measure 278
1000
0000
0000
0000
1000
0000
0000
1000
,  // measure 279
0000
0100
0100
0100
,  // measure 280
0010
0000
0000
0000
0001
0000
0000
0001
,  // measure 281
0000
0100
0100
0100
,  // measure 282
0010
1100
0010
1100
,  // measure 283
0010
0101
0010
0101
,  // measure 284
0010
1001
0010
1001
,  // measure 285
0100
0110
0100
0110
,  // measure 286
1000
1000
2000
0001
,  // measure 287
3001
0000
0100
0010
,  // measure 288
0002
0000
0203
0000
,  // measure 289
0320
0000
1030
1000
,  // measure 290
0001
0001
0002
1000
,  // measure 291
1003
0000
0100
0010
,  // measure 292
2000
0000
3200
0000
,  // measure 293
0320
0000
0031
0001
,  // measure 294
1000
0100
0020
0001
,  // measure 295
0031
0000
0100
1000
,  // measure 296
0002
0000
2003
0000
,  // measure 297
3200
0000
0310
0010
,  // measure 298
0001
0100
0020
1000
,  // measure 299
1030
0000
0100
0001
,  // measure 300
2000
0000
3002
0000
,  // measure 301
0203
0000
0000
0000
,  // measure 302
0000
0000
0300
0000
,  // measure 303
0110
2000
0000
3000
,  // measure 304
0000
0000
2000
0000
0000
3002
0000
0000
,  // measure 305
0000
0000
0023
0000
0000
2030
0000
0000
,  // measure 306
0000
3200
0000
0000
0000
0000
0000
0300
,  // measure 307
0000
0020
0000
0030
,  // measure 308
0000
0000
0020
0000
0000
0032
0000
0000
,  // measure 309
0000
0000
2003
0000
0000
3200
0000
0000
,  // measure 310
0000
2300
0000
0000
,  // measure 311
3000
0002
0000
0003
,  // measure 312
0000
0000
0002
0000
0000
2003
0000
0000
,  // measure 313
0000
0000
3020
0000
0000
0032
0000
0000
,  // measure 314
0000
0203
0000
0000
0000
0000
0000
0300
,  // measure 315
0000
0020
0000
0030
,  // measure 316
0000
0000
0020
0000
0000
2030
0000
0000
,  // measure 317
0000
0000
3002
0000
0000
0203
0000
0000
,  // measure 318
0000
0302
0000
0000
,  // measure 319
0003
2002
0000
0000
,  // measure 320
3003
0020
0000
0000
,  // measure 321
0030
0200
0000
0000
,  // measure 322
0300
2000
0000
3002
,  // measure 323
0000
0023
0000
0000
,  // measure 324
0030
0002
0000
0000
,  // measure 325
0003
2000
0000
0000
,  // measure 326
3000
0200
0000
0000
,  // measure 327
0300
0220
0000
0330
,  // measure 328
0001
1000
0000
0100
,  // measure 329
1000
0010
0000
1000
,  // measure 330
0001
0002
0000
0000
,  // measure 331
0003
0220
0000
0330
,  // measure 332
1000
0001
0000
0100
,  // measure 333
0001
0010
0000
0001
,  // measure 334
1000
2000
0000
0000
,  // measure 335
3000
2002
0000
3003
,  // measure 336
0010
0100
0000
1000
,  // measure 337
0001
1000
0000
0010
,  // measure 338
0100
0002
0000
0000
,  // measure 339
0003
2002
0000
3003
,  // measure 340
0010
0100
0000
0001
,  // measure 341
1000
0001
0000
0010
,  // measure 342
0100
2000
0000
0000
,  // measure 343
3000
0110
0001
1000
,  // measure 344
1001
0001
0100
1000
,  // measure 345
0010
0001
0100
0010
,  // measure 346
1000
0001
0010
1000
,  // measure 347
0100
0001
0010
0100
,  // measure 348
1000
1000
0100
0001
,  // measure 349
0010
1000
0100
0010
,  // measure 350
0001
1000
0010
0001
,  // measure 351
0100
1000
0010
0100
,  // measure 352
0001
0102
0000
0000
,  // measure 353
0000
2000
0000
3003
,  // measure 354
0020
0100
0000
0030
,  // measure 355
2000
0001
0000
3000
,  // measure 356
0000
2100
0000
0000
,  // measure 357
0000
0002
0000
3003
,  // measure 358
0020
0100
0000
0030
,  // measure 359
0000
1000
0100
0001
,  // measure 360
0100
2000
0000
3000
,  // measure 361
0010
0200
0000
0300
,  // measure 362
0001
0002
0000
1003
,  // measure 363
0100
0020
0000
0030
,  // measure 364
0000
0002
0000
0003
,  // measure 365
0010
0200
0000
0300
,  // measure 366
1000
2000
0000
3001
,  // measure 367
0100
0020
0000
1030
,  // measure 368
1000
0001
0100
1000
,  // measure 369
0100
0001
0010
1000
,  // measure 370
0010
0001
0100
1000
,  // measure 371
0100
0001
0010
1000
,  // measure 372
0010
0001
0001
0100
,  // measure 373
0100
0010
0010
1000
,  // measure 374
1000
0001
0100
0010
,  // measure 375
1000
0001
0010
0100
,  // measure 376
1000
0220
0000
0000
,  // measure 377
0330
1100
0101
1000
,  // measure 378
0001
0010
0100
0010
,  // measure 379
0100
0101
1100
0001
,  // measure 380
1000
0100
0010
0100
,  // measure 381
0010
0002
1000
0100
,  // measure 382
1000
0203
0010
1000
,  // measure 383
0010
2300
0001
0100
,  // measure 384
0001
3200
0010
0001
,  // measure 385
0310
0101
1100
0001
,  // measure 386
1000
0010
0100
0010
,  // measure 387
0100
1100
0101
1000
,  // measure 388
0001
0100
0010
0100
,  // measure 389
0010
2000
0001
0100
,  // measure 390
0001
3200
0010
0001
,  // measure 391
0010
0302
1000
0100
,  // measure 392
1000
0203
0010
1000
,  // measure 393
0310
2002
0000
0000
,  // measure 394
0003
0020
0030
0002
,  // measure 395
3003
2002
0000
0000
,  // measure 396
3000
0020
0030
2000
,  // measure 397
3003
0220
0000
0000
,  // measure 398
0300
2000
3000
0200
,  // measure 399
0330
0220
0000
0000
,  // measure 400
0030
0002
0003
0020
,  // measure 401
0330
1001
0100
0001
,  // measure 402
0001
1000
0100
1000
,  // measure 403
1000
0001
1000
0001
,  // measure 404
1001
1000
0001
1000
,  // measure 405
0110
1001
0100
1000
,  // measure 406
1000
0001
0100
0001
,  // measure 407
0001
1000
0001
1000
,  // measure 408
1001
0001
1000
0001
,  // measure 409
0110
1000
0100
0010
,  // measure 410
0001
0001
0100
0010
,  // measure 411
1000
1000
0010
0100
,  // measure 412
0001
0001
0010
0100
,  // measure 413
1000
0001
0100
0010
,  // measure 414
1000
0010
0100
0001
,  // measure 415
1000
1000
0100
0010
,  // measure 416
0001
0010
0100
1000
,  // measure 417
0010
1002
0203
0320
,  // measure 418
2030
3002
2003
3200
,  // measure 419
0320
0032
0203
2300
,  // measure 420
3200
0302
0023
0230
,  // measure 421
0320
0032
2003
3200
,  // measure 422
0320
0032
0203
0320
,  // measure 423
2030
3002
0203
0320
,  // measure 424
2030
3002
0023
0230
,  // measure 425
2300
0002
0000
0000
,  // measure 426
3003
0020
0000
0000
,  // measure 427
0000
0200
0000
0000
,  // measure 428
0330
1000
1000
0001
,  // measure 429
0001
0010
0100
0000
,  // measure 430
0100
0000
0010
0000
,  // measure 431
0100
0000
1000
0000
,  // measure 432
1000
1001
1001
0110
,  // measure 433
1001
0001
0100
0001
,  // measure 434
0100
1000
0100
1000
,  // measure 435
0100
0001
0100
1000
,  // measure 436
0100
0001
0010
1000
,  // measure 437
0100
0001
0010
0001
,  // measure 438
0010
1000
0010
1000
,  // measure 439
0010
0001
0010
1000
,  // measure 440
0010
0001
0100
1000
,  // measure 441
0010
1000
1000
1000
,  // measure 442
0000
0001
0001
0001
,  // measure 443
0000
0100
0100
0100
,  // measure 444
0000
0010
0010
0010
,  // measure 445
0000
1000
0100
1000
,  // measure 446
0000
0001
0100
0001
,  // measure 447
0000
1000
0010
1000
,  // measure 448
0000
0001
0010
0001
,  // measure 449
0000
2000
0000
0000
,  // measure 450
3000
0020
0000
0230
,  // measure 451
0300
0002
0000
0000
,  // measure 452
0003
0020
0000
0230
,  // measure 453
0300
2000
0000
0000
,  // measure 454
3000
0002
0000
0023
,  // measure 455
0030
0002
0000
0000
,  // measure 456
0003
2000
0000
3020
,  // measure 457
0030
1000
0100
0000
,  // measure 458
0100
1000
0100
0000
,  // measure 459
0100
0001
0100
0000
,  // measure 460
0100
0010
0100
0000
,  // measure 461
0100
0010
1001
0000
,  // measure 462
1001
0000
0110
0000
,  // measure 463
1001
0000
0100
0000
,  // measure 464
0100
0000
0010
2002
,  // measure 465
3003
1000
0001
0010
,  // measure 466
0001
1000
0001
0010
,  // measure 467
0001
1000
0100
0010
,  // measure 468
0100
1000
0100
0010
,  // measure 469
0100
2000
3010
0200
,  // measure 470
0301
0020
0031
0200
,  // measure 471
1300
0010
0100
0001
,  // measure 472
1000
2200
0000
3300
,  // measure 473
0000
0002
0013
0200
,  // measure 474
1300
0020
1030
0200
,  // measure 475
0301
0010
0100
1000
,  // measure 476
0001
0202
0000
0303
,  // measure 477
0010
1000
0100
1000
,  // measure 478
1000
0001
0010
0001
,  // measure 479
0001
0100
0010
1000
,  // measure 480
0001
1100
0000
0010
,  // measure 481
0010
0001
0100
1000
,  // measure 482
0000
1000
0100
0001
,  // measure 483
0000
0001
0100
1000
,  // measure 484
0010
0110
0000
1001
,  // measure 485
1001
0001
1010
0011
,  // measure 486
1000
2000
3000
0100
,  // measure 487
0200
0310
0011
1000
,  // measure 488
1100
0010
0100
0101
,  // measure 489
1001
0010
1000
0100
,  // measure 490
0001
0100
1000
0010
,  // measure 491
0010
0100
0000
0100
,  // measure 492
0000
0001
0000
0001
,  // measure 493
0000
1000
0011
1010
,  // measure 494
0001
0002
0003
0100
,  // measure 495
0200
0310
1010
0001
,  // measure 496
0101
0010
0100
1100
,  // measure 497
1001
0010
0001
0100
,  // measure 498
1000
0100
0001
0010
,  // measure 499
0010
0110
0000
0110
,  // measure 500
0000
1001
0100
0010
,  // measure 501
0001
1100
1000
1000
,  // measure 502
1000
0010
1000
1000
,  // measure 503
1000
0101
0001
0001
,  // measure 504
0001
0010
0001
0001
,  // measure 505
0001
0110
0010
0010
,  // measure 506
0010
0010
0010
0010
,  // measure 507
0110
1001
0001
0001
,  // measure 508
0001
0001
0001
0001
,  // measure 509
1001
0110
0100
0100
,  // measure 510
0100
0100
0100
0100
,  // measure 511
0110
1001
1000
1000
,  // measure 512
1000
1000
1000
1000
,  // measure 513
1001
0110
0000
0110
,  // measure 514
0000
0110
0000
0110
,  // measure 515
0000
1001
0000
0110
,  // measure 516
0000
2002
0000
0000
,  // measure 517
3003
0010
0010
1000
,  // measure 518
0001
0100
0100
0001
,  // measure 519
1000
0010
0010
1000
,  // measure 520
0001
0100
0100
0001
,  // measure 521
1000
0010
0010
0001
,  // measure 522
1000
0100
0100
1000
,  // measure 523
0001
0010
0010
0001
,  // measure 524
1000
0100
0100
1000
,  // measure 525
0001
0100
0100
0100
,  // measure 526
0100
0010
1000
1000
,  // measure 527
0001
1000
1000
1000
,  // measure 528
1000
0100
0010
0010
,  // measure 529
0001
0200
0000
0000
,  // measure 530
0300
0020
0000
0000
,  // measure 531
0030
1000
1000
0001
,  // measure 532
0001
0200
0320
2030
,  // measure 533
3001
2002
0000
0000
,  // measure 534
0000
0000
0000
3003
,  // measure 535
0001
0220
0000
0000
,  // measure 536
0000
0000
0000
0330
,  // measure 537
1000
2200
0000
0000
,  // measure 538
0000
0000
0000
3300
,  // measure 539
0010
0022
0000
0000
,  // measure 540
0000
0000
0000
0033
,  // measure 541
0001
1000
0000
1000
,  // measure 542
1000
0001
0000
0001
,  // measure 543
0010
0002
0000
0003
,  // measure 544
1000
0002
0000
0003
,  // measure 545
1000
0001
0000
0001
,  // measure 546
0001
1000
0000
1000
,  // measure 547
0010
2000
0000
3000
,  // measure 548
0001
2000
0000
3000
,  // measure 549
0001
0100
0000
0100
,  // measure 550
0000
0010
0000
2000
,  // measure 551
3001
2000
0000
3020
,  // measure 552
0000
1030
0001
0000
,  // measure 553
0001
0100
0000
0100
,  // measure 554
0000
0010
0000
0002
,  // measure 555
1003
0002
0000
0023
,  // measure 556
0000
0031
1000
0000
,  // measure 557
1000
0001
0001
0000
,  // measure 558
0100
0010
0010
1000
,  // measure 559
1001
1000
1000
0000
,  // measure 560
0100
0010
0010
0001
,  // measure 561
1001
0110
1001
0000
,  // measure 562
0110
1000
0001
1000
,  // measure 563
0010
0110
0110
0000
,  // measure 564
1001
0100
0001
0010
,  // measure 565
1000
1100
1000
0000
,  // measure 566
1000
0000
0001
0000
,  // measure 567
0101
0101
0001
0000
,  // measure 568
0001
0000
1000
0000
,  // measure 569
1100
0110
1001
0000
,  // measure 570
0010
0000
1001
0000
,  // measure 571
0010
0000
0110
0000
,  // measure 572
0001
0000
0110
0000
,  // measure 573
1000
0001
0001
0100
,  // measure 574
0100
1000
1000
0100
,  // measure 575
0100
0001
0001
0100
,  // measure 576
0100
1000
1000
0100
,  // measure 577
0100
0001
0001
0010
,  // measure 578
0010
0100
0100
1000
,  // measure 579
1000
0001
0001
0010
,  // measure 580
0010
0100
0100
1000
,  // measure 581
1000
2002
0000
0000
,  // measure 582
3003
1001
0100
0010
,  // measure 583
0100
1001
0100
0010
,  // measure 584
0100
1001
0001
1000
,  // measure 585
0001
1001
0001
1000
,  // measure 586
0001
0100
1010
1010
,  // measure 587
0101
0101
1010
1010
,  // measure 588
0101
0101
1010
1010
,  // measure 589
0101
1010
0100
2002
,  // measure 590
3003
1100
1000
0010
,  // measure 591
0001
0010
0010
1000
,  // measure 592
1000
0001
0100
0010
,  // measure 593
1000
0001
0010
0001
,  // measure 594
0011
0101
0001
0010
,  // measure 595
1000
0010
0010
0001
,  // measure 596
0001
1000
0100
0010
,  // measure 597
0001
1000
1000
1000
,  // measure 598
1000
0220
0000
0000
,  // measure 599
0000
0000
0000
0000
,  // measure 600
0000
0000
0000
0000
,  // measure 601
0000
0000
0000
0000
,  // measure 602
0330
0001
0000
0001
,  // measure 603
0000
0000
0000
0000
,  // measure 604
0000
1000
0000
1000
,  // measure 605
0000
0000
0000
0000
,  // measure 606
0010
0110
0000
1010
,  // measure 607
0000
1000
0001
0100
,  // measure 608
0000
0011
0000
0011
,  // measure 609
0000
1000
0001
0020
,  // measure 610
0030
1001
0000
0100
,  // measure 611
0000
0010
0100
1000
,  // measure 612
0000
0101
0000
0101
,  // measure 613
0000
0020
0000
0030
,  // measure 614
0000
0110
0000
0011
,  // measure 615
0000
0001
1000
0100
,  // measure 616
0000
1010
0000
1010
,  // measure 617
0000
0001
1000
0020
,  // measure 618
0030
1001
0000
0100
,  // measure 619
0000
0010
0100
0001
,  // measure 620
0000
1100
0000
1100
,  // measure 621
0000
0020
0000
0200
,  // measure 622
0330
0001
1000
0001
,  // measure 623
0100
0001
0010
0100
,  // measure 624
1000
0010
0100
0010
,  // measure 625
1000
0001
0100
0010
,  // measure 626
1000
1100
0010
1100
,  // measure 627
0010
1001
0100
1001
,  // measure 628
0100
0011
1000
0011
,  // measure 629
1000
0010
0100
0010
,  // measure 630
1000
0001
0001
0001
,  // measure 631
0001
0001
0001
0010
,  // measure 632
0100
1000
1000
1000
,  // measure 633
1000
0010
0010
0100
,  // measure 634
0100
0001
0010
0001
,  // measure 635
0010
0001
0010
1000
,  // measure 636
0001
0100
1000
0100
,  // measure 637
1000
0100
1000
0010
,  // measure 638
0001
1000
1000
1001
,  // measure 639
0000
0100
0100
0010
,  // measure 640
0100
0110
1001
0110
,  // measure 641
0000
0001
1000
0110
,  // measure 642
0000
0001
0001
1001
,  // measure 643
0000
0100
0100
0010
,  // measure 644
0100
0110
1001
0110
,  // measure 645
0000
1000
0001
0110
,  // measure 646
0000
0110
1000
0001
,  // measure 647
0100
0000
0100
0000
,  // measure 648
0100
0010
1000
1100
,  // measure 649
0011
0000
1001
0000
,  // measure 650
1001
0110
0001
1000
,  // measure 651
0100
0000
0100
0000
,  // measure 652
0100
0010
0001
0101
,  // measure 653
1010
0000
1001
0000
,  // measure 654
1001
0100
0100
0010
,  // measure 655
0010
0000
0001
0000
,  // measure 656
0001
0100
0100
0010
,  // measure 657
0010
0000
1000
0000
,  // measure 658
1000
0001
1000
0100
,  // measure 659
0010
0000
0010
0000
,  // measure 660
0010
0001
0100
1000
,  // measure 661
0010
0000
0010
0000
,  // measure 662
0010
0000
2000
0000
0000
3000
1000
0000
,  // measure 663
0000
0101
0000
0010
,  // measure 664
0000
1000
0000
0001
,  // measure 665
0000
0100
0000
0010
,  // measure 666
0000
0000
0002
0000
0000
0003
0001
0000
,  // measure 667
0000
1100
0000
0010
,  // measure 668
0000
0001
0000
1000
,  // measure 669
0000
0001
0100
1000
,  // measure 670
0010
0000
2002
0000
0000
3003
1001
0000
,  // measure 671
0000
0100
0000
1000
,  // measure 672
0010
0001
0000
1100
,  // measure 673
0000
0010
0010
0100
,  // measure 674
0001
0010
0000
1010
,  // measure 675
0000
0101
0000
1100
,  // measure 676
0000
0010
0000
0001
,  // measure 677
0000
0100
1000
0010
,  // measure 678
0001
1002
0000
0203
,  // measure 679
0000
0320
0000
2030
,  // measure 680
0000
3001
0000
0110
,  // measure 681
0000
1000
1000
0001
,  // measure 682
0100
0010
1100
0010
,  // measure 683
1100
0010
0101
0010
,  // measure 684
0101
1001
0110
1001
,  // measure 685
0110
0000
0000
0000
0001
0000
1000
0000
0000
0010
0000
0000
0220
0000
0000
0000
,  // measure 686
0000
0330
0001
0000
,  // measure 687
0001
0000
1000
0000
,  // measure 688
1000
0000
0010
0000
,  // measure 689
0101
0000
0011
0000
,  // measure 690
1100
0000
1001
0000
,  // measure 691
0100
0000
1001
0000
,  // measure 692
0100
0000
0010
0000
,  // measure 693
0010
0000
0001
0000
,  // measure 694
1000
0100
2000
0000
,  // measure 695
3010
0000
0002
0000
,  // measure 696
0013
0000
0100
0000
,  // measure 697
1000
0000
0010
0000
,  // measure 698
0001
0000
1002
0000
,  // measure 699
0103
0000
2001
0000
,  // measure 700
3100
0000
0010
0000
,  // measure 701
0001
0000
1000
0000
,  // measure 702
0100
0000
0010
0000
0200
0000
0000
0300
,  // measure 703
0100
1000
0001
0001
,  // measure 704
1001
0010
0200
0310
,  // measure 705
2000
0000
0000
3000
0001
0000
0010
0000
,  // measure 706
0020
0000
0030
0000
0200
0000
0000
0300
,  // measure 707
0100
1000
0001
0100
,  // measure 708
1000
0010
0101
1010
,  // measure 709
2002
0000
0000
3003
0100
0000
0010
0000
,  // measure 710
0110
1001
0220
0000
,  // measure 711
0330
0001
1000
1100
,  // measure 712
0101
0010
2002
0000
,  // measure 713
3003
0000
0001
0100
,  // measure 714
1000
0010
0200
0000
,  // measure 715
0000
0300
0010
0000
,  // measure 716
0010
0000
1001
0110
,  // measure 717
1001
0000
0000
0000
0110
0000
0000
0000
0001
0000
1000
0000
0000
0010
0000
0000
,  // measure 718
0220
0000
0330
0001
,  // measure 719
0000
0001
0000
1000
,  // measure 720
0000
1000
0000
0010
,  // measure 721
0000
0101
0000
0011
,  // measure 722
0000
1100
0000
1001
,  // measure 723
0000
0100
0000
1001
,  // measure 724
0000
0100
0000
0010
,  // measure 725
0000
0010
0000
0001
,  // measure 726
0000
1000
0100
1000
,  // measure 727
0000
1000
0000
0001
,  // measure 728
0000
0001
0000
0010
,  // measure 729
0000
1100
0000
1010
,  // measure 730
0000
0101
0000
1001
,  // measure 731
0000
0100
0000
1001
,  // measure 732
0000
0100
0000
0010
,  // measure 733
0000
0010
0000
1000
,  // measure 734
0000
0001
0100
0002
,  // measure 735
0000
1003
0000
2000
,  // measure 736
0000
3001
0000
1010
,  // measure 737
0000
0101
0000
0101
,  // measure 738
0000
0002
0000
0103
,  // measure 739
0000
2000
0000
3010
,  // measure 740
0000
0100
0000
0010
,  // measure 741
0000
1000
0000
2002
,  // measure 742
0000
3003
0000
2000
,  // measure 743
0000
3001
0000
0002
,  // measure 744
0000
1003
0000
0011
,  // measure 745
0000
1100
1000
0100
,  // measure 746
0000
2000
0000
3100
,  // measure 747
0000
0002
0000
0013
,  // measure 748
0000
0100
0000
0010
,  // measure 749
0000
1000
0000
1001
,  // measure 750
0000
0010
0000
2000
,  // measure 751
0000
0000
0000
3000
,  // measure 752
0000
0001
0000
0100
,  // measure 753
0000
0010
0000
1100
,  // measure 754
0000
0010
0000
0002
,  // measure 755
0000
0000
0000
0003
,  // measure 756
0000
0000
0000
1000
,  // measure 757
0000
0100
0000
0010
,  // measure 758
0000
0001
0000
2000
,  // measure 759
0001
0001
0001
0001
,  // measure 760
0001
0002
3003
0010
,  // measure 761
0100
0000
0100
0000
,  // measure 762
1000
0000
1000
0000
,  // measure 763
0010
0000
0010
0000
,  // measure 764
0001
0000
0001
0010
,  // measure 765
0100
1000
0100
1000
,  // measure 766
0100
1000
0100
0001
,  // measure 767
0010
0001
0010
0001
,  // measure 768
0010
0001
0010
1000
,  // measure 769
1000
0000
1001
0000
1000
0000
0001
0001
,  // measure 770
0000
0000
0100
0000
,  // measure 771
0100
0000
0010
0000
,  // measure 772
0010
0000
0110
0001
,  // measure 773
0001
0000
1001
0000
0001
0000
1000
1000
,  // measure 774
0000
0000
0100
0000
,  // measure 775
0100
0000
0010
0011
,  // measure 776
0101
1010
1100
1001
,  // measure 777
1000
0002
0000
0000
,  // measure 778
0000
0000
0003
0000
,  // measure 779
0000
0000
0000
0000
,  // measure 780
0000
0000
0000
1000
,  // measure 781
0000
1001
0001
2000
,  // measure 782
0000
0000
0000
0000
,  // measure 783
3000
0000
0000
0000
,  // measure 784
0000
0000
0000
0000
,  // measure 785
0000
0000
0000
0010
,  // measure 786
1001
0100
0000
0100
,  // measure 787
0000
0020
0030
0020
,  // measure 788
0030
0020
0030
0020
,  // measure 789
0000
0000
0030
1000
,  // measure 790
0110
0001
0000
0001
,  // measure 791
0000
2000
3000
2000
,  // measure 792
3000
2000
3000
2000
,  // measure 793
0000
0000
3000
0002
,  // measure 794
0000
0000
0000
0000
,  // measure 795
0000
0000
0000
0023
,  // measure 796
0000
0000
0000
0230
,  // measure 797
0000
0000
0000
2300
,  // measure 798
0000
0000
0000
0000
,  // measure 799
0000
0000
0000
3020
,  // measure 800
0000
0000
0000
0230
,  // measure 801
0000
0000
0000
0302
,  // measure 802
0000
0203
0000
0320
,  // measure 803
0000
2030
0000
3002
,  // measure 804
0000
0023
0000
2030
,  // measure 805
0000
3020
0000
0032
,  // measure 806
0000
2003
0000
3200
,  // measure 807
0000
0320
0000
0032
,  // measure 808
0000
2003
0000
3020
,  // measure 809
0000
0230
0000
0302
,  // measure 810
0203
0302
0023
0032
,  // measure 811
2003
3020
0230
0302
,  // measure 812
0023
0230
2300
3020
,  // measure 813
2030
3200
2300
3020
,  // measure 814
0230
0302
0023
0032
,  // measure 815
0203
0320
2030
3020
,  // measure 816
2030
3200
0320
0032
,  // measure 817
0203
0320
2030
3001
,  // measure 818
0001
0001
0001
1000
,  // measure 819
1000
0001
1000
0001
,  // measure 820
0010
0100
1000
1001
,  // measure 821
0100
1001
1001
0010
,  // measure 822
0100
0001
0010
1000
,  // measure 823
0100
0001
0010
1100
,  // measure 824
0100
0010
0011
0101
,  // measure 825
0100
0010
1010
1000
,  // measure 826
0001
1000
0001
0010
,  // measure 827
0100
0010
0100
1000
,  // measure 828
0010
0001
0010
1000
,  // measure 829
0001
0100
0010
1000
,  // measure 830
0100
1000
0100
0010
,  // measure 831
0001
0010
0001
0100
,  // measure 832
1000
0100
0001
1000
,  // measure 833
0100
0000
0001
0000
0100
0100
2000
0000
,  // measure 834
3010
0020
0130
0200
,  // measure 835
0301
0001
0001
0010
,  // measure 836
0110
0010
0110
0001
,  // measure 837
1001
0001
1001
0200
,  // measure 838
1300
2000
3010
0020
,  // measure 839
0130
0200
0301
0001
,  // measure 840
1000
0000
0001
0001
0001
0000
1000
0000
,  // measure 841
0001
0000
1000
1000
1000
0000
0110
0000
,  // measure 842
1001
0100
0010
0001
,  // measure 843
0001
0101
0101
0110
,  // measure 844
1001
1000
0001
1001
,  // measure 845
0110
0001
1000
1010
,  // measure 846
0101
0001
0001
0010
,  // measure 847
0100
1000
0001
0011
,  // measure 848
1100
1000
1000
0010
,  // measure 849
0100
0001
1000
0110
,  // measure 850
1001
0100
0010
1000
,  // measure 851
1000
1100
1100
0110
,  // measure 852
1001
0001
1000
1001
,  // measure 853
0110
1000
0001
0011
,  // measure 854
1100
1000
1000
0010
,  // measure 855
0100
0001
1000
1010
,  // measure 856
0101
0001
0001
0010
,  // measure 857
0100
1000
0001
1000
,  // measure 858
0000
1000
0000
0001
,  // measure 859
0000
1000
0000
0001
,  // measure 860
0000
0001
0000
1000
,  // measure 861
0000
0001
0000
0010
,  // measure 862
0000
0010
0000
0100
,  // measure 863
0000
0010
0000
0100
,  // measure 864
0000
0100
0000
0010
,  // measure 865
0000
0100
0000
1000
,  // measure 866
0010
0010
0000
0001
,  // measure 867
0100
0100
0000
1000
,  // measure 868
0100
0100
0000
0010
,  // measure 869
0001
0001
0000
0100
,  // measure 870
1000
0010
0000
0100
,  // measure 871
0001
0010
0000
0001
,  // measure 872
1000
0100
0000
1000
,  // measure 873
0001
0100
0000
0010
,  // measure 874
0010
0010
0010
0010
,  // measure 875
0010
0010
0010
1000
,  // measure 876
1000
0001
0001
0100
,  // measure 877
0100
0000
0100
0100
0100
0000
0000
0000
,  // measure 878
0000
0100
1001
0100
,  // measure 879
1001
0000
0100
0000
1001
0000
0000
0100
,  // measure 880
0100
0010
1001
0010
,  // measure 881
1001
0000
0010
0000
1001
0000
0000
0010
,  // measure 882
0010
0001
0101
1000
,  // measure 883
1100
0000
0001
0000
1000
0000
0000
1000
,  // measure 884
0001
1000
1010
0001
,  // measure 885
0011
0200
0000
0020
,  // measure 886
0330
0002
1000
1000
,  // measure 887
1000
2003
0100
0100
,  // measure 888
0100
3200
0010
0010
,  // measure 889
0310
0001
0001
1000
,  // measure 890
0001
2000
0001
0001
,  // measure 891
0001
3002
0100
0100
,  // measure 892
0100
0203
0010
0010
,  // measure 893
0310
1000
1000
0001
,  // measure 894
1000
0110
0000
0001
,  // measure 895
0000
2000
0000
3001
,  // measure 896
0000
0100
0000
0100
,  // measure 897
0000
0010
0000
1000
,  // measure 898
0000
0110
0000
1000
,  // measure 899
0000
0002
0000
1003
,  // measure 900
0000
0100
0000
0100
,  // measure 901
0000
0010
0000
1000
,  // measure 902
0100
0001
0001
0000
,  // measure 903
1000
1000
1000
0000
,  // measure 904
0100
0100
0100
0000
,  // measure 905
0010
0010
0010
0001
,  // measure 906
1000
0002
0000
0000
,  // measure 907
0003
2000
0000
0000
,  // measure 908
3000
0020
0000
0000
,  // measure 909
0030
0200
0000
0020
,  // measure 910
0000
0330
1000
0001
,  // measure 911
1000
0000
1000
0000
0000
1000
0000
0000
,  // measure 912
0100
0010
0001
0100
,  // measure 913
0001
0010
1000
0100
,  // measure 914
1000
0000
0010
0100
,  // measure 915
0001
0000
1000
0000
0000
0001
0000
0000
,  // measure 916
1000
0100
0010
0100
,  // measure 917
0000
0010
0000
0010
,  // measure 918
0000
0012
0000
0000
,  // measure 919
0000
2000
0000
0000
,  // measure 920
3000
0200
0000
0000
,  // measure 921
0303
0100
0010
0001
,  // measure 922
1000
0102
0000
0000
,  // measure 923
0000
0020
0000
0000
,  // measure 924
0030
2000
0000
0000
,  // measure 925
3003
0000
0000
0000
,  // measure 926
0000
1000
1000
0100
,  // measure 927
0010
0001
0001
0100
,  // measure 928
0010
1000
0100
0010
,  // measure 929
0001
1000
0100
0010
,  // measure 930
0010
0001
0000
0000
0001
0000
0100
0000
,  // measure 931
0010
1000
1000
0100
,  // measure 932
0010
0001
0100
0010
,  // measure 933
1000
0001
0100
0010
,  // measure 934
0010
1000
0000
0000
0010
0000
0100
0000
,  // measure 935
0001
0001
0010
0100
,  // measure 936
1000
0001
0100
0010
,  // measure 937
1000
1000
0100
1000
,  // measure 938
0100
1000
0000
0000
,  // measure 939
0000
0001
0100
0010
,  // measure 940
1000
0100
0010
0001
,  // measure 941
0100
0010
1000
0100
,  // measure 942
0010
0001
0000
0001
,  // measure 943
0000
1000
0000
0100
,  // measure 944
0100
0100
0010
0000
,  // measure 945
0101
0000
0010
0000
,  // measure 946
1001
0000
0010
0000
,  // measure 947
1100
0000
0010
0000
,  // measure 948
1001
0000
0100
0000
,  // measure 949
0010
0000
0100
0000
,  // measure 950
0010
0000
1000
0000
,  // measure 951
0001
0000
0100
0000
,  // measure 952
0010
0010
0010
0000
,  // measure 953
1100
0000
0010
0000
,  // measure 954
1001
0000
0010
0000
,  // measure 955
0101
0000
0010
0000
,  // measure 956
1001
0000
0100
0000
,  // measure 957
0010
0000
0100
0000
,  // measure 958
0010
0000
0001
0000
,  // measure 959
1000
0000
0100
0000
,  // measure 960
1000
1000
1000
0000
,  // measure 961
0101
0000
0001
0000
,  // measure 962
1100
0000
1000
0000
,  // measure 963
0011
0000
0001
0000
,  // measure 964
1010
0000
0001
0000
,  // measure 965
1000
0000
0001
0000
,  // measure 966
1000
0000
0010
0000
,  // measure 967
0100
0000
1000
0000
,  // measure 968
0001
0001
0001
0000
,  // measure 969
1100
0000
1000
0000
,  // measure 970
0101
0000
0001
0000
,  // measure 971
1010
0000
1000
0000
,  // measure 972
0011
0000
1000
0000
,  // measure 973
0001
0000
1000
0000
,  // measure 974
0001
0000
0010
0000
,  // measure 975
0100
0000
0001
0000
,  // measure 976
0010
0010
0010
0000
,  // measure 977
0001
0000
0100
0000
,  // measure 978
0001
0000
1000
0000
,  // measure 979
1100
0000
1001
0000
,  // measure 980
0110
0000
1000
0000
,  // measure 981
0001
0000
0100
0000
,  // measure 982
0010
0000
1000
0000
,  // measure 983
0100
0000
0001
0000
,  // measure 984
0020
0000
0030
0000
,  // measure 985
1000
0000
0100
0000
,  // measure 986
1000
0000
0001
0000
,  // measure 987
0101
0000
1001
0000
,  // measure 988
0110
0000
0001
0000
,  // measure 989
1000
0000
0100
0000
,  // measure 990
0010
0000
0001
0000
,  // measure 991
0100
0000
1000
0000
,  // measure 992
0020
0000
0030
0000
,  // measure 993
1000
0000
0001
0000
,  // measure 994
1000
0000
0100
0000
,  // measure 995
0011
0000
0101
0000
,  // measure 996
1010
0000
0001
0000
,  // measure 997
0100
0000
0010
0000
,  // measure 998
0100
0000
0001
0000
,  // measure 999
0010
0000
1000
0000
,  // measure 1000
0200
0000
0300
0000
,  // measure 1001
0001
0000
1000
0000
,  // measure 1002
0001
0000
0100
0000
,  // measure 1003
1010
0000
1100
0000
,  // measure 1004
0011
0000
1000
0000
,  // measure 1005
0100
0000
0010
0000
,  // measure 1006
0100
0000
1000
0000
,  // measure 1007
0010
0000
0001
0000
,  // measure 1008
0100
0000
0200
0000
,  // measure 1009
0000
0000
0000
0000
,  // measure 1010
0000
0010
0020
0000
,  // measure 1011
0000
0000
0000
0000
,  // measure 1012
0330
0000
1001
0000
,  // measure 1013
0000
0000
1000
0000
,  // measure 1014
0000
0000
0001
0000
,  // measure 1015
0000
0000
1000
0000
,  // measure 1016
0000
0000
0001
0000
,  // measure 1017
0010
0000
0100
0000
,  // measure 1018
1000
0000
0010
0000
,  // measure 1019
0100
0000
0001
0000
,  // measure 1020
0010
0000
1001
1000
,  // measure 1021
0001
0000
1000
0000
0010
0000
0000
0010
,  // measure 1022
0000
1000
0001
0100
,  // measure 1023
1000
0010
0001
1000
,  // measure 1024
0100
0001
0000
0010
,  // measure 1025
0100
0000
0010
0000
0001
0000
0000
1000
,  // measure 1026
0000
0100
0010
0100
,  // measure 1027
1000
0001
1000
0010
,  // measure 1028
0100
0001
0020
0000
,  // measure 1029
0000
0030
0002
0000
,  // measure 1030
0000
0003
1000
1000
,  // measure 1031
1000
1000
1000
1000
,  // measure 1032
0010
0100
0001
0010
,  // measure 1033
0001
0010
0100
1000
,  // measure 1034
0100
1000
0010
1000
,  // measure 1035
0010
1000
0001
0100
,  // measure 1036
0001
0100
0000
1010
,  // measure 1037
0000
1010
1001
0100
,  // measure 1038
2000
3000
0001
0100
,  // measure 1039
0002
0003
0010
0100
,  // measure 1040
0020
0030
0001
1000
,  // measure 1041
0200
0300
1000
0010
,  // measure 1042
0002
0003
0001
0100
,  // measure 1043
2000
3000
1000
0001
,  // measure 1044
0200
0300
0100
0001
,  // measure 1045
0020
0030
0010
0002
,  // measure 1046
0100
1000
0023
0130
,  // measure 1047
0001
1000
0200
0000
,  // measure 1048
0320
0000
0032
1000
,  // measure 1049
2000
3003
0010
2000
,  // measure 1050
0100
0001
3020
0130
,  // measure 1051
1000
0001
0200
0000
,  // measure 1052
0320
0000
2030
0001
,  // measure 1053
0002
3003
1001
0100
,  // measure 1054
1001
0100
0110
0110
,  // measure 1055
2002
3003
0100
0000
,  // measure 1056
0100
1000
0010
0000
,  // measure 1057
0010
1010
1001
0010
,  // measure 1058
0001
0100
1001
0010
,  // measure 1059
1000
0100
0110
0010
,  // measure 1060
0011
0001
0101
0100
,  // measure 1061
1100
0101
1001
0000
,  // measure 1062
0010
0000
1000
0000
,  // measure 1063
0001
0000
0010
0000
,  // measure 1064
0001
0000
0100
0000
,  // measure 1065
1000
0000
0101
0000
,  // measure 1066
1001
0000
1100
0000
,  // measure 1067
1001
0000
0011
0000
,  // measure 1068
1001
0000
1010
0000
,  // measure 1069
1001
1001
0010
0002
,  // measure 1070
1000
0010
2003
0010
,  // measure 1071
3100
0100
0010
0001
,  // measure 1072
2000
3001
0100
0010
,  // measure 1073
0200
0300
0010
2000
,  // measure 1074
0001
0010
3002
0010
,  // measure 1075
0103
0100
0010
1000
,  // measure 1076
0002
1003
0100
0010
,  // measure 1077
0200
0300
0010
1000
,  // measure 1078
1100
0101
0010
0001
,  // measure 1079
0101
1100
0010
0100
,  // measure 1080
0110
1001
0100
0010
,  // measure 1081
1001
0110
0001
1000
,  // measure 1082
1100
1100
1000
0001
,  // measure 1083
0101
0101
0110
0000
,  // measure 1084
1001
0000
0110
0000
,  // measure 1085
0220
0330
1000
0000
,  // measure 1086
0000
0000
1000
0000
,  // measure 1087
0000
0000
0100
0000
,  // measure 1088
0000
0000
0100
0000
,  // measure 1089
0000
0000
0001
0000
,  // measure 1090
0000
0000
0001
0000
,  // measure 1091
0000
0000
0010
0000
,  // measure 1092
0000
0000
0010
0000
,  // measure 1093
0010
0000
2002
3003
,  // measure 1094
1000
0001
0202
0303
,  // measure 1095
0010
0001
1000
0000
,  // measure 1096
1000
0100
1000
0000
,  // measure 1097
0010
0100
2002
3003
,  // measure 1098
0001
1000
2200
3300
,  // measure 1099
0010
1000
0001
0000
,  // measure 1100
0001
0100
0001
0000
,  // measure 1101
0010
0100
0022
0033
,  // measure 1102
0001
0000
2002
3003
,  // measure 1103
1000
0000
2020
3030
,  // measure 1104
0100
0000
0220
0330
,  // measure 1105
0001
0000
0202
0303
,  // measure 1106
1000
0000
2200
3300
,  // measure 1107
0010
0000
2002
3003
,  // measure 1108
0100
0010
1000
0100
,  // measure 1109
0001
0100
2000
3000
,  // measure 1110
0200
0000
0300
0010
0200
0000
0302
0000
,  // measure 1111
0000
0003
0100
1000
0020
0000
0030
0000
,  // measure 1112
2000
0000
3000
0001
0200
0000
0000
0000
,  // measure 1113
0000
0300
1000
0010
,  // measure 1114
0100
0010
1000
0010
,  // measure 1115
0100
0001
0010
0001
,  // measure 1116
1000
0001
0010
0001
,  // measure 1117
1000
0001
0010
0100
,  // measure 1118
1000
0001
0100
0010
,  // measure 1119
1000
0100
0010
0001
,  // measure 1120
1000
0010
0100
0001
,  // measure 1121
0010
0100
1000
0010
,  // measure 1122
0001
0010
1000
0010
,  // measure 1123
0001
0010
1000
0001
,  // measure 1124
0100
0001
1000
0001
,  // measure 1125
0100
0001
0010
0100
,  // measure 1126
0010
0001
0100
1000
,  // measure 1127
0100
0001
0010
1000
,  // measure 1128
0001
0100
1000
0010
,  // measure 1129
0001
1000
1001
0000
,  // measure 1130
0100
0000
0110
0000
,  // measure 1131
1000
0000
1001
0000
,  // measure 1132
0100
0000
0110
0000
,  // measure 1133
0001
0000
1000
0000
,  // measure 1134
1000
0000
1000
0100
,  // measure 1135
0010
0001
0001
0000
,  // measure 1136
0001
0000
0001
0100
,  // measure 1137
0010
1000
1000
0001
,  // measure 1138
1000
0001
1000
1000
,  // measure 1139
0001
0001
1000
0001
,  // measure 1140
1000
0001
1000
0100
,  // measure 1141
0001
1000
0010
0010
,  // measure 1142
0100
0001
0001
0000
0010
0000
0010
0000
,  // measure 1143
0100
1000
1000
0000
0010
0000
0100
0000
,  // measure 1144
0010
0010
1001
0100
,  // measure 1145
0010
0100
1001
1001
,  // measure 1146
0100
1001
0010
0010
,  // measure 1147
1001
0010
1100
1100
,  // measure 1148
0001
0101
1000
1000
,  // measure 1149
1100
0001
0010
0000
,  // measure 1150
1001
0000
0010
0000
,  // measure 1151
1001
0000
0010
0000
,  // measure 1152
1001
0000
0010
1001
,  // measure 1153
0010
1001
0010
0001
,  // measure 1154
1000
0001
0100
0001
,  // measure 1155
0001
0001
0010
1000
,  // measure 1156
0001
1000
0200
1000
,  // measure 1157
0010
0301
0100
1000
,  // measure 1158
0001
1000
0100
1000
,  // measure 1159
1000
1000
0010
0001
,  // measure 1160
1000
0001
0200
0001
,  // measure 1161
0010
1300
1001
0001
,  // measure 1162
0010
0001
1000
0100
,  // measure 1163
1000
0001
0001
0100
,  // measure 1164
0010
1000
0002
0010
,  // measure 1165
1000
0103
1010
0000
,  // measure 1166
1100
0000
0011
0001
,  // measure 1167
0100
0100
0010
1000
,  // measure 1168
0001
1000
0100
0010
,  // measure 1169
0001
0000
0001
0001
0002
0000
1000
0000
,  // measure 1170
0000
1000
0103
0200
,  // measure 1171
0310
0020
1030
1000
,  // measure 1172
0001
0100
0002
0003
,  // measure 1173
1000
0100
0020
0000
,  // measure 1174
0030
0001
2000
0000
,  // measure 1175
3000
0000
0001
0000
0100
0000
0000
0010
,  // measure 1176
0010
0000
0000
1000
1000
0000
0000
0001
,  // measure 1177
0001
1000
2002
0000
,  // measure 1178
3003
0010
1001
0000
,  // measure 1179
1100
0000
0001
0001
,  // measure 1180
0001
0100
1010
0000
,  // measure 1181
0101
0000
1010
1010
,  // measure 1182
0001
1000
0100
0010
,  // measure 1183
0100
0000
0010
0001
,  // measure 1184
0010
0000
0002
0000
,  // measure 1185
2003
0000
3020
0000
,  // measure 1186
0000
0000
0030
0000
,  // measure 1187
0000
0000
0001
0000
,  // measure 1188
0001
0000
0000
0001
0000
0000
0000
0000
,  // measure 1189
0000
0000
0000
0000
,  // measure 1190
0000
0000
0000
0000
,  // measure 1191
0000
0000
1000
0000
,  // measure 1192
1000
0000
0000
1000
0000
0000
0000
0000
,  // measure 1193
0000
0000
0000
0000
,  // measure 1194
0000
0000
0000
0000
,  // measure 1195
0000
0000
0100
0000
,  // measure 1196
0100
0000
0000
0100
0000
0000
0000
0000
,  // measure 1197
0000
0000
0000
0000
,  // measure 1198
0000
0000
0000
0000
,  // measure 1199
0000
0000
0010
0000
,  // measure 1200
0010
0000
0000
0010
0000
0000
0000
0000
,  // measure 1201
0000
0000
0000
0000
,  // measure 1202
0000
0000
0000
0000
,  // measure 1203
0000
0000
1001
0000
,  // measure 1204
1010
0000
1010
0000
,  // measure 1205
0011
0000
1001
0000
,  // measure 1206
0011
0000
1100
0000
,  // measure 1207
1100
0000
1001
0000
,  // measure 1208
0011
0000
0011
0000
,  // measure 1209
1010
0000
0101
0000
,  // measure 1210
1001
0000
0110
0000
,  // measure 1211
0110
0000
0000
1000
0001
0000
0000
0000
,  // measure 1212
0100
0000
0001
0000
,  // measure 1213
0010
0000
0000
0001
1000
0000
0000
0000
,  // measure 1214
0100
0000
1000
0000
,  // measure 1215
0010
0000
0000
0100
0001
0000
0000
0000
,  // measure 1216
0001
0000
1000
0000
,  // measure 1217
0100
0000
0010
0000
,  // measure 1218
0001
0000
0000
0100
1000
0000
0000
0000
,  // measure 1219
1000
0000
0010
0001
,  // measure 1220
0100
1000
0010
0001
,  // measure 1221
0100
1000
0001
0010
,  // measure 1222
1000
0100
0001
0010
,  // measure 1223
1000
0100
0011
0000
,  // measure 1224
0011
0000
0011
0000
,  // measure 1225
0011
0000
1001
0110
,  // measure 1226
1001
0110
1001
0110
,  // measure 1227
1001
0110
2002
0000
,  // measure 1228
0000
3003
0010
1000
,  // measure 1229
0100
0001
0202
0000
,  // measure 1230
0000
0303
1000
0100
,  // measure 1231
0001
0010
0100
1000
,  // measure 1232
0001
1000
0001
1000
,  // measure 1233
0001
0010
0001
1000
,  // measure 1234
0010
1000
0001
0100
,  // measure 1235
0001
0100
0001
1000
,  // measure 1236
0001
0010
0001
0010
,  // measure 1237
0001
1000
0010
0100
,  // measure 1238
0010
1000
0001
0010
,  // measure 1239
0100
1000
0001
0110
,  // measure 1240
0001
1100
0001
0110
,  // measure 1241
0001
1100
0001
0110
,  // measure 1242
0001
1100
0001
0110
,  // measure 1243
0001
1100
0001
0010
,  // measure 1244
0001
0100
0001
0010
,  // measure 1245
0001
0100
0001
0010
,  // measure 1246
0001
0100
1001
0000
,  // measure 1247
0110
0000
1000
0100
,  // measure 1248
0001
0100
1000
1000
,  // measure 1249
0001
0001
1000
0010
,  // measure 1250
0100
0010
1000
1000
,  // measure 1251
0001
0001
0100
0010
,  // measure 1252
0100
0010
1000
0001
,  // measure 1253
1000
0001
1000
0001
,  // measure 1254
1000
0001
1001
0000
,  // measure 1255
0100
0000
0000
0010
0020
0000
0000
0000
,  // measure 1256
0000
0030
0001
1000
,  // measure 1257
0100
1000
0020
0000
,  // measure 1258
0000
0030
1000
0001
,  // measure 1259
0100
0001
2000
0000
,  // measure 1260
0100
3000
0002
0000
,  // measure 1261
0100
0003
2000
0000
,  // measure 1262
0010
3000
0002
0000
,  // measure 1263
0010
0003
0200
0000
,  // measure 1264
1000
0300
0020
0000
,  // measure 1265
0001
0030
2002
3003
,  // measure 1266
0220
0330
2002
3003
,  // measure 1267
0220
0330
0001
0000
,  // measure 1268
1000
0000
0000
0000
0001
0001
0001
0000
,  // measure 1269
1000
1000
1000
0000
0020
0000
0000
0000
,  // measure 1270
0030
1000
0100
0000
,  // measure 1271
0100
0000
0100
0000
,  // measure 1272
0100
0010
0001
0000
,  // measure 1273
0000
0001
1000
0000
,  // measure 1274
1000
0010
0100
0000
,  // measure 1275
0001
0000
0010
0000
,  // measure 1276
1000
0000
0001
1000
,  // measure 1277
0100
0010
0001
0100
,  // measure 1278
0001
0001
1000
0100
,  // measure 1279
1000
1000
0010
0100
,  // measure 1280
0010
0010
1000
0001
,  // measure 1281
1000
0001
0010
0100
,  // measure 1282
1000
0001
0010
0100
,  // measure 1283
1000
0001
0100
0010
,  // measure 1284
1000
0001
0220
0330
,  // measure 1285
1000
0001
2002
3003
,  // measure 1286
0010
0001
0100
0000
,  // measure 1287
0100
0000
0010
1000
,  // measure 1288
0001
0100
0202
0303
,  // measure 1289
0001
1000
2200
3300
,  // measure 1290
0010
0100
0010
0000
,  // measure 1291
0010
0000
0100
0001
,  // measure 1292
0010
1000
1001
0000
,  // measure 1293
1000
0000
0100
0000
,  // measure 1294
1000
0000
0001
0100
,  // measure 1295
0001
0000
0010
0000
,  // measure 1296
0100
0000
0110
0000
,  // measure 1297
0001
0000
0101
0000
,  // measure 1298
1000
0000
1100
0000
,  // measure 1299
1100
0000
0010
0001
,  // measure 1300
1000
0100
0020
0000
,  // measure 1301
0030
0001
0002
0003
,  // measure 1302
1000
0000
0100
0100
2000
0000
0000
0000
,  // measure 1303
3000
0010
0200
0300
,  // measure 1304
0001
0010
0020
0000
,  // measure 1305
0030
1000
2000
3000
,  // measure 1306
0001
0000
0100
0100
0002
0000
0000
0000
,  // measure 1307
0023
0000
2030
3000
,  // measure 1308
0001
0100
0020
0000
,  // measure 1309
0030
1000
2000
3000
,  // measure 1310
0001
0000
0100
0100
0002
0000
0000
0000
,  // measure 1311
0003
0010
0200
0300
,  // measure 1312
1000
0010
0020
0000
,  // measure 1313
0030
0001
0002
0003
,  // measure 1314
1000
0000
0100
0100
2000
0000
0000
0000
,  // measure 1315
3020
0000
0032
0003
,  // measure 1316
0100
1000
0020
0000
,  // measure 1317
0000
0030
2000
0000
,  // measure 1318
3000
0001
2002
0000
,  // measure 1319
0000
3003
0100
0100
,  // measure 1320
0010
0010
0001
0100
,  // measure 1321
0000
0001
0000
0010
0000
0000
0001
0000
,  // measure 1322
0000
1000
0000
1000
0000
0000
1000
0000
,  // measure 1323
0000
0100
0000
0010
0000
0000
0001
0000
,  // measure 1324
0100
1000
0010
0100
,  // measure 1325
0000
0010
0000
1000
0000
0000
0001
0000
,  // measure 1326
0000
0100
0000
0100
0000
0000
0100
0000
,  // measure 1327
0000
0010
0000
1000
0000
0000
0100
0000
,  // measure 1328
0001
1000
0002
0000
,  // measure 1329
0000
0000
0000
0000
,  // measure 1330
0000
0003
2000
0000
,  // measure 1331
0000
0000
0000
0000
,  // measure 1332
0000
3000
0020
0000
,  // measure 1333
0000
0030
0200
0000
,  // measure 1334
0000
0300
0020
0030
,  // measure 1335
2000
3000
0002
0103
,  // measure 1336
2000
3100
2002
0000
,  // measure 1337
0000
0000
3003
0000
;

//---------------dance-single - ----------------
#NOTES:
     dance-single:
     :
     Medium:
     9:
     0.538,0.727,0.297,0.327,0.211,6926.000,655.000,721.000,0.000,0.000:  // measure 1
0000
0000
0000
0000
,  // measure 2
0000
0000
0000
0000
,  // measure 3
0000
0000
0000
0000
,  // measure 4
0010
0000
0000
0010
0000
0000
1000
0000
0001
0000
0000
0001
0000
0000
1000
0000
,  // measure 5
0100
0000
0000
0100
0000
0000
0010
0000
0001
0000
0000
0100
0000
0000
0010
0000
,  // measure 6
1000
0000
0000
1000
0000
0000
2000
0000
0000
0000
0000
0000
0000
0000
0000
0000
,  // measure 7
3000
0000
0001
1000
,  // measure 8
2002
0000
0000
0000
,  // measure 9
3003
0000
0000
0000
0010
0100
0001
0220
,  // measure 10
0000
0000
0000
0330
,  // measure 11
1000
0000
1000
0001
0000
0001
1000
0000
,  // measure 12
0001
0000
0000
0001
0000
1000
0100
0010
,  // measure 13
0001
0000
0000
0001
0000
0100
0010
0001
,  // measure 14
1000
0000
0000
1000
0000
0010
0100
0001
,  // measure 15
1000
0000
0000
1000
0000
0010
0100
0010
,  // measure 16
1002
0000
0000
1000
0000
0000
1003
0000
0000
0000
0010
0000
0100
0000
0001
0000
,  // measure 17
2001
0000
0000
0001
0000
0000
3001
0000
0000
0000
0010
0000
0100
0000
1000
0000
,  // measure 18
0102
0000
0000
0010
0000
0000
1003
0000
0000
0000
0001
0000
0100
0000
0010
0000
,  // measure 19
2100
0000
0000
0010
0000
0000
3001
0000
0000
0000
1000
0000
0100
0000
0010
0000
,  // measure 20
0001
0000
0000
0000
0000
0000
0000
0000
0000
0000
1000
0001
0000
0000
1000
0000
,  // measure 21
1001
0000
0100
0000
0010
0000
1001
0100
,  // measure 22
0010
0000
0100
0000
1000
0000
0001
0100
,  // measure 23
0101
0000
1100
0000
0101
0000
0010
1000
,  // measure 24
1100
0000
0101
0000
1100
0000
0010
0100
,  // measure 25
0020
0000
1030
0000
0001
0000
0100
0010
,  // measure 26
2000
0000
3001
0000
0100
0000
0010
1000
,  // measure 27
0200
0000
0310
0000
0001
1000
0100
0010
,  // measure 28
0002
0000
1003
0000
0100
0010
0100
0010
,  // measure 29
2002
0000
0000
3003
,  // measure 30
0220
0000
0000
0330
,  // measure 31
0001
0000
0001
0000
0001
0100
1000
0100
,  // measure 32
0001
0000
0001
0000
1000
0100
1000
0000
,  // measure 33
0010
0100
0001
0000
1000
0000
1000
0000
,  // measure 34
0010
0100
1000
0000
0001
0000
0001
0000
,  // measure 35
1000
0000
1000
0000
1000
0100
0001
0100
,  // measure 36
1000
0000
1000
0000
0001
0100
0010
1000
,  // measure 37
0000
0010
0100
0000
0001
1000
0100
0000
,  // measure 38
1100
1000
0001
0101
,  // measure 39
0010
1000
0010
0000
1000
0100
1000
0000
,  // measure 40
0001
0100
0001
0000
0010
0001
0010
0000
,  // measure 41
0100
1000
0001
0000
0100
0001
1000
0000
,  // measure 42
0010
0100
0001
0000
0100
0010
1000
0000
,  // measure 43
0001
0001
0100
0000
1000
1000
0100
0000
,  // measure 44
0001
0001
0010
0000
1000
1000
0010
0000
,  // measure 45
0100
0001
0010
1000
,  // measure 46
0200
0000
0000
0300
,  // measure 47
2000
0100
0001
3010
,  // measure 48
1100
0000
0001
0100
0001
0000
1100
0000
,  // measure 49
0002
0100
1000
0013
,  // measure 50
0101
0000
1000
0100
1000
0000
1001
0000
,  // measure 51
0020
1000
0100
1030
,  // measure 52
1001
0100
0100
0100
,  // measure 53
2000
0000
0000
0000
,  // measure 54
0002
0000
0000
3003
,  // measure 55
0020
0000
0000
0000
,  // measure 56
0200
0000
0000
0000
,  // measure 57
0330
0000
0000
0000
,  // measure 58
0001
0000
0000
0001
0000
0000
1000
0000
0100
0000
0000
1000
0000
0000
0001
0000
,  // measure 59
0100
0000
0000
0010
0000
0000
0100
0000
0010
0000
0000
1000
0000
0000
0001
0000
,  // measure 60
1001
0000
0000
0110
0000
0000
1002
0000
0000
0000
0000
0000
1003
0000
0000
0000
,  // measure 61
0100
1000
0010
0100
0001
0000
1100
0000
,  // measure 62
0012
1000
0100
0103
,  // measure 63
2010
0001
0100
3100
,  // measure 64
0010
0100
0001
0000
0001
1000
0100
0000
,  // measure 65
0010
0001
0001
0001
0000
1000
0100
0010
,  // measure 66
1001
0000
0000
1000
0000
0000
0001
0000
0100
0000
0000
0001
0000
0000
1000
0000
,  // measure 67
0100
0000
0000
0010
0000
0000
0100
0000
0010
0000
0000
0001
0000
0000
1000
0000
,  // measure 68
1001
0000
0000
0110
0000
0000
2001
0000
0000
0000
0000
0000
3001
0000
0000
0000
,  // measure 69
0100
0001
0010
0100
1000
0000
0101
0000
,  // measure 70
2010
0001
0100
3100
,  // measure 71
0012
1000
0100
0103
,  // measure 72
0010
0100
1000
0000
1000
0001
0100
0000
,  // measure 73
0010
1000
1000
1000
0000
0001
0100
0010
,  // measure 74
1001
0000
0100
0000
0010
0000
1001
0100
,  // measure 75
0010
0000
0100
0000
1000
0000
0001
0100
,  // measure 76
0101
0000
1100
0000
0101
0000
0010
1000
,  // measure 77
1100
0000
0101
0000
1100
0000
0010
0100
,  // measure 78
0020
0000
1030
0000
0001
0000
0100
0010
,  // measure 79
2000
0000
3001
0000
0100
0000
0010
1000
,  // measure 80
0200
0000
0310
0000
0001
1000
0100
0010
,  // measure 81
0002
0000
1003
0000
0100
0010
0100
0010
,  // measure 82
0001
0000
0001
1000
0100
0010
0001
1000
,  // measure 83
1000
0001
1000
0001
,  // measure 84
0020
0000
0031
1000
,  // measure 85
0002
0000
0000
0103
,  // measure 86
0010
1000
0001
1000
,  // measure 87
0200
0000
0000
0310
,  // measure 88
0002
0000
0000
0003
,  // measure 89
1001
0000
0100
1000
2000
0000
3000
0000
,  // measure 90
0010
0000
0100
0001
0002
0000
0010
0000
,  // measure 91
0000
1003
2002
0000
,  // measure 92
3003
0000
1000
0001
,  // measure 93
2000
0000
0000
3100
,  // measure 94
0010
0001
1000
0001
,  // measure 95
0200
0000
0000
0000
,  // measure 96
0300
0000
0000
0010
,  // measure 97
2002
3003
2002
3003
,  // measure 98
0220
0330
0001
1000
,  // measure 99
0220
0000
0000
0000
,  // measure 100
0330
0000
0000
0000
,  // measure 101
0001
0000
1000
0000
0001
1000
0001
1000
,  // measure 102
0001
0100
1000
0000
0001
0100
1000
0000
,  // measure 103
1000
0100
0001
0000
1000
0100
0001
0000
,  // measure 104
0100
0010
1000
0000
0100
0010
0001
0000
,  // measure 105
0100
0010
1000
0000
0100
0010
0001
0000
,  // measure 106
0020
0000
0030
0010
0002
0000
0003
0001
,  // measure 107
2000
0000
3000
1000
0002
0000
0003
0000
,  // measure 108
0100
0000
0010
0000
1000
0000
1000
0010
,  // measure 109
0100
0000
0001
0000
0100
0000
0001
1000
,  // measure 110
0002
0000
0003
0001
0200
0000
0300
0100
,  // measure 111
0020
0000
0030
0010
2000
0000
3000
0000
,  // measure 112
0001
0000
1000
0000
0100
0000
0100
0010
,  // measure 113
0001
0100
0010
1001
,  // measure 114
0020
0000
0030
0010
2000
0000
3000
1000
,  // measure 115
0002
0000
0003
0001
2000
0000
3000
0000
,  // measure 116
0100
0000
0010
0000
0001
0000
0001
0010
,  // measure 117
0100
0000
1000
0000
0100
0000
1000
0001
,  // measure 118
2000
0000
3000
1000
0200
0000
0300
0100
,  // measure 119
0020
0000
0030
0010
0002
0000
0003
0000
,  // measure 120
1000
0000
0001
0000
0100
0000
0100
0010
,  // measure 121
1000
0100
0010
1001
,  // measure 122
1000
0100
1000
0000
0020
0000
0230
0000
,  // measure 123
0301
1000
0001
0000
0010
0100
1000
0002
,  // measure 124
1000
1003
1001
0110
,  // measure 125
0100
0000
0001
1000
0001
0000
0010
1000
,  // measure 126
0001
0100
0001
0000
0020
0000
0230
0000
,  // measure 127
1300
0001
1000
0000
0010
0100
0001
2000
,  // measure 128
0001
3001
0001
0100
0000
0000
0110
0000
,  // measure 129
0100
0000
1000
0001
1000
0000
0010
0001
,  // measure 130
1000
0000
1000
0001
1000
0000
1000
0001
,  // measure 131
1000
0001
0000
0100
0010
0000
1000
0000
,  // measure 132
0001
0001
1000
0100
,  // measure 133
0010
0000
0001
0100
0001
0000
1000
0010
,  // measure 134
0001
0000
0001
1000
0001
0000
0001
1000
,  // measure 135
0001
1000
0000
0100
0010
0000
0001
0000
,  // measure 136
1000
1000
0001
0100
,  // measure 137
0010
0000
1000
0100
0010
0000
0001
0000
,  // measure 138
1100
0000
1001
1001
,  // measure 139
0010
0100
0001
0100
1000
0010
0100
0000
,  // measure 140
0010
0100
0001
0100
1000
0010
0100
0000
,  // measure 141
0010
1000
0100
0001
0010
0001
1000
0000
,  // measure 142
0010
1000
0100
0001
0010
0001
1000
0000
,  // measure 143
0001
0100
0001
0100
0020
0000
0030
0000
,  // measure 144
1000
0001
1000
0001
0200
0000
0320
0000
,  // measure 145
1030
0001
0002
1000
,  // measure 146
1003
0100
1001
0110
,  // measure 147
1000
0100
0001
0010
1000
0100
0010
0000
,  // measure 148
0001
0100
1000
0010
0001
0100
0010
0000
,  // measure 149
1000
0100
0001
0010
1000
0001
0100
0000
,  // measure 150
0001
0100
1000
0010
0001
1000
0100
0000
,  // measure 151
0011
0000
1001
0000
,  // measure 152
1100
0000
1001
0000
,  // measure 153
0202
0000
0000
0000
,  // measure 154
0303
0000
0010
0010
,  // measure 155
1000
0000
1000
0000
,  // measure 156
0001
0000
0100
1000
0001
0000
0001
0000
,  // measure 157
0001
0000
0001
0000
,  // measure 158
1000
0000
0100
0001
1000
0000
1000
0000
,  // measure 159
1000
0000
0001
0000
,  // measure 160
1000
0001
1000
0001
,  // measure 161
0110
0000
1001
0000
,  // measure 162
0110
0001
1000
0110
,  // measure 163
0001
0000
0000
0000
1000
0000
0000
0001
0000
0000
0001
0000
0100
0000
0010
0000
,  // measure 164
1000
0000
0000
0000
0001
0000
0000
1000
0000
0000
1000
0000
0100
0000
0010
0000
,  // measure 165
0001
0000
0000
0000
0100
0000
0000
0010
0000
0000
0010
0000
1000
0000
0001
0000
,  // measure 166
1000
0000
0000
0000
0100
0000
0000
0010
0000
0000
0010
0000
0001
0000
1000
0000
,  // measure 167
0001
0000
0101
0000
0010
1000
0001
0000
,  // measure 168
0010
0000
1100
0010
0000
0001
1000
0001
,  // measure 169
0100
0000
0010
0000
1000
0100
0010
0001
,  // measure 170
0100
0000
0000
0000
0010
0000
0000
0010
0000
0000
1000
0000
0001
0000
0100
0000
,  // measure 171
0010
1100
1100
1100
,  // measure 172
0010
1001
1001
1001
,  // measure 173
0100
0000
1000
0001
1000
0001
1000
0000
,  // measure 174
0010
0000
0100
0001
1000
0001
1000
0000
,  // measure 175
0010
0101
0101
0101
,  // measure 176
0010
1001
1001
1001
,  // measure 177
0100
0000
0010
0000
0001
1000
0100
0010
,  // measure 178
0001
0000
0000
0001
0000
0000
0001
0000
0000
0001
0000
0000
0001
0000
1000
0000
,  // measure 179
0100
0000
1000
0000
0010
0000
1000
1000
,  // measure 180
0001
0000
0001
1000
0001
0000
0110
0000
,  // measure 181
1001
0000
0100
0000
0100
0000
1000
0010
,  // measure 182
0100
0000
0100
0010
0001
0000
1000
0001
,  // measure 183
1000
0000
0010
0000
0001
0000
0100
1000
,  // measure 184
0010
0000
0010
0001
0100
0000
0001
1000
,  // measure 185
0001
0000
0100
0001
0100
0000
0010
0000
,  // measure 186
1000
0000
1000
0001
0000
0001
1000
0000
,  // measure 187
0110
0000
1001
0000
,  // measure 188
0001
0000
0000
0000
0010
0000
0000
0002
0000
0000
0000
0000
1003
0000
0000
0000
,  // measure 189
0200
0000
0000
0000
1300
0000
0000
1000
0000
1000
0000
0000
0001
0000
0000
0000
,  // measure 190
0020
0000
0000
0000
1030
0000
0000
0001
0000
0001
0000
0000
1000
0000
0000
0000
,  // measure 191
1001
0000
0000
0000
0100
0000
0000
1000
0000
0010
0000
0000
1000
0000
0000
0001
,  // measure 192
0000
0100
0000
0000
0001
0000
0000
1000
0000
0100
0000
0000
1000
0000
0000
0010
,  // measure 193
0000
0100
0000
0000
0100
0000
0000
0001
0000
1000
0000
0000
1000
0000
0000
0000
,  // measure 194
1001
0000
0000
0100
0100
1000
0001
0000
,  // measure 195
0001
1000
0100
1000
0001
0000
0100
0000
,  // measure 196
0010
1000
0001
1000
0010
0000
1000
0000
,  // measure 197
0001
0100
0010
0100
0001
0000
0010
0000
,  // measure 198
0100
1000
0010
1000
0100
0000
0010
0000
,  // measure 199
0001
0100
0010
1000
0001
1000
0001
0000
,  // measure 200
1000
0100
0010
0001
1000
0001
1000
0000
,  // measure 201
0010
0100
0001
0000
0010
0100
0001
0000
,  // measure 202
0010
1000
0100
0000
0010
1000
0100
0010
,  // measure 203
1001
0000
0001
0000
0010
0000
0001
0001
,  // measure 204
1000
0000
1000
0001
1000
0000
0110
0000
,  // measure 205
1001
0000
0100
0000
0100
0000
0001
0010
,  // measure 206
0100
0000
0100
0010
1000
0000
0001
1000
,  // measure 207
0001
0000
0010
0000
1000
0000
0100
0001
,  // measure 208
0010
0000
0010
1000
0100
0000
1000
0001
,  // measure 209
1000
0000
0100
1000
0100
0000
0010
0000
,  // measure 210
0001
0000
0001
1000
0000
1000
0001
0000
,  // measure 211
0220
0000
0000
0000
,  // measure 212
0000
0000
0000
0000
,  // measure 213
0000
0000
0000
0000
,  // measure 214
0000
0000
0330
0000
,  // measure 215
0002
0003
2000
3000
,  // measure 216
0002
0003
2000
3000
,  // measure 217
0010
0100
0002
2003
,  // measure 218
3001
0000
0000
0110
,  // measure 219
0002
0000
2000
0003
,  // measure 220
0200
3000
0020
0300
,  // measure 221
0002
0030
0200
0003
,  // measure 222
0002
0300
0010
1003
,  // measure 223
2000
0000
0002
3000
,  // measure 224
0200
0003
0020
0300
,  // measure 225
2000
0030
0200
3000
,  // measure 226
2000
0300
0010
3001
,  // measure 227
1001
0000
0000
0000
,  // measure 228
0000
0000
0010
0001
0100
0000
0001
1000
,  // measure 229
0000
0000
0010
1000
0100
0000
0100
0000
,  // measure 230
0000
0000
0010
1000
0100
0000
1000
0001
,  // measure 231
0000
0000
0010
0001
0100
0000
0100
0000
,  // measure 232
0000
0000
0001
0010
1000
0000
0001
0100
,  // measure 233
0000
0000
0010
1000
0001
0000
0001
0000
,  // measure 234
0000
0000
1000
0010
0001
0000
1000
0100
,  // measure 235
0000
0000
0010
0001
1000
0000
1000
0000
,  // measure 236
2001
0000
3000
0000
,  // measure 237
1002
0000
0000
0000
0003
0000
0000
0100
,  // measure 238
0010
0000
0000
1000
0001
0000
0000
0010
,  // measure 239
0020
0000
0000
0130
0200
0000
0000
1300
,  // measure 240
2000
0000
0000
3001
0002
0000
0003
0000
,  // measure 241
1000
0000
0001
0000
,  // measure 242
0100
0000
0010
0000
,  // measure 243
2000
3002
0203
0320
,  // measure 244
1030
0001
0000
1000
0000
0010
0100
0010
,  // measure 245
0000
1000
0000
0001
1000
0100
0010
0001
,  // measure 246
0000
0100
0000
0010
0000
1000
0100
1000
,  // measure 247
0000
0001
0000
0100
0010
1000
0001
0000
,  // measure 248
1000
1000
1000
0000
0100
0100
0100
0000
,  // measure 249
0010
0010
0010
0000
0001
0001
0001
0000
,  // measure 250
1000
0100
0010
0001
1000
0100
0010
0001
,  // measure 251
1000
0010
0100
0000
1000
0010
0100
0001
,  // measure 252
1100
0110
0011
1001
,  // measure 253
0010
0001
0010
0001
1000
0000
0100
1000
,  // measure 254
0001
0000
0001
0010
0010
0000
0010
0001
,  // measure 255
1000
0000
1000
0010
0100
0001
1000
0010
,  // measure 256
1000
0001
0100
0010
1000
0000
1001
0000
,  // measure 257
0100
0010
0010
0000
0010
0010
0100
0000
,  // measure 258
1000
1000
0001
0001
1000
0001
1000
0000
,  // measure 259
0020
1000
0230
0001
,  // measure 260
0310
0000
1000
0001
1000
0000
1001
0000
,  // measure 261
0010
0001
0100
1000
,  // measure 262
0001
1001
1001
0000
,  // measure 263
0010
1000
0100
0001
,  // measure 264
0010
0110
0110
0000
,  // measure 265
0100
1000
0001
0000
0100
1000
0001
0000
,  // measure 266
0100
0001
1000
0000
0100
0001
1000
0000
,  // measure 267
0010
0000
0010
1000
0001
0000
0001
0001
,  // measure 268
1000
0000
1000
1000
0100
0000
0100
0100
,  // measure 269
0010
0001
1000
0001
,  // measure 270
1000
0000
0010
0000
0100
0001
1000
0010
,  // measure 271
1000
0001
0100
0010
,  // measure 272
1000
1000
0001
0001
0010
0100
1000
0001
,  // measure 273
1000
0000
0100
0010
0001
0000
0010
0100
,  // measure 274
1000
0000
0010
0100
0001
0000
0100
0010
,  // measure 275
1000
0000
0001
0100
0001
0000
1000
0010
,  // measure 276
1000
0000
0001
0100
0010
1000
0001
0100
,  // measure 277
0020
1000
1000
0030
,  // measure 278
1000
0100
0010
0000
0001
0100
0010
0000
,  // measure 279
1000
0010
0100
0001
1000
0100
0010
0000
,  // measure 280
0001
0100
0010
0000
1000
0100
0010
0000
,  // measure 281
0001
0010
0100
1000
0001
0100
0010
0000
,  // measure 282
1000
0000
0100
0000
0001
0100
0000
0000
1000
0000
0100
0000
0010
0001
0000
0000
,  // measure 283
0001
0000
0100
0000
1000
0100
0000
0000
0001
0000
0100
0000
0010
1000
0000
0000
,  // measure 284
0001
0000
1000
0000
0100
0010
0000
0000
0001
0000
1000
0000
0100
0010
0000
0000
,  // measure 285
0001
0000
1000
0000
0100
0010
0000
0010
0100
0000
1000
0000
0001
0000
0000
0000
,  // measure 286
2000
0000
3002
0000
0023
0000
0130
2000
,  // measure 287
0000
0000
0010
0000
3002
0000
0013
0200
,  // measure 288
0000
0000
1000
0000
2300
0000
3001
0200
,  // measure 289
0000
0001
0010
0301
,  // measure 290
2000
0000
3002
0000
0023
0000
0130
2000
,  // measure 291
0000
0000
0010
0000
3002
0000
0013
0200
,  // measure 292
0000
0000
1000
0000
2300
0000
3001
0200
,  // measure 293
0000
0001
0010
0301
,  // measure 294
1000
0100
0010
0000
1000
0100
0001
0000
,  // measure 295
1000
0100
0010
0001
0200
0000
0320
0000
,  // measure 296
2030
0000
0010
0000
3002
0000
0013
0200
,  // measure 297
0000
1000
0010
1300
,  // measure 298
0001
0100
0010
0000
0001
0100
1000
0000
,  // measure 299
0001
0100
0010
1000
0200
0000
0320
0000
,  // measure 300
0032
0000
0010
0000
2003
0000
3010
0200
,  // measure 301
0000
0000
0000
0000
,  // measure 302
0000
0000
0300
0000
,  // measure 303
1001
2000
0000
0000
,  // measure 304
0001
0000
3002
0000
0000
0023
0000
0000
,  // measure 305
0230
0000
0320
0000
0000
0032
0000
0000
,  // measure 306
1000
2000
0000
0000
0000
0000
0000
0000
,  // measure 307
3003
0020
0000
0000
,  // measure 308
1000
0000
2030
0000
0000
3002
0000
0000
,  // measure 309
2003
0000
3020
0000
0000
0230
0000
0000
,  // measure 310
0302
2000
0000
0000
,  // measure 311
3003
2000
0000
0000
,  // measure 312
0001
0000
3002
0000
0000
0023
0000
0000
,  // measure 313
0230
0000
0320
0000
0000
0032
0000
0000
,  // measure 314
1000
2000
0000
0000
0000
0000
0000
0000
,  // measure 315
3003
0020
0000
0000
,  // measure 316
1000
0000
2030
0000
0000
3002
0000
0000
,  // measure 317
2003
0000
3020
0000
0000
0230
0000
0000
,  // measure 318
0302
2000
0000
0000
,  // measure 319
3003
0200
0000
0000
,  // measure 320
1000
0000
2300
0000
0000
3020
0000
0000
,  // measure 321
0000
0000
2030
0000
0000
0001
0000
0000
,  // measure 322
0000
0002
0000
0000
,  // measure 323
3003
0200
0000
0000
,  // measure 324
0001
0000
0302
0000
0000
0023
0000
0000
,  // measure 325
0000
0000
0032
0000
0000
1000
0000
0000
,  // measure 326
0000
2000
0000
0000
,  // measure 327
3003
0210
0000
0000
,  // measure 328
0302
0000
2003
0000
0000
3200
0000
0000
,  // measure 329
0302
0000
0203
0000
0000
2300
0000
0000
,  // measure 330
3002
2000
0000
0000
0000
0000
0000
0000
,  // measure 331
3003
1002
0000
0000
,  // measure 332
0010
0000
0203
0000
0000
0302
0000
0000
,  // measure 333
2003
0000
3200
0000
0000
2300
0000
0000
,  // measure 334
3020
0200
0000
0330
,  // measure 335
0000
0001
2001
0000
0000
0000
0000
0000
,  // measure 336
3002
0000
0203
0000
0000
0320
0000
0000
,  // measure 337
0032
0000
0023
0000
0000
2030
0000
0000
,  // measure 338
3002
2000
0000
0000
0000
0000
0000
0000
,  // measure 339
3003
0201
0000
0000
,  // measure 340
0010
0000
0320
0000
0000
2030
0000
0000
,  // measure 341
3200
0000
0302
0000
0000
0203
0000
0000
,  // measure 342
2300
0002
0000
0000
,  // measure 343
3003
1100
0011
1001
,  // measure 344
0110
0000
0001
1000
0100
0000
0010
0001
,  // measure 345
0100
0000
0001
1000
0010
0000
0100
0001
,  // measure 346
1000
0000
0100
0010
0001
0000
0100
0010
,  // measure 347
1000
0000
0001
0010
1000
0001
0100
1000
,  // measure 348
0010
0000
0000
0000
1000
0100
0000
0100
1000
0000
1000
0001
0000
0001
0100
0000
,  // measure 349
0001
0000
0000
0000
1000
0010
0000
0010
1000
0000
1000
0001
0000
0001
0010
0000
,  // measure 350
0001
0000
0000
0000
1000
0100
0000
0100
0010
0000
0010
0001
0000
0001
0100
0000
,  // measure 351
0010
0000
1000
0000
0010
0000
1000
0100
,  // measure 352
0001
0010
1001
0100
0010
0200
0000
0000
,  // measure 353
0000
0310
1000
0100
0010
0002
0000
0000
,  // measure 354
0000
0013
1000
0001
0100
0010
0000
1000
,  // measure 355
0010
0000
0001
0000
1010
0000
0000
0000
0000
0101
0000
0000
0000
0000
0000
0000
,  // measure 356
0011
0000
0001
0100
0010
2000
0000
3000
,  // measure 357
0000
1000
0100
1000
0001
0020
0000
0030
,  // measure 358
0000
0010
0001
0100
1000
0010
0000
0100
,  // measure 359
1000
0001
0100
0000
1010
0000
0110
0000
,  // measure 360
0011
0000
1000
0100
1000
0200
0000
0000
,  // measure 361
0000
0310
0001
0100
0001
0200
0000
0000
,  // measure 362
0000
0310
1000
0001
1000
0001
0000
1000
,  // measure 363
0100
0010
0001
0100
0010
0220
0000
0000
,  // measure 364
0330
0000
1000
0010
1000
0020
0000
0000
,  // measure 365
0000
0130
0001
0010
0001
0020
0000
0000
,  // measure 366
0000
0130
1000
0001
0100
1000
0000
0100
,  // measure 367
0010
1000
0210
0000
0000
0000
0310
0000
,  // measure 368
0001
1000
2002
0000
0000
0000
0000
0000
,  // measure 369
3003
0220
0000
0000
,  // measure 370
0330
2200
0000
0000
,  // measure 371
3300
0202
0000
0000
,  // measure 372
0303
2002
0000
0000
,  // measure 373
3003
0220
0000
0000
,  // measure 374
0330
1020
0100
1000
,  // measure 375
0130
0021
0100
0001
,  // measure 376
0130
2002
3003
0100
,  // measure 377
0010
0000
0000
0000
0001
1000
0000
0000
0100
0000
0000
0000
1000
0001
0000
0000
,  // measure 378
0100
0000
0000
0000
0001
1000
0000
0000
0010
0000
0000
0000
1000
0001
0000
0000
,  // measure 379
0010
0000
0000
0000
0001
0100
0000
0000
0010
0000
0000
0000
1000
0100
0000
0000
,  // measure 380
0010
0000
0000
0000
0001
0010
0000
0000
0100
0000
0000
0000
1000
0010
0000
0000
,  // measure 381
0100
0000
0001
0010
0200
0000
0000
0000
2300
0000
0000
0000
3002
0000
0000
0000
,  // measure 382
0100
2003
0010
0000
0100
0000
0010
0000
,  // measure 383
3100
0000
1000
0010
0200
0000
0000
0000
0001
0000
0000
0000
1000
0000
0000
0000
,  // measure 384
0301
0010
0200
0000
1000
0000
0010
0000
,  // measure 385
1300
0000
0001
1000
0020
0000
0000
0000
0230
0000
0000
0000
0302
0000
0000
0000
,  // measure 386
0010
2003
0100
0000
0001
0000
0100
0000
,  // measure 387
3001
0000
1000
0100
0020
0000
0000
0000
0001
0000
0000
0000
1000
0000
0000
0000
,  // measure 388
0031
0100
0020
0000
1000
0000
0100
0000
,  // measure 389
1030
0000
0001
0010
0200
0000
0000
0000
2300
0000
0000
0000
3002
0000
0000
0000
,  // measure 390
0100
2003
0010
0000
0100
0000
0010
0000
,  // measure 391
3100
0000
1000
0010
0200
0000
0000
0000
0001
0000
0000
0000
1000
0000
0000
0000
,  // measure 392
0301
0010
0200
0000
1000
0000
0010
0000
,  // measure 393
1300
1000
1000
0001
0100
0001
0000
1000
,  // measure 394
0100
1000
0000
0010
0100
0010
0000
1000
,  // measure 395
0100
1000
0000
0001
0010
0001
0000
0100
,  // measure 396
0001
0100
0000
0010
0100
0010
0000
1000
,  // measure 397
0010
1000
0000
0100
1000
0001
0000
0100
,  // measure 398
0010
0001
0000
0010
1000
0001
0000
0100
,  // measure 399
0001
0010
0000
0100
0010
1000
0000
0010
,  // measure 400
0001
1000
0000
0010
0100
1000
0000
0100
,  // measure 401
0001
1000
1000
0000
0110
0000
1000
0000
,  // measure 402
1100
0001
0101
0010
,  // measure 403
0011
1000
1010
0100
,  // measure 404
0110
0001
1100
0010
,  // measure 405
0101
0010
1001
0010
,  // measure 406
1010
0100
0101
0010
,  // measure 407
0011
1000
1100
0010
,  // measure 408
0101
0010
1100
0100
,  // measure 409
1010
0000
2001
0000
0000
0001
0000
0001
,  // measure 410
0000
0010
0000
0100
0000
0010
0000
0001
,  // measure 411
0000
3001
1002
0000
0000
1000
0000
1000
,  // measure 412
0000
0010
0000
0100
0000
0010
0000
1000
,  // measure 413
0000
1003
1001
0000
0100
0000
0100
0000
,  // measure 414
0100
0000
0010
0000
0010
0000
0010
1000
,  // measure 415
0001
0100
0010
0000
1000
0000
0100
0000
,  // measure 416
0001
0000
0010
1000
0010
1000
0001
0100
,  // measure 417
0001
0100
0002
0000
0000
0013
0020
0000
,  // measure 418
0000
0130
0200
0000
0000
1300
2000
0000
,  // measure 419
3010
0100
0002
0000
0000
0013
0020
0000
,  // measure 420
0000
0130
0200
0000
0000
1300
1000
0010
,  // measure 421
0100
0001
0020
0000
0000
0130
0200
0000
,  // measure 422
0000
1300
2000
0000
0000
3001
0002
0000
,  // measure 423
0013
0100
0020
0000
0000
0130
2000
0000
,  // measure 424
0000
3010
0200
0000
0000
0301
0020
0000
,  // measure 425
0000
0130
2000
0000
0010
0000
0010
0000
,  // measure 426
3010
0200
0001
0001
,  // measure 427
0301
1000
0020
0000
0100
0000
0100
0000
,  // measure 428
0130
0000
0001
1000
0100
0010
0001
0100
,  // measure 429
1000
0000
0100
0011
0000
0101
0000
1100
,  // measure 430
0000
1010
0100
0011
0000
0101
0000
1100
,  // measure 431
0000
1010
0100
1001
0000
0110
0000
1001
,  // measure 432
0000
0110
0001
0010
0001
0010
0100
1000
,  // measure 433
0100
1000
0010
0100
0001
0010
0100
1000
,  // measure 434
0001
0010
0200
1000
0000
2300
0000
0001
,  // measure 435
0000
3001
0010
0100
1000
0010
0100
0001
,  // measure 436
1000
0010
0200
0001
0000
0302
0000
1000
,  // measure 437
0000
1003
0100
0010
0001
0100
0010
1000
,  // measure 438
0001
0100
0020
1000
0000
2030
0000
0001
,  // measure 439
0000
3001
0100
0010
1000
0100
0010
0001
,  // measure 440
1000
0100
0020
0001
0000
0032
0000
1000
,  // measure 441
0000
1003
0110
0000
0101
0000
1000
0010
,  // measure 442
1000
0000
0001
0100
0001
0010
0100
1000
,  // measure 443
0101
0000
0110
0000
1100
0000
0001
0010
,  // measure 444
0001
0000
1000
0100
1000
0010
0100
0001
,  // measure 445
1100
0000
0010
0100
0001
0010
0100
1000
,  // measure 446
0001
0010
0200
1000
0000
2300
0000
0001
,  // measure 447
0000
3001
0010
0100
1000
0010
0100
0001
,  // measure 448
1000
0010
0200
0001
0000
0302
0000
1000
,  // measure 449
0000
1003
0100
0010
0001
1100
0000
0010
,  // measure 450
1000
0101
0000
1001
0100
0010
0000
1001
,  // measure 451
0010
0100
0000
0100
0010
1001
0000
0010
,  // measure 452
0100
1001
0000
1000
0001
0110
0000
0001
,  // measure 453
1000
0110
0000
1000
0100
1100
0000
0001
,  // measure 454
0100
0101
0000
0001
0010
0011
0000
1000
,  // measure 455
0010
1010
0000
0100
0010
0110
0000
0001
,  // measure 456
1000
1001
0000
1001
1001
1001
0000
0110
,  // measure 457
0110
0110
0000
0001
1000
0001
0000
0100
,  // measure 458
0010
0100
0000
0001
0010
0100
1000
0100
,  // measure 459
1000
0100
1000
0010
0100
0001
0100
0001
,  // measure 460
0100
0001
0100
0010
1000
0001
1000
0001
,  // measure 461
1000
0000
0001
0000
1000
0010
0000
0100
0001
0000
0020
0000
0000
0000
0100
0000
,  // measure 462
0000
0001
0000
0100
0000
0031
0000
1000
,  // measure 463
0010
0000
0100
0000
0001
0010
0000
0100
1000
0000
0020
0000
0000
0000
0100
0000
,  // measure 464
0000
1000
0000
0100
0000
1030
0000
0001
,  // measure 465
0010
0000
0100
0000
0001
0000
1000
0000
0010
0100
0000
0001
0000
0000
1000
0000
,  // measure 466
0010
0100
0000
0001
0000
0000
1000
0000
0100
0010
0000
0001
0000
0000
1000
0000
,  // measure 467
0100
0010
0000
0001
0000
0000
1000
0000
0100
0000
0000
0010
0000
0000
1000
0000
,  // measure 468
0100
0000
0000
0001
0000
0000
1000
0000
0010
0000
0000
0001
0000
0000
0100
0000
,  // measure 469
0010
0000
2000
0000
3200
0320
0000
0031
,  // measure 470
0000
0000
2000
0000
3020
0230
0000
0301
,  // measure 471
0000
0000
0000
0000
0020
0000
0000
0032
0000
0000
0023
0000
0230
0000
0000
0302
,  // measure 472
0000
0203
2300
0000
0001
0000
3100
0000
,  // measure 473
1001
0000
0002
0000
0203
0320
0000
1030
,  // measure 474
0000
0000
0002
0000
0023
0230
0000
1300
,  // measure 475
0000
0000
0000
0000
0020
0000
0000
2030
0000
0000
3020
0000
0230
0000
0000
2300
,  // measure 476
0000
3200
0301
0000
1001
0000
0200
0000
,  // measure 477
0320
0000
0032
0000
2003
3200
0000
0310
,  // measure 478
0000
0000
0002
0000
2003
3200
0000
0310
,  // measure 479
0000
0000
0002
0000
0203
0320
0000
2030
,  // measure 480
3010
0200
0000
0000
0301
0000
0200
0000
,  // measure 481
0320
0000
2030
0000
3002
0203
0000
0310
,  // measure 482
0000
0000
2000
0000
3002
0203
0000
0310
,  // measure 483
0000
0000
0000
0000
2000
0000
0000
3200
0000
0000
0320
0000
0230
0000
0000
0302
,  // measure 484
0000
0203
1300
0000
1001
0000
0110
0000
,  // measure 485
1100
0000
0002
0000
0000
0023
0000
0000
,  // measure 486
0230
2300
3001
0110
,  // measure 487
0101
0000
2000
0000
0000
3020
0000
0000
,  // measure 488
0230
0000
0301
0100
0000
1000
0100
0000
,  // measure 489
0010
0000
0002
0000
0023
0230
0000
0320
,  // measure 490
0000
2030
0000
3020
0000
0000
0031
0000
,  // measure 491
0100
1000
0001
0100
1000
0000
1000
0100
,  // measure 492
0001
0000
0001
0100
1000
0000
0110
0000
,  // measure 493
0101
0000
2000
0000
0000
3020
0000
0000
,  // measure 494
0230
0302
1003
0110
,  // measure 495
1100
0000
0002
0000
0000
0023
0000
0000
,  // measure 496
0230
0000
1300
0100
0000
0001
0100
0000
,  // measure 497
0010
0000
2000
0000
3020
0230
0000
0320
,  // measure 498
0000
0032
0000
0023
0000
0000
1030
0000
,  // measure 499
0100
0000
0001
0000
0000
0000
1000
0000
0100
0000
0000
0010
0000
0000
1000
0000
,  // measure 500
0100
0000
0000
0001
0000
0000
1000
0000
0010
0000
0000
0001
0000
0000
0100
0000
,  // measure 501
0010
0000
0000
0000
1000
0010
0000
0100
0001
0000
0020
0000
0000
0000
0100
0000
,  // measure 502
0000
0001
0000
0100
0000
0031
0000
1000
,  // measure 503
0010
0000
0100
0000
0001
0010
0000
0100
1000
0000
0020
0000
0000
0000
0100
0000
,  // measure 504
0000
1000
0000
0100
0000
1030
0000
0001
,  // measure 505
0010
0100
2000
0000
3020
0000
0032
0000
,  // measure 506
0203
0000
0000
0000
2300
0000
0000
0000
3020
0000
0000
0000
0130
0000
0001
1000
,  // measure 507
0000
0001
1000
0000
0002
0000
0000
0000
0203
0000
0000
0000
2300
0000
0000
0000
,  // measure 508
3020
0000
0000
0000
0032
0000
0000
0000
0203
0000
0000
0000
0310
0000
1000
0001
,  // measure 509
0000
1000
0001
0000
2000
0000
0000
0000
3020
0000
0000
0000
0032
0000
0000
0000
,  // measure 510
0203
0000
0000
0000
2300
0000
0000
0000
3020
0000
0000
0000
0130
0000
0001
1000
,  // measure 511
0000
0001
1000
0000
0002
0000
0000
0000
0203
0000
0000
0000
2300
0000
0000
0000
,  // measure 512
3020
0000
0000
0000
0032
0000
0000
0000
0203
0000
0000
0000
0310
0000
1000
0001
,  // measure 513
0000
1000
0001
0000
0110
0000
0000
1000
0000
0000
0001
0000
0010
0000
0000
0100
,  // measure 514
0000
0000
0001
0000
0010
0000
0000
1000
0000
0000
0001
0000
0010
0000
0000
0110
,  // measure 515
0000
0000
1000
0000
0010
0000
0000
0110
0000
0000
0001
0000
1000
0000
0000
1000
,  // measure 516
0000
0000
0001
0000
2002
0000
0000
0000
0000
0000
0000
0000
3003
0000
1000
0001
,  // measure 517
0000
0001
1000
0000
0001
0000
0010
0000
0001
0000
0010
0000
0100
0000
1000
0000
,  // measure 518
0100
1000
0010
0100
0001
1000
0010
0100
,  // measure 519
0001
1000
0010
1000
0010
1000
0001
0100
,  // measure 520
0001
0100
0010
1000
0100
0010
0001
1000
,  // measure 521
0100
0000
0010
0000
0001
0000
0100
0010
0000
0100
0010
0000
1000
0000
0100
0010
,  // measure 522
0000
0100
0010
0000
0001
0000
1000
0010
0000
0100
0001
0000
1000
0000
0001
0010
,  // measure 523
0000
0100
1000
0000
1001
0000
0000
0000
0101
0000
0000
0000
1001
0000
0000
0000
,  // measure 524
0011
0000
0000
0000
1001
0000
0000
0000
0110
0000
0000
0000
1001
0000
0001
1000
,  // measure 525
0000
1000
0001
0000
0100
0000
0000
0000
0100
0000
0000
0000
0100
0000
0000
0000
,  // measure 526
0100
0000
0000
0000
0010
0000
0000
0000
0010
0000
0000
0000
0010
0000
0010
1000
,  // measure 527
0000
1000
0100
0000
0100
0000
0000
0000
0100
0000
0000
0000
0100
0000
0000
0000
,  // measure 528
0100
0000
0000
0000
0010
0000
0000
0000
0010
0000
0000
0000
0010
0000
0010
0001
,  // measure 529
0000
0001
0100
0000
0100
0000
0000
0000
0100
0000
0000
0000
0100
0000
0000
0000
,  // measure 530
0100
0000
0000
0000
0010
0000
0000
0000
0010
0000
0000
0000
0010
0000
0010
1000
,  // measure 531
0000
1000
0001
0000
0001
0000
0000
0000
0001
0000
0000
0000
0001
0000
0000
0000
,  // measure 532
0001
0000
0000
0000
1000
0000
0000
0000
1000
0000
0000
0000
1000
0000
1000
0100
,  // measure 533
0000
0100
0010
0000
0220
0000
0000
0000
0000
0000
0000
0000
0000
0000
0000
0000
,  // measure 534
0000
0000
0000
0000
0000
0000
0330
0000
0000
0000
0000
0000
0000
0000
0001
1000
,  // measure 535
0000
1000
0001
0000
1001
0000
0000
0000
0000
0000
0000
0000
0000
0000
0000
0000
,  // measure 536
0000
0000
0000
0000
0000
0000
0000
0000
0000
0000
0000
0000
0000
0000
0100
0010
,  // measure 537
0000
0010
0100
0000
0110
0000
0000
0000
0000
0000
0000
0000
0000
0000
0000
0000
,  // measure 538
0000
0000
0000
0000
0000
0000
0000
0000
0000
0000
0000
0000
0000
0000
1000
0001
,  // measure 539
0000
0001
1000
0000
1001
0000
0000
0000
0000
0000
0000
0000
0000
0000
0000
0000
,  // measure 540
0000
0000
0000
0000
0000
0000
0000
0000
0000
0000
0000
0000
0000
0000
0001
0010
,  // measure 541
0000
0100
1000
0000
0010
0000
0000
0010
0000
0000
0020
0000
0000
0000
0130
0000
,  // measure 542
0001
0000
1000
0000
1000
0000
0000
0100
0000
0000
0200
0000
0000
0000
0310
0000
,  // measure 543
0000
0000
0002
0000
0003
0110
1001
0010
,  // measure 544
0000
1001
0000
0000
0000
0001
0000
1000
,  // measure 545
0000
0000
1000
0000
0100
0000
0000
0100
0000
0000
0200
0000
0000
0000
0310
0000
,  // measure 546
0001
0000
0001
0000
1000
0000
0000
1000
0000
0000
0002
0000
0000
0000
0003
0000
,  // measure 547
0110
1001
0010
0000
1001
0000
0000
0010
,  // measure 548
0000
0000
0010
0000
0000
0000
0000
0000
0000
0000
0001
0000
0000
0000
1000
0010
,  // measure 549
0000
0100
0001
0000
0010
0000
0000
0010
0000
0000
0020
0000
0000
0000
0130
0000
,  // measure 550
1000
0000
0001
0000
0001
0000
0000
0100
0000
0000
0200
0000
0000
0000
0310
0000
,  // measure 551
0000
0000
2000
0000
3000
0100
0010
0010
,  // measure 552
0000
1001
0000
0000
0000
0010
0000
0100
,  // measure 553
0000
0000
0100
0000
0010
0000
0000
0010
0000
0000
0020
0000
0000
0000
0130
0000
,  // measure 554
1000
0000
1000
0000
0001
0000
0000
0001
0000
0000
2000
0000
0000
0000
3000
0000
,  // measure 555
0100
0010
0010
0000
1001
0000
0000
0010
,  // measure 556
0000
0010
0000
0000
0000
0001
0000
0001
,  // measure 557
0010
0100
0000
0001
0010
0100
0000
0001
,  // measure 558
0010
0100
0000
1000
0010
0100
0000
1000
,  // measure 559
0010
0100
0000
0001
0100
0010
0000
1000
,  // measure 560
0100
0010
0000
1000
0100
0010
0000
0001
,  // measure 561
0010
0100
0000
0001
0010
0100
0000
0001
,  // measure 562
0010
0100
0000
1000
0010
0100
0000
1000
,  // measure 563
0010
0100
0000
0001
0100
0010
0000
1000
,  // measure 564
0100
0010
0000
1000
0100
0010
0000
0001
,  // measure 565
0010
0100
0000
1000
0001
0100
0000
1000
,  // measure 566
0001
0100
0000
0001
1000
0100
0000
0001
,  // measure 567
1000
0100
0000
1000
0001
0010
0000
0001
,  // measure 568
1000
0010
0000
0001
1000
0010
0000
1000
,  // measure 569
0010
0100
0000
1000
0001
0100
0000
1000
,  // measure 570
0001
0100
0000
0001
1000
0100
0000
0001
,  // measure 571
1000
0100
0000
1000
0001
0010
0000
0001
,  // measure 572
1000
0010
0000
0001
1000
0010
0000
1000
,  // measure 573
0010
0100
0001
0010
0001
0001
1000
0100
,  // measure 574
1000
1000
0010
0100
0001
0001
1000
0100
,  // measure 575
0010
0010
0001
0100
0010
0010
1000
0001
,  // measure 576
0100
0100
0001
0010
0100
0100
1000
0001
,  // measure 577
0100
0100
0010
1000
0001
0001
0100
0010
,  // measure 578
1000
1000
0001
0010
0100
0100
1000
0001
,  // measure 579
0100
0100
0010
0100
0010
0010
1000
0001
,  // measure 580
1000
1000
0100
0010
0001
0001
1000
0100
,  // measure 581
0010
0001
0022
0000
0000
0000
0000
0000
,  // measure 582
0000
0000
0033
0000
0000
0000
0001
0010
0000
0000
0010
0100
0000
0000
0100
1000
,  // measure 583
0000
0000
1000
0001
0000
0000
0001
0100
0000
0000
0100
1000
0000
0000
1000
0100
,  // measure 584
0000
0000
0100
0010
0000
0000
0010
0001
0000
0000
0001
0010
0000
0000
0010
1000
,  // measure 585
0000
0000
1000
0100
0000
0000
0100
0010
0000
0000
0010
0100
0000
0000
0100
0010
,  // measure 586
0000
0000
0010
0100
0010
0000
0000
0000
0001
0000
1000
0000
0110
0000
0000
0000
,  // measure 587
0000
0000
1000
0000
0010
0100
1001
0000
,  // measure 588
0000
0000
0010
0001
1000
0001
0110
1000
,  // measure 589
0001
0000
1000
0000
0100
0010
0001
0100
0010
1000
0001
0100
0020
0000
0000
0000
,  // measure 590
0000
0030
0000
0001
1000
0200
0000
0310
,  // measure 591
0001
0200
0000
0301
1000
0020
0000
0130
,  // measure 592
0001
1000
0000
1000
0010
0100
0010
1000
,  // measure 593
0100
0010
0100
0010
0001
1000
0010
0200
,  // measure 594
0000
0310
1000
0001
0010
0100
0010
0100
,  // measure 595
1000
0010
0100
0001
1000
0010
0100
0001
,  // measure 596
1000
0020
0000
0130
0010
1000
0001
1000
,  // measure 597
0001
0010
0100
1000
0100
0010
0100
0010
,  // measure 598
0001
1000
2002
0000
0000
0000
0000
0000
,  // measure 599
3003
0110
1001
1100
,  // measure 600
1001
0000
0101
0001
0100
0010
0100
0010
,  // measure 601
1000
0100
0000
0010
0001
0000
0000
1001
,  // measure 602
0000
0000
1001
0100
0010
1000
0100
0010
,  // measure 603
0100
0010
0001
0100
0010
0100
0010
1000
,  // measure 604
0001
0020
0000
0130
1000
0001
0100
0010
,  // measure 605
0100
0010
1000
0001
0010
0001
1000
0110
,  // measure 606
0000
0000
0000
0000
2000
0000
0000
0000
3002
0000
0000
0003
0010
0100
0000
1000
,  // measure 607
0000
0000
0100
0000
0010
0000
0000
0020
0000
0000
0100
0000
0130
0000
0000
0000
,  // measure 608
0000
0000
0010
0000
0001
0100
0000
0001
0000
0000
0010
0000
0100
1000
0000
0100
,  // measure 609
0000
0000
0010
0000
0001
0000
0000
0200
0000
0000
0010
0000
0310
0000
0000
0000
,  // measure 610
0000
1001
0100
1001
,  // measure 611
0000
0000
0001
0000
0010
0000
0000
0020
0000
0000
0100
0000
0130
0000
0000
0000
,  // measure 612
0000
0000
1000
0000
0010
0100
0000
0001
0000
0000
0100
0000
1000
0100
0000
0001
,  // measure 613
0000
1000
0200
0000
0000
0000
0020
0000
,  // measure 614
0300
0000
0000
0000
0032
0000
0000
0000
2003
0000
0000
3000
0010
0100
0000
0001
,  // measure 615
0000
0000
0100
0000
0010
0000
0000
0020
0000
0000
0100
0000
0130
0000
0000
0000
,  // measure 616
0000
0000
0010
0000
1000
0100
0000
1000
0000
0000
0010
0000
0100
0001
0000
0100
,  // measure 617
0000
0000
0010
0000
1000
0000
0000
0200
0000
0000
0010
0000
0310
0000
0000
0000
,  // measure 618
0000
1001
0010
1001
,  // measure 619
0000
0000
1000
0000
0010
0000
0000
0020
0000
0000
0100
0000
0130
0000
0000
0000
,  // measure 620
0000
0000
0001
0000
0010
0100
0000
1000
0000
0000
0100
0000
0001
0100
0000
1000
,  // measure 621
0000
0001
0200
0000
0000
0000
0020
0000
,  // measure 622
0000
0330
0000
1000
0001
0200
0000
0310
,  // measure 623
1000
0200
0000
1300
0001
0020
0000
0130
,  // measure 624
1000
0001
0000
0001
0010
0100
0010
0001
,  // measure 625
0100
0010
0100
0010
1000
0001
0010
0200
,  // measure 626
0000
0310
0001
1000
0010
0100
0010
0100
,  // measure 627
0001
0010
0100
1000
0001
0010
0100
1000
,  // measure 628
0001
0020
0000
0130
0010
0001
1000
0001
,  // measure 629
1000
0010
0100
0001
0100
0010
0100
0010
,  // measure 630
1000
0001
1001
1001
0000
0110
0000
1100
,  // measure 631
0000
0110
0000
1001
0000
0011
0000
0101
,  // measure 632
0000
1100
0000
1100
0000
1100
0000
0101
,  // measure 633
0000
1100
0000
0101
0000
0110
0000
0110
,  // measure 634
0000
0011
0000
0011
0000
1010
0000
0011
,  // measure 635
0000
0110
0000
1001
0000
1010
0000
0011
,  // measure 636
0000
1100
0000
1100
0000
0101
0000
1100
,  // measure 637
0000
0101
0000
0101
0000
0110
0000
1010
,  // measure 638
0000
0011
0000
1100
0000
0001
0000
0101
,  // measure 639
0000
1000
0000
1100
0000
0110
0000
0000
,  // measure 640
0000
0000
0000
0001
0000
0011
0000
1000
,  // measure 641
0000
1010
0000
0100
0000
0101
0000
1100
,  // measure 642
0000
0010
0000
0110
0000
0001
0000
1100
,  // measure 643
0000
1000
0000
0101
0000
0110
0000
0000
,  // measure 644
0000
0000
0000
1100
0000
0001
0000
0101
,  // measure 645
0000
1000
0000
1010
0000
0001
0000
0011
,  // measure 646
0000
1001
0000
0110
1000
0200
0000
0310
,  // measure 647
0001
0200
0000
0301
1000
0020
0000
0130
,  // measure 648
0001
1000
0000
1000
0010
0100
0010
1000
,  // measure 649
0100
0010
0100
0010
0001
1000
0010
0200
,  // measure 650
0000
0310
1000
0001
0010
0100
0010
0100
,  // measure 651
1000
0010
0100
0001
1000
0010
0100
0001
,  // measure 652
1000
0020
0000
0130
0010
1000
0001
1000
,  // measure 653
0001
0010
0100
1000
0100
0010
0100
0010
,  // measure 654
0001
1000
2002
0000
0000
0000
0000
0000
,  // measure 655
3003
0110
1001
0010
,  // measure 656
1100
0000
0110
0010
0100
1000
0100
0010
,  // measure 657
0100
1000
0000
0001
0100
0000
0000
1001
,  // measure 658
0000
0000
0110
0010
0100
0001
0100
0010
,  // measure 659
0100
0001
0010
0100
0010
0100
1000
0001
,  // measure 660
0100
0020
0000
0130
0001
1000
0100
0010
,  // measure 661
0100
0010
0001
1000
0010
1000
0001
0100
,  // measure 662
0000
0000
0020
0000
0000
0100
0130
0000
,  // measure 663
0000
0001
0010
0100
1000
1001
0000
1001
,  // measure 664
0000
0000
0100
0000
0000
0010
0000
0000
,  // measure 665
0000
0000
0100
1000
0100
0001
0100
1000
,  // measure 666
0100
0000
0020
0000
0000
0100
0130
0000
,  // measure 667
0000
1000
0010
0100
0001
1001
0000
1001
,  // measure 668
0000
0000
0100
0000
0000
0010
0000
0000
,  // measure 669
0000
0000
0100
0001
0100
1000
0100
0001
,  // measure 670
0100
0000
2002
0000
3003
0100
0010
0000
,  // measure 671
1000
0000
0000
0000
0010
0000
0000
1000
0000
0000
0100
0000
1000
0000
0000
0001
,  // measure 672
0000
0000
0010
0000
0110
0000
0000
1000
0000
0000
0100
0000
0010
0000
0000
0001
,  // measure 673
0000
0000
0010
0000
0110
0000
0000
0100
0000
0000
1000
0000
0010
0000
0000
0100
,  // measure 674
0000
0000
0001
0000
1001
0000
0000
1000
0000
0000
0100
0000
0010
0000
0000
0100
,  // measure 675
0000
0000
0010
0000
0110
0000
0000
0001
0000
0000
0100
0000
0010
0000
0000
1000
,  // measure 676
0000
0000
0001
0000
1001
0000
0000
0100
0000
0000
0010
0000
0001
0000
0000
0100
,  // measure 677
0000
0000
0010
0000
0100
0000
0000
0001
0000
0000
1000
0000
1001
0000
0000
0010
,  // measure 678
0000
0000
0001
0000
1000
0000
0000
0100
0000
0000
1000
0000
0001
0000
0000
1000
,  // measure 679
0000
0000
0100
0000
0010
0000
0000
0010
0000
0000
0100
0000
0010
0000
0000
0001
,  // measure 680
0000
0000
1000
0000
0001
0000
0000
0002
0000
0000
0013
0000
0020
0000
0000
0130
,  // measure 681
0000
0000
0010
0000
0200
0000
0000
1300
0000
0000
0001
0000
1001
0000
0000
0001
,  // measure 682
0000
0000
1000
0000
0001
0000
0000
1000
0000
0000
0001
0000
1000
0000
0000
0001
,  // measure 683
0000
0000
1000
0000
0001
0000
0000
1000
0000
0000
0001
0000
0100
0000
0000
0010
,  // measure 684
0000
0000
0100
0000
0001
0000
1000
0001
1000
0000
0001
1000
0001
0000
1000
0001
,  // measure 685
1000
0000
0001
1000
0001
0000
1000
0000
0000
1001
0000
0000
2002
0000
0000
0000
,  // measure 686
0000
0000
3003
0000
0001
0000
1000
0100
,  // measure 687
0000
0000
1000
0000
0001
0000
0010
0100
,  // measure 688
0000
0000
1000
0000
0100
0000
0010
0100
,  // measure 689
0000
0000
1000
0000
0010
0000
0010
0100
,  // measure 690
0000
0000
0010
0000
1000
0000
0001
0100
,  // measure 691
0000
0000
1000
0000
0001
0000
0010
0100
,  // measure 692
0000
0001
0100
0010
,  // measure 693
0100
0100
0101
0110
,  // measure 694
1100
0000
0110
0000
0001
0000
0010
0100
,  // measure 695
0000
0000
1000
0000
0100
0000
0010
0100
,  // measure 696
0000
0000
1000
0000
0010
0000
0010
0100
,  // measure 697
0000
0000
0001
0000
0100
0000
0010
0100
,  // measure 698
0000
0000
0001
0000
1000
0000
0100
0010
,  // measure 699
0000
0000
0001
0000
0010
0000
0100
1000
,  // measure 700
0000
0000
0010
0000
0100
0000
0001
0100
,  // measure 701
0000
0000
0010
0000
1000
0000
0100
0010
,  // measure 702
0000
0000
0001
0000
2000
0000
0000
3001
,  // measure 703
0100
0000
0010
1000
0100
0001
0100
1000
,  // measure 704
0010
0000
0100
0001
0010
0000
0011
0000
,  // measure 705
2100
0000
3001
0010
0100
1000
0001
0100
,  // measure 706
0020
0000
0130
0000
0002
0000
0000
1003
,  // measure 707
0100
0000
0010
0001
0100
1000
0100
0001
,  // measure 708
0010
0000
0100
1000
0010
0000
1010
0000
,  // measure 709
0102
0000
1003
0010
0100
0001
1000
0100
,  // measure 710
0010
0000
0000
0000
0001
0010
0001
0010
0200
0000
0000
0000
1000
0000
0000
0000
,  // measure 711
0310
0000
0001
0000
0100
0000
0010
0000
1000
0000
0000
1000
0000
0000
0001
0000
,  // measure 712
0001
0000
0000
0000
1000
0010
1000
0010
0200
0000
0000
0000
0001
0000
0000
0000
,  // measure 713
0310
0000
1000
0000
0100
0000
0010
0000
0001
0000
0000
0100
0000
0000
0001
0000
,  // measure 714
1000
0000
0000
0100
0000
0000
0010
0000
0020
0000
0000
0000
0100
0000
0000
0000
,  // measure 715
0100
0100
0100
0100
,  // measure 716
0100
0000
0000
0000
0130
0000
0000
0000
1000
0000
0001
1000
0001
0000
1000
0001
,  // measure 717
1000
0000
0001
1000
0001
0000
1000
0001
1000
0000
0001
0000
0000
1001
0000
0000
,  // measure 718
2002
0000
3003
0010
,  // measure 719
0010
1000
0000
0000
0001
0000
0010
0000
,  // measure 720
0010
0001
0000
0000
0100
0000
0001
0000
,  // measure 721
0001
1000
0000
0000
0100
0000
1000
0000
,  // measure 722
1000
0001
0000
0000
0100
0000
0001
0000
,  // measure 723
1000
0100
0000
0000
1000
0000
0010
0000
,  // measure 724
1000
0001
0000
0000
0010
0000
0001
0000
,  // measure 725
1000
0100
0100
0110
,  // measure 726
0101
0110
1100
0001
,  // measure 727
0010
0100
0000
0000
1000
0000
0100
0000
,  // measure 728
0010
0100
0000
0000
1000
0000
0010
0000
,  // measure 729
0010
0100
0000
0000
0001
0000
0100
0000
,  // measure 730
0010
0100
0000
0000
0001
0000
1000
0000
,  // measure 731
0100
0010
0000
0000
0001
0000
0010
0000
,  // measure 732
0100
1000
0000
0000
0010
0000
0100
0000
,  // measure 733
0001
0100
0000
0000
0010
0000
1000
0000
,  // measure 734
0100
0010
0000
0000
0001
0000
1000
0000
,  // measure 735
0010
0101
1000
1100
,  // measure 736
0000
0001
0010
0100
,  // measure 737
1000
1010
0001
0101
,  // measure 738
0000
0010
0100
0010
,  // measure 739
0000
0110
0000
1001
,  // measure 740
0000
0001
0010
0100
,  // measure 741
1000
0010
1000
0000
0001
0000
0100
0000
,  // measure 742
0010
1000
1000
0001
,  // measure 743
0010
1100
0001
0101
,  // measure 744
0001
0010
0100
1000
,  // measure 745
0001
0100
0001
0000
1000
0000
1100
0000
,  // measure 746
0000
0001
1000
0001
,  // measure 747
0000
1001
0000
0110
,  // measure 748
0000
0010
1000
0100
,  // measure 749
0010
0001
0010
0000
0001
0000
0100
0000
,  // measure 750
0000
0000
0010
1000
0010
1000
0002
0000
,  // measure 751
0000
0100
0000
1003
,  // measure 752
0100
0010
0100
1000
,  // measure 753
0000
0001
0000
0000
1000
0000
0100
0000
,  // measure 754
0000
0000
0010
0001
0010
0001
2000
0000
,  // measure 755
0000
0100
0000
3001
,  // measure 756
0100
0010
0100
0001
,  // measure 757
0000
1000
0000
0000
0001
0000
0100
0000
,  // measure 758
0000
0010
0000
0000
0100
0000
1002
0000
,  // measure 759
0103
0010
0100
0001
,  // measure 760
1000
0000
0000
0000
0100
0000
0000
0000
0010
0000
0000
0000
0001
1000
0000
1000
,  // measure 761
0001
0010
0100
1000
,  // measure 762
0001
0100
0010
1000
,  // measure 763
0010
0100
0001
1000
,  // measure 764
0100
0000
0000
0000
0010
0000
0000
0000
0100
0000
0000
0000
1000
0001
0000
0001
,  // measure 765
1000
0010
0100
0001
,  // measure 766
1000
0100
0010
0001
,  // measure 767
0010
0100
1000
0001
,  // measure 768
0100
0000
0000
0000
0010
0000
0000
0000
0100
0000
0000
0000
0001
1000
0000
1000
,  // measure 769
0001
0000
0010
0000
0100
0000
0000
0110
0000
0000
1000
0000
0100
0000
0000
1100
,  // measure 770
0000
0000
0001
0000
0100
0000
0000
0101
0000
0000
1000
0000
0001
0000
0000
1001
,  // measure 771
0000
0000
0010
0000
0001
0000
0000
0011
0000
0000
1000
0000
0010
0000
0000
1010
,  // measure 772
0000
0000
0001
0000
1000
0000
0000
1001
0000
0000
1000
0000
0100
0010
0000
0010
,  // measure 773
0100
0000
1000
0000
0001
0000
0000
1001
0000
0000
0100
0000
0001
0000
0000
0101
,  // measure 774
0000
0000
1000
0000
0100
0000
0000
1100
0000
0000
1000
0000
0010
0000
0000
1010
,  // measure 775
0000
0000
0001
0000
0010
0000
0000
0011
0000
0000
0100
0000
0010
0000
1000
0000
,  // measure 776
0001
0000
0100
0000
0001
0010
0100
1000
0010
0100
0001
1000
0100
0010
0000
0010
,  // measure 777
0100
0000
1000
0000
0010
0100
0000
0010
0100
0000
0010
0100
0000
0010
0100
0000
,  // measure 778
0010
0100
0000
0010
0100
0000
0000
2001
0000
0000
0000
0000
0000
0000
0000
3002
,  // measure 779
0000
0000
0000
0000
0000
0000
0000
2003
0000
0000
0000
0000
0000
0000
0000
3001
,  // measure 780
0000
0000
0000
0000
0000
0000
0000
0110
0000
0000
0001
1000
0001
1000
0000
0100
,  // measure 781
0000
0010
0001
0000
0100
0010
0000
1000
0001
0000
1000
0001
0000
1000
0001
0000
,  // measure 782
1000
0001
0000
1000
0001
0000
0000
0120
0000
0000
0000
0000
0000
0000
0000
0230
,  // measure 783
0000
0000
0000
0000
0000
0000
0000
0320
0000
0000
0000
0000
0000
0000
0000
0130
,  // measure 784
0000
0000
0000
0000
0000
0000
0000
2002
0000
0000
0000
0000
0000
0000
0000
0000
,  // measure 785
0000
0000
3003
0000
0000
0000
0001
0010
,  // measure 786
0100
0000
1000
0000
0001
0000
0000
0002
0000
0000
0010
0000
0023
0000
0000
0100
,  // measure 787
0000
0000
0130
0000
1000
0000
0010
0100
0010
0000
0100
0000
0001
0000
0010
0100
,  // measure 788
0010
0000
0100
0000
1000
0000
0010
0100
0010
0000
0100
0000
0001
0000
0010
0100
,  // measure 789
0010
0000
0100
0000
1000
0000
0010
0100
0010
0000
1000
0000
0001
0000
0100
0000
,  // measure 790
0010
0000
1000
0000
0001
0000
0000
0002
0000
0000
0100
0000
0203
0000
0000
0010
,  // measure 791
0000
0000
0310
0000
1000
0000
0100
0010
0100
0000
0010
0000
0001
0000
0100
0010
,  // measure 792
0100
0000
0010
0000
1000
0000
0100
0010
0100
0000
0010
0000
0001
0000
0100
0010
,  // measure 793
0100
0000
0010
0000
1000
0000
0100
0010
0100
0000
0010
0000
2002
0000
0000
0000
,  // measure 794
0000
0000
0000
0000
,  // measure 795
3003
0000
0000
0020
,  // measure 796
0000
0000
0000
2000
,  // measure 797
0000
0030
0000
0200
,  // measure 798
0000
3000
0000
0020
,  // measure 799
0000
0300
0000
0032
,  // measure 800
1000
0000
1000
0000
,  // measure 801
1000
0000
1003
0100
,  // measure 802
0020
0000
0001
0000
,  // measure 803
0001
0000
0031
0100
,  // measure 804
0020
0000
1000
0000
,  // measure 805
1000
0000
1030
0100
,  // measure 806
0020
0000
0100
0000
,  // measure 807
0100
0000
0130
0010
,  // measure 808
2002
0000
0000
0000
,  // measure 809
0000
0000
0000
0000
,  // measure 810
0000
0000
3003
0000
,  // measure 811
0000
0000
0000
0020
,  // measure 812
0000
0000
0000
2030
,  // measure 813
0000
0000
0000
3200
,  // measure 814
0000
0000
0000
0302
,  // measure 815
0203
2300
3020
0032
,  // measure 816
0023
0230
0302
0023
,  // measure 817
2030
3020
0130
1001
,  // measure 818
1100
1001
0101
0110
,  // measure 819
0011
0110
1010
1100
,  // measure 820
0011
0000
0000
0000
0101
0000
0000
0000
1010
0000
0001
0100
0001
0000
0000
0000
,  // measure 821
0011
0000
0100
1000
0100
0000
1000
0000
0010
0000
0100
0000
0001
0000
0010
0000
,  // measure 822
0100
1000
0100
0010
0001
0010
0100
1000
,  // measure 823
0001
0010
0100
1000
0001
0100
0010
1000
,  // measure 824
0001
0100
0010
1000
0010
0100
0001
0100
,  // measure 825
0010
1000
0001
0010
0100
1000
0001
0000
,  // measure 826
1001
0010
0110
1000
,  // measure 827
1100
0000
0001
0000
0101
0000
1000
0100
,  // measure 828
0010
0000
0001
0010
0100
0000
0010
0100
,  // measure 829
1000
0000
0001
0010
0100
0000
1000
0010
,  // measure 830
0100
0001
0100
0010
1000
0100
0010
0100
,  // measure 831
1000
0001
0010
0100
1000
0001
1000
0000
,  // measure 832
1001
0100
0110
0001
,  // measure 833
0011
0000
1000
0000
1010
0000
0001
0010
,  // measure 834
0100
0010
0000
0100
1000
0001
0010
0100
,  // measure 835
1000
0100
0000
0000
0110
0000
1000
0010
,  // measure 836
0100
0010
0000
0100
0001
1000
0010
0100
,  // measure 837
0001
0100
0000
0000
0110
0000
0001
0100
,  // measure 838
0010
1000
0000
0100
1000
0100
0010
0001
,  // measure 839
0010
0100
0000
0000
0110
0000
1001
0000
,  // measure 840
1001
0100
0010
0000
1001
0100
0010
0100
,  // measure 841
0001
0000
0010
0000
1000
0000
0100
0000
0001
0000
0010
0000
1100
0000
0000
0001
,  // measure 842
0000
0000
0001
0000
0010
0000
0000
0010
0000
0000
0010
0000
0100
0000
0000
0100
,  // measure 843
0000
0000
0100
0000
1000
0000
0000
1000
0000
0000
1000
0000
0010
0000
0000
0110
,  // measure 844
0000
0000
0010
0000
0100
0000
0000
0110
0000
0000
0100
0000
0001
0000
0000
1001
,  // measure 845
0000
0000
0001
0000
1000
0000
0000
1001
0000
0000
1000
0000
0100
0000
0000
0100
,  // measure 846
0000
0000
0001
0000
0100
0000
0000
0100
0000
0000
1000
0000
0010
0000
0000
0010
,  // measure 847
0000
0000
0001
0000
0010
0000
0000
0110
0000
0000
1000
0000
0100
0000
0000
0110
,  // measure 848
0000
0000
0010
0000
0001
0000
0000
1001
0000
0000
0001
0000
1000
0000
0000
1001
,  // measure 849
0000
0000
1000
0000
0010
0000
0000
0110
0000
0000
0001
0000
0100
0000
0000
0110
,  // measure 850
0000
0000
0010
0000
1000
0000
0000
1001
0000
0000
1000
0000
0001
0000
0000
1001
,  // measure 851
0000
0000
0001
0000
1000
0000
0000
1001
0000
0000
1000
0000
0010
0000
0000
0010
,  // measure 852
0000
0000
0010
0000
0100
0000
0000
0100
0000
0000
0100
0000
0001
0000
0000
0001
,  // measure 853
0000
0000
0001
0000
0010
0000
0000
0110
0000
0000
0010
0000
0100
0000
0000
0110
,  // measure 854
0000
0000
0100
0000
1000
0000
0000
1001
0000
0000
1000
0000
0001
0000
0000
1001
,  // measure 855
0000
0000
0001
0000
0100
0000
0000
0100
0000
0000
1000
0000
0100
0000
0000
0100
,  // measure 856
0000
0000
0001
0000
0010
0000
0000
0010
0000
0000
1000
0000
0010
0000
0000
0110
,  // measure 857
0000
0000
0001
0000
0100
0000
0000
0110
0000
0000
0010
0000
1000
0000
0000
1001
,  // measure 858
0000
0000
1000
0000
0001
0000
0000
1001
0000
0000
0001
0000
0010
0000
0000
0110
,  // measure 859
0000
0000
1000
0000
0100
0000
0000
0110
0000
0000
0010
0000
0001
0000
0000
1001
,  // measure 860
0000
0000
0001
0000
1000
0000
0000
1001
0000
0000
1000
0000
0001
0000
0000
1001
,  // measure 861
0000
0000
0001
0000
0010
0000
0000
0011
0000
0000
1000
0000
0100
0000
0000
1100
,  // measure 862
0000
0000
0001
0000
0100
0000
0000
0101
0000
0000
1000
0000
0010
0000
0000
1010
,  // measure 863
0000
0000
0001
0000
1000
0000
0000
1001
0000
0000
1000
0000
0001
0000
0000
1001
,  // measure 864
0000
0000
0010
0000
0100
0000
0000
0110
0000
0000
0100
0000
0010
0000
0000
0110
,  // measure 865
0000
0000
1000
0000
0001
0000
0000
1001
0000
0000
0001
0000
0100
0010
0000
0100
,  // measure 866
0000
0000
0001
0000
1000
0100
0000
0010
0000
0000
0001
0000
1000
0100
0000
0010
,  // measure 867
0000
0000
0100
0000
1000
0001
0000
0100
0000
0000
0010
0000
1000
0100
0000
0010
,  // measure 868
0000
0000
0100
0000
1000
0010
0000
0100
0000
0000
0001
0000
1000
0010
0000
0100
,  // measure 869
0000
0000
0001
0000
0010
0100
0000
1000
0000
0000
0010
0000
0100
0001
0000
1000
,  // measure 870
0000
0000
0100
0000
0010
0001
0000
1000
0000
0000
0100
0000
1000
0001
0000
0100
,  // measure 871
0000
0000
0010
0000
1000
0001
0000
0010
0000
0000
0001
0000
0100
0010
0000
0100
,  // measure 872
0000
0000
0001
0000
1000
0100
0000
0010
0000
0000
0001
0000
1000
0100
0000
0010
,  // measure 873
0000
0000
0100
0000
1000
0001
0000
0100
0000
0000
0010
0000
1000
0100
0000
0010
,  // measure 874
0000
0000
0100
0000
1000
0010
0000
0100
0000
0000
0001
0000
1000
0010
0000
0100
,  // measure 875
0000
0000
0001
0000
0010
0100
0000
1000
0000
0000
0010
0000
0100
0001
0000
1000
,  // measure 876
0000
0000
0100
0000
0010
0001
0000
1000
0000
0000
0100
0000
1000
0001
0000
0100
,  // measure 877
0000
0000
1001
0000
0100
0000
1001
0000
1000
0001
1000
0001
2000
3000
0000
0000
,  // measure 878
0000
0000
0000
0000
0001
0000
0100
0000
0010
1000
0000
0000
0001
0000
0100
0000
,  // measure 879
1000
0100
0000
0000
0001
0000
1000
0000
0100
0001
0000
0000
0100
0000
1000
0000
,  // measure 880
0010
0100
0000
0100
0010
0000
1000
0000
0100
0001
0000
0000
0100
0000
1000
0000
,  // measure 881
0010
0100
0000
0000
0001
0000
1000
0000
0010
0001
0000
0000
0010
0000
0100
0000
,  // measure 882
0001
1000
0000
1000
0001
0000
0100
0000
0010
1000
0000
0000
0100
0000
0010
0000
,  // measure 883
0001
1000
0000
0000
0010
0000
0100
0000
1000
0100
0000
0000
0001
0000
0010
0000
,  // measure 884
0100
1000
0000
1000
0100
0000
0010
0000
0001
0100
0000
0000
0010
0000
0100
0000
,  // measure 885
1000
0100
0000
0000
0002
0000
1000
0000
1000
0000
1000
0000
2003
0000
0001
0000
,  // measure 886
0001
0001
3001
0100
1000
0100
0001
0010
,  // measure 887
1100
0000
1000
0100
0001
0100
1000
0010
,  // measure 888
0101
0000
0001
0010
0100
1000
0001
1000
,  // measure 889
0100
0010
0001
1000
0010
0100
0001
1000
,  // measure 890
0110
0000
0001
0010
1000
0001
0010
0100
,  // measure 891
1001
0000
1000
0100
0001
1000
0100
0010
,  // measure 892
1001
0000
1000
0010
0001
1000
0100
0001
,  // measure 893
0010
0100
1000
0001
1000
0100
0010
0001
,  // measure 894
1001
0000
1000
0000
1001
0000
0001
0000
1000
0000
0000
0001
0100
0000
1000
0000
,  // measure 895
0100
0000
0000
0010
1000
0000
0100
0000
0010
0000
0000
0100
1000
0000
0001
0000
,  // measure 896
0010
0000
0000
0001
0100
0000
0010
0000
1000
0000
0000
0100
1000
0000
0001
0000
,  // measure 897
1000
0000
0000
0010
0100
0000
0001
0000
1000
0000
0000
0010
1000
0000
0010
0000
,  // measure 898
0001
0000
0100
0000
0010
0000
1000
0000
0001
0000
0000
1000
0100
0000
0001
0000
,  // measure 899
0100
0000
0000
0010
0001
0000
0100
0000
0010
0000
0000
0100
0001
0000
1000
0000
,  // measure 900
0010
0000
0000
1000
0100
0000
0010
0000
0001
0000
0000
0100
0001
0000
1000
0000
,  // measure 901
0001
0000
0000
0010
0100
0000
1000
0000
0001
0000
0000
0010
0001
0000
0010
0000
,  // measure 902
1000
0000
0100
0000
0010
0000
0001
0000
1000
0000
0000
0001
0100
0000
1000
0000
,  // measure 903
0100
0000
0000
0010
1000
0000
0100
0000
0010
0000
0000
0100
1000
0000
0001
0000
,  // measure 904
0010
0000
0000
0001
0100
0000
0010
0000
1000
0000
0000
0100
1000
0000
0001
0000
,  // measure 905
1000
0000
0000
0010
0100
0000
0001
0000
1000
0000
0000
0010
1000
0000
0001
0000
,  // measure 906
0001
1000
0200
0000
0000
0000
0000
0000
,  // measure 907
0000
0020
0300
0000
,  // measure 908
0000
0002
0030
0000
,  // measure 909
0000
2000
0003
0200
,  // measure 910
3000
0000
0310
0000
0001
1000
0100
0000
,  // measure 911
1100
0000
0001
0100
0000
0010
0000
0010
,  // measure 912
0100
0010
0100
0001
0100
0010
1000
1000
,  // measure 913
0100
0010
0100
0010
0001
0100
0020
0000
,  // measure 914
0100
0130
0000
0000
1000
0001
0100
0000
,  // measure 915
0101
0000
1000
0100
0000
0010
0000
0001
,  // measure 916
0100
0010
1000
0000
0001
0000
1001
0000
,  // measure 917
0000
0010
0001
1000
0000
0000
0110
0000
,  // measure 918
0100
0220
0000
0000
,  // measure 919
0330
0021
0000
0000
,  // measure 920
0000
0200
0000
0000
,  // measure 921
0000
0000
0000
0000
0000
0000
0000
0000
0000
0000
0330
0000
0000
0000
0010
0001
,  // measure 922
0000
1000
0000
0000
2002
0000
0000
0000
0000
0000
0000
0000
0000
0000
0000
0000
,  // measure 923
3003
1020
0000
0000
,  // measure 924
0000
0200
0000
0000
,  // measure 925
0000
0000
0000
0000
0000
0000
0000
0000
0330
0000
0000
0000
1010
0000
0000
1001
,  // measure 926
0000
0000
0101
0000
0000
0000
0010
0000
0000
1000
0000
0000
0100
0000
0000
0010
,  // measure 927
0000
0000
0001
0000
0000
0100
0000
0000
0001
0000
0000
1000
0000
0000
0100
0000
,  // measure 928
0000
0010
0000
0000
0001
0000
0000
1000
0000
0000
0001
0000
0000
0010
0000
0000
,  // measure 929
0100
0000
0000
1000
0000
0000
0001
0000
0000
0100
0000
0000
0010
0000
0000
1000
,  // measure 930
0000
0000
0001
0000
0000
0000
1001
0000
0000
1001
0000
0000
1001
0000
0000
1001
,  // measure 931
0000
0000
1001
0000
0000
0011
0000
0000
0011
0000
0000
0011
0000
0000
0011
0000
,  // measure 932
0000
0011
0000
0000
0110
0000
0000
0110
0000
0000
0110
0000
0000
0110
0000
0000
,  // measure 933
0110
0000
0000
1100
0000
0000
1100
0000
0000
1100
0000
0000
1100
0000
0000
1100
,  // measure 934
0000
0000
0110
0000
0000
0000
0010
0000
0000
0001
0000
0000
0100
0000
0000
0010
,  // measure 935
0000
0000
1000
0000
0000
0100
0000
0000
0010
0000
0000
0001
0000
0000
1000
0000
,  // measure 936
0000
0100
0000
0000
0001
0000
0000
0100
0000
0000
0010
0000
0000
0100
0000
0000
,  // measure 937
0001
0000
0000
1000
0000
0000
0100
0000
0000
0010
0000
0000
0001
0000
0000
1000
,  // measure 938
0000
0000
0010
0000
0000
0100
0001
0000
0100
0001
0000
0100
0001
0000
0100
0001
,  // measure 939
0000
0100
0001
0000
1000
0010
0000
1000
0010
0000
1000
0010
0000
1000
0010
0000
,  // measure 940
1000
0010
0000
0000
0100
0000
0000
1000
0000
0000
0100
0000
0000
1000
0000
0000
,  // measure 941
0100
0000
0000
0010
0000
0000
0001
0000
0000
0010
0000
0000
0001
0000
0000
0010
,  // measure 942
0000
0100
0000
1000
0000
0000
0001
0000
,  // measure 943
0000
0100
0000
0000
0010
0000
0000
0100
,  // measure 944
0000
0000
1001
0000
1000
0010
0100
0000
,  // measure 945
0100
0001
0000
0001
1000
0000
1000
0100
,  // measure 946
0000
0100
0010
0000
0010
0100
0000
0100
,  // measure 947
1000
0000
1000
0010
0000
0010
0100
0000
,  // measure 948
0100
0001
0000
0001
0010
0000
0010
0100
,  // measure 949
0000
0100
0010
0000
0010
0001
0000
0001
,  // measure 950
1000
0000
1000
0001
0000
0001
0100
0000
,  // measure 951
0100
0010
0000
0010
0100
0000
0100
0010
,  // measure 952
0000
0000
0110
0000
0001
0100
0010
0000
,  // measure 953
0010
0100
0000
0100
0010
0000
0010
1000
,  // measure 954
0000
1000
0001
0000
0001
0100
0000
0100
,  // measure 955
0001
0000
0001
1000
0000
1000
0100
0000
,  // measure 956
0100
0010
0000
0010
0100
0000
0100
1000
,  // measure 957
0000
1000
0010
0000
0010
0100
0000
0100
,  // measure 958
0001
0000
0001
0010
0000
0010
0100
0000
,  // measure 959
0100
0010
0000
0010
0001
0000
0001
1000
,  // measure 960
0000
0000
0110
0000
0001
1000
0100
0000
,  // measure 961
0100
0010
0000
0010
0001
0000
0001
0100
,  // measure 962
0000
0100
0010
0000
0010
0100
0000
0100
,  // measure 963
0001
0000
0001
1000
0000
1000
0010
0000
,  // measure 964
0010
0100
0000
0100
0001
0000
0001
0010
,  // measure 965
0000
0010
0100
0000
0100
1000
0000
1000
,  // measure 966
0001
0000
0001
1000
0000
1000
0100
0000
,  // measure 967
0100
0010
0000
0010
0100
0000
0100
1000
,  // measure 968
0000
0011
0000
0010
,  // measure 969
0000
1000
0000
0000
0100
0000
0000
0010
,  // measure 970
0000
0000
0001
0000
0000
0100
0000
0000
,  // measure 971
0001
0000
0000
1000
0000
0000
0100
0000
,  // measure 972
0000
0010
0000
0000
0001
0000
0000
1000
,  // measure 973
0000
0000
0001
0000
0000
0010
0000
0000
,  // measure 974
0100
0000
0000
1000
0000
0000
0001
0000
,  // measure 975
0000
0100
0000
0000
0010
0000
0000
1000
,  // measure 976
0000
0001
1001
0000
,  // measure 977
0001
0010
0002
0000
,  // measure 978
0023
0000
0100
0230
,  // measure 979
0000
1300
0000
0011
,  // measure 980
0100
1000
0010
0100
,  // measure 981
0010
0100
0001
0010
,  // measure 982
0001
0010
0100
1000
,  // measure 983
0100
1000
1020
0000
,  // measure 984
0100
0130
0000
0000
,  // measure 985
0001
1000
0020
0000
,  // measure 986
0230
0000
0001
0302
,  // measure 987
0000
1003
0000
1001
,  // measure 988
0001
0100
1000
0100
,  // measure 989
0001
0010
1000
0010
,  // measure 990
0001
0100
0001
1000
,  // measure 991
0100
1000
0002
0000
,  // measure 992
1000
1003
0000
0000
,  // measure 993
0100
0010
0012
0000
,  // measure 994
2003
0000
3100
0010
,  // measure 995
0000
0110
0000
0010
,  // measure 996
0001
1000
0100
0100
,  // measure 997
0010
0001
1000
0010
,  // measure 998
1000
0001
0020
0000
,  // measure 999
0130
1000
0002
0000
,  // measure 1000
1000
1003
0000
0000
,  // measure 1001
0100
0010
2010
0000
,  // measure 1002
3002
0000
0103
0010
,  // measure 1003
0000
0110
0000
0010
,  // measure 1004
1000
0001
0100
0001
,  // measure 1005
1000
0100
0010
0100
,  // measure 1006
0010
0001
1000
0100
,  // measure 1007
1000
0010
2000
0000
,  // measure 1008
0001
0001
3002
0000
,  // measure 1009
0000
0000
0000
0000
,  // measure 1010
0000
0010
0023
0000
,  // measure 1011
0000
0000
0000
0000
,  // measure 1012
0000
0000
0200
0000
,  // measure 1013
0000
0000
0000
0000
,  // measure 1014
0000
0000
0000
0000
,  // measure 1015
0000
0000
0000
0000
,  // measure 1016
0330
0000
1000
0001
,  // measure 1017
1000
0001
1000
0001
,  // measure 1018
1000
0001
0010
0100
,  // measure 1019
0010
0100
1000
0001
,  // measure 1020
1000
0000
0001
0000
1001
0000
0001
1000
,  // measure 1021
0100
0000
1100
0000
0001
0100
0000
0010
,  // measure 1022
0000
0010
0100
0010
0100
0001
0100
0010
,  // measure 1023
1000
1000
0100
0010
0100
0010
0001
0100
,  // measure 1024
0020
0000
0100
0130
0000
0000
1000
0001
,  // measure 1025
0100
0000
0101
0000
1000
0100
0000
0010
,  // measure 1026
0000
0001
0100
0010
1000
0000
0001
0000
,  // measure 1027
1001
0000
0000
0010
0001
1000
0000
0000
,  // measure 1028
0110
0100
0220
0000
,  // measure 1029
0000
0330
0021
0000
,  // measure 1030
0000
0000
0200
0000
,  // measure 1031
0000
0000
0000
0000
,  // measure 1032
0330
0000
0000
0000
0001
0010
0100
1000
,  // measure 1033
0100
0010
0001
1000
0100
0010
0001
1000
,  // measure 1034
0001
0010
0100
1000
0001
0010
0100
1000
,  // measure 1035
0100
0010
0001
1000
0100
0010
0001
0100
,  // measure 1036
0010
1000
0001
0100
0010
1000
0001
1000
,  // measure 1037
0000
0000
0001
0000
0100
0000
0010
0000
1000
0010
1000
0000
0001
0000
0100
0000
,  // measure 1038
0010
1000
0010
0100
0001
0100
1000
0100
,  // measure 1039
0001
0000
1000
0000
0100
0000
0010
0000
0001
0010
0001
0000
1000
0000
0100
0000
,  // measure 1040
0010
0001
0010
0100
1000
0100
0001
0100
,  // measure 1041
1000
0000
0001
0000
0100
0000
0010
0000
1000
0100
1000
0000
0001
0000
0010
0000
,  // measure 1042
1000
0000
0010
0000
0001
0000
0100
0000
1000
0100
1000
0000
0100
0000
0001
0000
,  // measure 1043
1000
0000
0100
0000
0001
0000
0100
0000
1000
0010
1000
0000
0001
0000
0100
0000
,  // measure 1044
1000
0000
0100
0000
0001
0000
0010
0000
1000
0010
1000
0000
0010
0000
0100
0000
,  // measure 1045
1000
0110
0001
0110
0010
0010
0100
1000
,  // measure 1046
2000
0000
3001
0001
0200
0000
0310
0010
,  // measure 1047
1000
0001
0010
0001
2000
0000
3100
0010
,  // measure 1048
0001
0100
0001
1000
0200
0000
0000
0310
,  // measure 1049
0110
0000
0000
0000
0001
0001
1000
0100
,  // measure 1050
0020
0000
0031
0001
2000
0000
3100
0100
,  // measure 1051
0010
0100
1000
0001
0200
0000
0310
0010
,  // measure 1052
1000
0000
0010
0000
0100
0000
0010
0000
0100
0000
0000
0001
0000
0000
0202
0000
,  // measure 1053
0000
0000
0000
0000
0300
0000
0000
0000
1000
0000
0000
0100
0000
0000
2003
0000
,  // measure 1054
0100
0000
0000
0010
0000
0000
3200
0000
0010
0000
0000
1000
0000
0000
0320
0000
,  // measure 1055
0001
0000
0000
0000
0200
0000
0000
0000
0330
0000
0000
0000
0000
0000
1000
0001
,  // measure 1056
1000
0000
0000
0000
1001
0000
0000
0000
0010
0000
0000
1000
0000
0000
0100
0000
,  // measure 1057
2100
0000
0000
0000
0100
0000
0000
0000
0001
0000
0000
0100
0000
0000
3002
0000
,  // measure 1058
0100
0000
0000
0010
0000
0000
0203
0000
0010
0000
0000
0001
0000
0000
0320
0000
,  // measure 1059
1000
0000
0000
0100
0000
0000
2030
0000
3001
0000
0000
0000
1001
0000
0000
0000
,  // measure 1060
0010
0000
0000
0001
0000
0000
0100
0000
0201
0000
0000
0000
0000
0000
0310
0000
,  // measure 1061
0010
0000
0000
0000
0000
0000
0000
0000
0110
0000
0001
0100
0000
0000
0010
0000
,  // measure 1062
1000
0000
0100
0010
0000
0000
0001
0000
1000
0000
0001
0100
0000
0000
0100
0000
,  // measure 1063
0010
0000
1000
0001
0000
0000
0010
0000
0100
0000
1000
0010
0000
0000
0100
0000
,  // measure 1064
0001
0000
1000
0010
0000
0000
0100
0000
0010
0000
1000
0100
0000
0000
1000
0000
,  // measure 1065
0001
0000
0010
0100
0000
0000
0010
0000
0100
0000
0001
0100
0000
0000
0010
0000
,  // measure 1066
1000
0000
0100
0010
0000
0000
0001
0000
1000
0000
0001
0100
0000
0000
0100
0000
,  // measure 1067
0010
0000
1000
0001
0000
0000
0010
0000
0100
0000
1000
0010
0000
0000
0100
0000
,  // measure 1068
0001
0000
1000
0010
0000
0000
0100
0000
0010
0000
1000
0100
0000
0000
1000
0000
,  // measure 1069
0001
0000
0010
0100
0000
0000
1000
0000
0010
0000
0010
0000
0100
0000
0001
0000
,  // measure 1070
0002
0000
1003
1000
0200
0000
0310
0010
,  // measure 1071
0001
1000
0010
1000
0002
0000
0103
0010
,  // measure 1072
1000
0100
1000
0001
0200
0000
0000
0310
,  // measure 1073
0110
0000
0000
0000
1000
1000
0001
0100
,  // measure 1074
0020
0000
1030
1000
0002
0000
0103
0100
,  // measure 1075
0010
0100
0001
1000
0200
0000
0310
0010
,  // measure 1076
0001
0000
0010
0000
0100
0000
0010
0000
0100
0000
0000
1000
0000
0000
2200
0000
,  // measure 1077
0000
0000
0000
0000
0300
0000
0000
0000
0001
0000
0000
0100
0000
0000
3002
0000
,  // measure 1078
0100
0000
0000
0010
0000
0000
0203
0000
0010
0000
0000
0001
0000
0000
0320
0000
,  // measure 1079
1000
0000
0000
0000
0200
0000
0000
0000
0330
0000
0000
0000
0000
0000
0001
1000
,  // measure 1080
0001
0000
0000
0000
1001
0000
0000
0000
0010
0000
0000
0001
0000
0000
0100
0000
,  // measure 1081
0102
0000
0000
0000
0100
0000
0000
0000
1000
0000
0000
0100
0000
0000
2003
0000
,  // measure 1082
0100
0000
0000
0010
0000
0000
3200
0000
0010
0000
0000
1000
0000
0000
0320
0000
,  // measure 1083
0001
0000
0000
0100
0000
0000
0032
0000
1003
0000
0000
0000
1001
0000
0000
0000
,  // measure 1084
0010
0000
0000
1000
0000
0000
0100
0000
1200
0000
0000
0000
0000
0000
0010
0000
,  // measure 1085
0310
0000
0000
0000
0000
0000
0000
0000
1001
0000
0100
0010
0000
0000
0001
0000
,  // measure 1086
1000
0000
0001
0100
0000
0000
0100
0000
0010
0000
1000
0001
0000
0000
0010
0000
,  // measure 1087
0100
0000
1000
0010
0000
0000
0100
0000
0001
0000
1000
0010
0000
0000
0100
0000
,  // measure 1088
0010
0000
1000
0100
0000
0000
1000
0000
0001
0000
0010
0100
0000
0000
0010
0000
,  // measure 1089
0100
0000
0001
0100
0000
0000
0010
0000
1000
0000
0100
0010
0000
0000
0001
0000
,  // measure 1090
1000
0000
0001
0100
0000
0000
0100
0000
0010
0000
1000
0001
0000
0000
0010
0000
,  // measure 1091
0100
0000
1000
0010
0000
0000
0100
0000
0001
0000
1000
0010
0000
0000
0100
0000
,  // measure 1092
0010
0000
1000
0100
0000
0000
1000
0000
0001
0000
0010
0100
0000
0000
1000
0000
,  // measure 1093
0100
0020
0000
0032
0000
0000
0000
0000
,  // measure 1094
1003
0000
0010
0100
0000
0110
0000
0001
,  // measure 1095
0100
0010
1000
0100
0020
0000
0031
2000
,  // measure 1096
0000
3100
0000
2000
0000
3002
0000
0103
,  // measure 1097
0010
2000
0000
0000
0002
0000
3003
0000
,  // measure 1098
0210
0000
0310
2000
0000
3001
0000
0000
,  // measure 1099
0010
0000
0000
1000
0000
0000
0100
0000
2100
0000
0000
0000
0000
0000
0001
0000
,  // measure 1100
3001
0000
0000
0000
0010
0100
1000
0001
,  // measure 1101
0010
0000
0000
1010
0000
0000
0110
0000
0000
0000
0000
0000
0000
0000
0001
0000
,  // measure 1102
0100
0000
0000
0010
0000
0000
1000
0000
0101
0000
0000
0000
0000
0000
0001
0000
,  // measure 1103
0010
0000
0000
0100
0000
0000
1000
0000
0011
0000
0000
0000
0000
0000
0100
0000
,  // measure 1104
0010
0000
0000
0001
0000
0000
0100
0000
1010
0000
0000
0000
0000
0000
0100
0000
,  // measure 1105
0001
0000
0000
0010
0000
0000
0100
0000
0110
0000
0000
0000
0000
0000
1000
0000
,  // measure 1106
0010
0000
0000
1000
0000
0000
0001
0000
1001
0000
0000
0000
0000
0000
0001
1000
,  // measure 1107
0001
1000
0100
0010
0002
0000
0000
1003
,  // measure 1108
1001
0000
0000
0000
0000
0000
0000
0000
0001
0100
0001
0000
1000
0100
1000
0000
,  // measure 1109
0001
0010
0001
0000
1000
0100
1000
0000
0002
0000
0000
0000
0000
0000
0000
0000
,  // measure 1110
0203
0000
0000
0320
2030
0000
0002
3000
,  // measure 1111
1000
0000
0023
0230
2000
0000
0300
0000
,  // measure 1112
0020
3000
0000
2030
0002
0000
3003
0000
,  // measure 1113
0010
0000
0000
0000
0100
0000
0000
0000
0110
0000
0001
0100
0000
0000
0010
0000
,  // measure 1114
1000
0000
0100
0010
0000
0000
0001
0000
1000
0000
0001
0100
0000
0000
0100
0000
,  // measure 1115
0010
0000
1000
0001
0000
0000
0010
0000
0100
0000
1000
0010
0000
0000
0100
0000
,  // measure 1116
0001
0000
1000
0010
0000
0000
0100
0000
0010
0000
1000
0100
0000
0000
1000
0000
,  // measure 1117
0001
0000
0010
0100
0000
0000
0010
0000
0100
0000
0001
0100
0000
0000
0010
0000
,  // measure 1118
1000
0000
0100
0010
0000
0000
0001
0000
1000
0000
0001
0100
0000
0000
0100
0000
,  // measure 1119
0010
0000
1000
0001
0000
0000
0010
0000
0100
0000
1000
0010
0000
0000
0100
0000
,  // measure 1120
0001
0000
1000
0010
0000
0000
0100
0000
0010
0000
1000
0100
0000
0000
1000
0000
,  // measure 1121
0001
0000
0010
0100
0000
0000
1000
0000
0010
0000
0100
0001
0000
0000
0001
0000
,  // measure 1122
1000
0000
0100
1000
0000
0000
0100
0000
0010
0000
0001
0100
0000
0000
0100
0000
,  // measure 1123
0010
0000
0010
1000
0000
0000
0100
0000
0010
0000
0001
0100
0000
0000
0001
0000
,  // measure 1124
1000
0000
0010
1000
0000
0000
0100
0000
0010
0000
0010
0001
0000
0000
1000
0000
,  // measure 1125
0100
0000
0100
0010
0000
0000
0001
0000
1000
0000
0010
0100
0000
0000
0010
0000
,  // measure 1126
1000
0000
0100
1000
0000
0000
0001
0000
0100
0000
0010
1000
0000
0000
0001
0000
,  // measure 1127
0010
0000
0001
1000
0000
0000
0100
0000
1000
0000
0010
0100
0000
0000
0001
0000
,  // measure 1128
0010
0000
0010
0100
0000
0000
1000
0000
0001
0000
1000
0001
0000
0000
0010
0000
,  // measure 1129
0100
0000
0010
0100
0000
0000
0110
0000
1000
0010
1000
0000
0001
0000
0100
0000
,  // measure 1130
0010
1000
0010
0100
0001
0100
1000
0100
,  // measure 1131
0001
0000
1000
0000
0100
0000
0010
0000
0001
0010
0001
0000
1000
0000
0100
0000
,  // measure 1132
0010
0001
0010
0100
1000
0100
0001
0100
,  // measure 1133
1000
0000
0001
0000
0100
0000
0010
0000
1000
0100
1000
0000
0001
0000
0010
0000
,  // measure 1134
1000
0000
0010
0000
0001
0000
0100
0000
1000
0100
1000
0000
0100
0000
0001
0000
,  // measure 1135
1000
0000
0100
0000
0001
0000
0100
0000
1000
0010
1000
0000
0001
0000
0100
0000
,  // measure 1136
1000
0000
0100
0000
0001
0000
0010
0000
1000
0010
1000
0000
0010
0000
0100
0000
,  // measure 1137
1000
0000
0010
0000
0001
0000
0010
0000
1000
0001
0000
0001
1000
0000
0010
0000
,  // measure 1138
0100
0000
0001
0000
1000
0000
0001
0000
0100
0010
0000
0010
0100
0000
0001
0000
,  // measure 1139
1000
0000
0100
0000
0010
0000
0010
0000
0001
1000
0000
1000
0001
0000
0010
0000
,  // measure 1140
0100
0000
1000
0000
0001
0000
1000
0000
0100
0010
0000
0010
0100
0000
1000
0000
,  // measure 1141
0001
0000
0100
0000
0010
0000
0010
0000
1000
0100
0000
0100
1000
0000
0001
0000
,  // measure 1142
0100
0000
0010
0000
0100
0000
0001
0000
0010
0001
0000
0001
0010
0000
0100
0000
,  // measure 1143
1000
0000
0010
0000
1000
0000
1000
0000
0001
0100
0000
0100
0001
0000
0100
0000
,  // measure 1144
0010
0000
1000
0000
0100
0000
1000
0000
0010
1000
0000
1000
0010
0000
0100
0000
,  // measure 1145
0001
0000
0010
0000
0001
0000
0000
1000
0000
1000
0000
0010
0000
0100
0000
0001
,  // measure 1146
0000
0001
0000
0010
0000
0100
0000
1000
0000
1000
0000
0001
0000
0100
0000
0010
,  // measure 1147
0000
0010
0000
1000
0000
0001
0000
0010
0000
0010
0000
0100
0000
1000
0000
0001
,  // measure 1148
0000
0001
0000
0010
0000
0100
0000
1000
0000
1000
0000
0001
0000
0100
0000
0100
,  // measure 1149
0000
0010
0000
0010
0000
1000
0000
0001
0000
0001
0000
0100
0000
0010
0000
1000
,  // measure 1150
0000
1000
0000
0010
0000
0100
0000
0001
0000
0001
0000
1000
0000
0100
0000
0010
,  // measure 1151
0000
0010
0000
0001
0000
1000
0000
0100
0000
0100
0000
0010
0000
0001
0000
1000
,  // measure 1152
0000
1000
0000
0100
0000
0010
0000
0000
0110
0000
0000
0000
0000
0000
0000
0000
,  // measure 1153
2002
3000
0000
1003
0020
0000
1030
0200
,  // measure 1154
0000
2300
0000
3100
0010
0000
0010
0002
,  // measure 1155
0000
0000
1003
0001
0200
0000
0310
0110
,  // measure 1156
0000
1001
0000
2002
0000
0000
0000
0003
,  // measure 1157
0000
0000
0000
3001
0020
0000
0031
0200
,  // measure 1158
0000
0302
0000
0103
0010
0000
0010
2000
,  // measure 1159
0000
0000
3001
1000
0200
0000
0310
0110
,  // measure 1160
0000
0100
0000
0220
0000
0000
0000
0030
,  // measure 1161
0000
0000
0000
1300
0200
0000
0310
0020
,  // measure 1162
0000
0230
0000
1300
0002
0000
0103
0020
,  // measure 1163
0000
0000
1030
0001
0020
0000
0130
0110
,  // measure 1164
0000
1001
0000
2002
0000
0000
3000
0000
,  // measure 1165
0003
0010
1000
1000
0020
0000
0100
0230
,  // measure 1166
0000
1300
0001
0020
0000
0000
0000
0130
,  // measure 1167
1000
0100
0001
0100
1000
0000
0001
1000
,  // measure 1168
0000
0000
0001
1000
0000
0000
0000
1001
,  // measure 1169
1100
0000
0101
0000
1010
0000
0010
1000
,  // measure 1170
0000
1000
0001
0100
0010
0000
0110
0000
,  // measure 1171
0110
1010
0101
0001
,  // measure 1172
1000
0100
0000
2002
0000
0000
3003
0000
,  // measure 1173
0001
0000
0000
0100
0000
0000
0010
0000
0010
0000
0000
0000
1000
0000
0200
0000
,  // measure 1174
0000
0000
0000
0000
0000
0000
0310
0000
0001
0000
0000
0100
0000
0000
0020
0000
,  // measure 1175
0000
0000
0000
0000
0000
0000
1030
0000
0001
0000
0000
0001
0000
0000
0001
0000
,  // measure 1176
1000
0000
0000
1000
0000
0000
1000
0000
1001
0000
0000
0000
0000
0000
0100
0000
,  // measure 1177
2002
0000
0000
0000
0000
0000
0000
3003
,  // measure 1178
0000
0001
1000
0010
2000
0000
0000
3001
,  // measure 1179
0200
0000
0000
0320
0000
1030
0100
0010
,  // measure 1180
0000
0010
0001
1000
0200
0000
0000
2300
,  // measure 1181
0100
0000
3001
0100
0000
0110
2002
0000
,  // measure 1182
0000
3003
0000
0010
0102
0000
0013
1020
,  // measure 1183
0000
0000
0000
0130
1200
0000
0310
0002
,  // measure 1184
0000
1003
0010
0100
0010
1000
0100
0010
,  // measure 1185
0020
0000
0100
0200
0000
0000
0000
0000
,  // measure 1186
0000
0000
0000
0330
,  // measure 1187
0000
0000
0000
0000
0000
0000
0000
0000
0001
0100
0000
0010
0000
0000
0110
0000
,  // measure 1188
0010
1000
0000
0001
0000
0000
1002
0000
0000
0000
0000
0000
0000
0000
0000
0000
,  // measure 1189
2000
0003
0000
0000
0200
0000
3000
0000
,  // measure 1190
0000
0000
0000
0020
0000
0300
0000
0000
,  // measure 1191
0031
0000
0000
0000
0000
0000
1001
0000
0001
0010
0000
0100
0000
0000
0110
0000
,  // measure 1192
0100
1000
0000
0001
0000
0000
2001
0000
0000
0000
0000
0000
0000
0000
0000
0000
,  // measure 1193
0002
3000
0000
0000
0200
0000
0003
0000
,  // measure 1194
0000
0000
0000
0020
0000
0300
0000
0000
,  // measure 1195
1030
0000
0000
0000
0000
0000
0000
0000
1000
0100
0000
0010
0000
0000
0110
0000
,  // measure 1196
0010
0001
0000
0100
0000
0000
0120
0000
0000
0000
0000
0000
0000
0000
0000
0000
,  // measure 1197
2000
0030
0000
0000
0200
0000
3000
0000
,  // measure 1198
0000
0000
0000
0020
0000
0300
0000
0000
,  // measure 1199
0031
0000
0000
0000
0000
0000
0110
0000
0001
0100
0000
0010
0000
0000
0110
0000
,  // measure 1200
0010
1000
0000
0100
0000
0000
0120
0000
0000
0000
0000
0000
0000
0000
0000
0000
,  // measure 1201
0002
0030
0000
0000
0200
0000
0003
0000
,  // measure 1202
0000
0000
0000
0020
0000
0300
0000
0000
,  // measure 1203
1030
0000
0000
0000
0000
0000
0000
0000
0001
0100
0000
0010
0000
0000
1000
0000
,  // measure 1204
0001
0100
0000
0001
0000
0000
1000
0000
0100
0010
0000
0001
0000
0000
1000
0000
,  // measure 1205
0001
0010
0000
0100
0000
0000
1000
0000
0010
0100
0000
0001
0000
0000
1000
0000
,  // measure 1206
0001
0100
0000
0001
0000
0000
0010
0000
1000
0100
0000
0001
0000
0000
0100
0000
,  // measure 1207
0010
1000
0000
0001
0000
0000
1000
0000
0100
1000
0000
0010
0000
0000
0100
0000
,  // measure 1208
0001
1000
0000
0010
0000
0000
0100
0000
1000
0100
0000
0001
0000
0000
0010
0000
,  // measure 1209
1000
0100
0000
0010
0000
0000
1000
0000
0100
0010
0000
0010
0000
0000
0001
0000
,  // measure 1210
0100
0010
0000
1000
0000
0000
0001
0000
1000
0010
0000
0100
0000
0000
0001
0000
,  // measure 1211
1000
0100
0000
0000
0010
0000
0001
0000
2000
0000
0000
0000
0000
0000
3001
0000
,  // measure 1212
0200
0000
0000
0320
0000
1030
0100
0010
,  // measure 1213
0000
0010
0001
1000
0200
0000
0000
2300
,  // measure 1214
0100
0000
3001
0100
0000
0110
2002
0000
,  // measure 1215
0000
3003
0000
0010
0001
0000
0001
0200
,  // measure 1216
0000
0000
0000
0310
1000
0000
1000
0200
,  // measure 1217
0000
0000
0000
0000
0310
0001
0010
0100
,  // measure 1218
0020
0000
0100
0200
0000
0000
0000
0000
,  // measure 1219
0330
0000
0000
0000
0000
0000
0000
0000
0010
0001
0000
0100
0000
0000
0110
0000
,  // measure 1220
0010
1000
0000
0100
0000
0000
0110
0000
0100
1000
0000
0010
0000
0000
0110
0000
,  // measure 1221
0100
0001
0000
0010
0000
0000
0110
0000
0010
0001
0000
0100
0000
0000
0110
0000
,  // measure 1222
0010
1000
0000
0100
0000
0000
0110
0000
0010
0001
0000
0100
0000
0000
0110
0000
,  // measure 1223
0010
1000
0000
0100
0000
0000
0110
0000
0010
0001
0000
1000
0000
0000
1001
0000
,  // measure 1224
0010
1000
0000
0001
0000
0000
1001
0000
0100
0001
0000
1000
0000
0000
1001
0000
,  // measure 1225
0100
1000
0000
0001
0000
0000
1001
0000
1000
0001
0000
1000
0001
1000
0000
0001
,  // measure 1226
0010
0001
0000
0010
0100
0010
0000
0100
1000
0100
0000
1000
0010
1000
0000
0010
,  // measure 1227
0100
0010
0000
0100
0001
0100
0000
0000
0002
0000
0010
0000
0010
0000
0013
0000
,  // measure 1228
0020
0100
0100
0130
0200
1000
1000
1300
,  // measure 1229
2000
0010
0010
3010
0020
0100
0100
0130
,  // measure 1230
0200
0001
0001
0301
0002
1000
1000
1003
,  // measure 1231
2000
0000
0001
0000
0001
0000
3001
0000
0001
0100
0000
0010
0000
0000
1000
0000
,  // measure 1232
0001
0100
0000
0001
0000
0000
1000
0000
0100
0010
0000
0001
0000
0000
1000
0000
,  // measure 1233
0001
0010
0000
0100
0000
0000
1000
0000
0010
0100
0000
0001
0000
0000
1000
0000
,  // measure 1234
0001
0100
0000
0001
0000
0000
0010
0000
1000
0100
0000
0001
0000
0000
0100
0000
,  // measure 1235
0010
1000
0000
0001
0000
0000
1000
0000
0100
1000
0000
0010
0000
0000
0100
0000
,  // measure 1236
0001
1000
0000
0010
0000
0000
0100
0000
1000
0100
0000
0001
0000
0000
0010
0000
,  // measure 1237
1000
0100
0000
0010
0000
0000
1000
0000
0100
0010
0000
1000
0000
0000
0001
0000
,  // measure 1238
0100
0010
0000
1000
0000
0000
0001
0000
1000
0010
0000
0100
0000
0000
0001
0000
,  // measure 1239
1000
0100
0000
0001
0000
0000
0100
0000
0010
0001
0000
0100
0000
0000
0110
0000
,  // measure 1240
0010
1000
0000
0100
0000
0000
0110
0000
0100
1000
0000
0010
0000
0000
0110
0000
,  // measure 1241
0100
0001
0000
0010
0000
0000
0110
0000
0010
0001
0000
0100
0000
0000
0110
0000
,  // measure 1242
0010
1000
0000
0100
0000
0000
0110
0000
0010
0001
0000
0100
0000
0000
0110
0000
,  // measure 1243
0010
1000
0000
0100
0000
0000
0110
0000
0010
0001
0000
0100
0000
0000
0110
0000
,  // measure 1244
0010
1000
0000
0100
0000
0000
0110
0000
0100
1000
0000
0010
0000
0000
0110
0000
,  // measure 1245
0100
0001
0000
0010
0000
0000
0110
0000
0010
0001
0000
0100
0000
0000
0110
0000
,  // measure 1246
0010
1000
0000
0100
0000
0000
0110
0000
0000
0001
0000
1000
0000
1000
0000
0100
,  // measure 1247
0000
0010
0000
0001
0000
0001
0000
0100
0000
0010
0000
1000
0000
1000
0000
0010
,  // measure 1248
0000
0100
0000
0001
0000
0001
0000
1000
0000
0100
0000
0010
0000
0010
0000
0001
,  // measure 1249
0000
1000
0000
0100
0000
0100
0000
0010
0000
0001
0000
1000
0000
1000
0000
0100
,  // measure 1250
0000
0010
0000
0001
0000
0001
0000
1000
0000
0100
0000
0010
0000
0010
0000
0001
,  // measure 1251
0000
1000
0000
0100
0000
0100
0000
0010
0000
0001
0000
1000
0000
1000
0000
0100
,  // measure 1252
0000
0010
0000
0001
0000
0001
0000
1000
0000
0000
0010
0000
0100
0000
0001
0000
,  // measure 1253
1000
0010
0100
0001
1000
0100
0010
0100
,  // measure 1254
0010
0000
0001
0000
0100
0000
0010
0000
0110
0000
0000
0010
1000
0000
0001
0000
,  // measure 1255
0100
0000
0000
0001
1000
0000
0000
0000
1001
0000
0000
0000
0100
0000
1001
0000
,  // measure 1256
0000
0010
1000
0010
0101
0000
1000
0101
,  // measure 1257
0000
1000
0100
1000
0011
0000
0100
0011
,  // measure 1258
0000
0010
0100
0010
1100
0000
0001
1100
,  // measure 1259
0000
0001
0100
0001
0110
0000
1000
0110
,  // measure 1260
0000
0001
1000
0001
1001
0000
0100
1001
,  // measure 1261
0000
0010
1000
0010
0101
0000
1000
0101
,  // measure 1262
0000
1000
0100
1000
0011
0000
0100
0011
,  // measure 1263
0000
0010
0100
0010
1100
0000
0001
1100
,  // measure 1264
0000
0001
0100
0001
0110
0000
1000
0110
,  // measure 1265
0000
1000
0001
1000
1001
0000
0100
1001
,  // measure 1266
0000
0010
1000
0010
0101
0000
1000
0101
,  // measure 1267
0000
1000
0100
1000
0011
0000
0100
0011
,  // measure 1268
0000
0000
0001
0000
0100
0000
0010
0000
0100
0000
0001
0000
1000
0000
0100
0010
,  // measure 1269
0100
1010
0011
0000
2002
0000
0000
3003
,  // measure 1270
0000
0000
0000
1001
0000
0000
0110
0000
1001
0000
0000
0000
0001
0000
0000
0000
,  // measure 1271
2001
0100
3001
1001
,  // measure 1272
0100
0000
0000
0001
0000
0000
0100
0000
0010
0000
0000
0000
0120
0000
0000
0000
,  // measure 1273
0000
2030
0000
3001
0100
0000
1002
0000
,  // measure 1274
2003
0000
0000
0000
0000
0000
3010
0000
1000
0000
0000
0100
0000
0000
0200
0000
,  // measure 1275
0000
0000
0000
0000
0000
0000
0310
0000
0001
0000
0000
0100
0000
0000
0200
0000
,  // measure 1276
0000
0000
0020
0330
,  // measure 1277
0010
0000
0000
0000
1000
0000
0000
0000
0001
0000
0000
0010
0100
0000
1000
0000
,  // measure 1278
0010
0000
0000
0100
0001
0000
0000
0000
0010
0000
0000
0100
1000
0000
0010
0000
,  // measure 1279
0100
0000
0000
0001
0010
0000
0000
0000
0100
0000
0000
1000
0010
0000
0100
0000
,  // measure 1280
0001
0000
0000
0010
0100
0000
0000
0000
1000
0000
0000
0010
0100
0000
0001
0000
,  // measure 1281
0010
0000
0000
0100
1000
0000
0000
0000
0010
0000
0000
0100
0001
0000
0010
0000
,  // measure 1282
0100
0000
0000
1000
0010
0000
0000
0000
0100
0000
0000
0001
0010
0000
0100
0000
,  // measure 1283
1000
0000
0000
0010
0100
0000
0000
0000
0100
0000
0010
0000
0001
0000
0100
0000
,  // measure 1284
0010
0000
1000
0000
0001
0000
0100
0000
0010
0000
0000
1000
0100
0000
0010
0000
,  // measure 1285
0001
0000
0000
0100
0010
0000
0000
0000
1000
0000
0000
0100
0010
0000
0001
0000
,  // measure 1286
0100
0000
0000
0010
1000
0000
0000
0000
0100
0000
0000
0010
0001
0000
0100
0000
,  // measure 1287
0010
0000
0000
1000
0100
0000
0000
0000
0010
0000
0000
0001
0100
0000
0010
0000
,  // measure 1288
1000
0000
0000
0100
0010
0000
0000
0000
0001
0000
0000
0100
0010
0000
1000
0000
,  // measure 1289
0100
0000
0000
0010
0001
0000
0000
0000
0100
0000
0000
0010
1000
0000
0100
0000
,  // measure 1290
0010
0000
0000
0001
0100
0000
0000
0000
0010
0000
0000
1000
0100
0000
0010
0000
,  // measure 1291
0001
0000
0000
0100
0010
0000
0000
0000
0100
0000
0010
0000
1000
0000
0100
0000
,  // measure 1292
0010
0000
0001
0000
1000
0000
0100
0000
0010
0000
0000
0001
0100
0000
0010
0000
,  // measure 1293
1000
0000
0000
0100
0010
0000
0000
0000
0001
0000
0000
0100
0010
0000
1000
0000
,  // measure 1294
0100
0000
0000
0010
0001
0000
0000
0000
0100
0000
0000
0010
1000
0000
0100
0000
,  // measure 1295
0010
0000
0000
0001
0100
0000
0000
0000
0010
0000
0000
1000
0100
0000
0010
0000
,  // measure 1296
0001
0000
0000
0100
0010
0000
0000
0000
1000
0000
0000
0100
0010
0000
0001
0000
,  // measure 1297
0100
0000
0010
0000
1000
0000
0000
0000
0100
0000
0000
0010
0001
0000
0100
0000
,  // measure 1298
0010
0000
1000
0000
0100
0000
0000
0000
0010
0000
0000
0001
0100
0000
0010
0000
,  // measure 1299
1000
0100
0010
0000
0120
0130
0210
0310
,  // measure 1300
2001
3001
1002
1003
0100
0010
0100
0010
,  // measure 1301
0001
0000
0100
0000
0001
0100
0001
0000
1000
0000
0100
0000
0010
0000
0100
0000
,  // measure 1302
1000
0000
0100
0000
0010
0001
0010
0000
0001
0000
1000
0000
0100
0000
0010
0000
,  // measure 1303
0100
1000
0001
0100
0010
0010
1000
0001
,  // measure 1304
1000
0000
0000
0100
0000
0000
0010
0000
0020
0000
0031
0000
0100
0000
0010
0000
,  // measure 1305
1000
0000
0100
0000
1000
0100
1000
0000
0001
0000
0100
0000
0010
0000
0100
0000
,  // measure 1306
0001
0000
0100
0000
0010
1000
0010
0000
1000
0000
0001
0000
0100
0000
0010
0000
,  // measure 1307
0100
0001
1000
0100
0010
0010
0001
1000
,  // measure 1308
0001
0000
0000
0100
0000
0000
0010
0000
0020
0000
1030
0000
0010
0000
0100
0000
,  // measure 1309
0001
0000
0010
0000
0001
0010
0001
0000
1000
0000
0010
0000
0100
0000
0010
0000
,  // measure 1310
1000
0000
0010
0000
0100
0001
0100
0000
0001
0000
1000
0000
0010
0000
0100
0000
,  // measure 1311
0010
1000
0001
0010
0100
0100
1000
0001
,  // measure 1312
1000
0000
0000
0010
0000
0000
0100
0000
0200
0000
0301
0000
0010
0000
0100
0000
,  // measure 1313
1000
0000
0010
0000
1000
0010
1000
0000
0001
0000
0010
0000
0100
0000
0010
0000
,  // measure 1314
0001
0000
0010
0000
0100
1000
0100
0000
1000
0000
0001
0000
0010
0000
0100
0000
,  // measure 1315
0010
0001
1000
0010
0100
0100
0001
1000
,  // measure 1316
0001
0000
0000
0010
0000
0000
0100
0000
0200
0000
0000
0000
2300
0000
0000
0000
,  // measure 1317
3020
0000
0130
0010
0100
0000
0110
0000
,  // measure 1318
1000
0010
0000
0001
0010
0000
1001
0000
,  // measure 1319
0010
0110
2002
0000
,  // measure 1320
3003
0000
1001
1001
,  // measure 1321
1000
0001
0000
0110
0000
0001
1100
0000
,  // measure 1322
0001
0101
0000
0110
0000
1000
0011
0000
,  // measure 1323
1000
1010
0000
1001
0000
0001
0101
1000
,  // measure 1324
0110
1001
1001
1001
,  // measure 1325
0001
1000
0000
0110
0000
1000
0101
0000
,  // measure 1326
1000
1100
0000
0110
0000
0001
1010
0000
,  // measure 1327
0001
0011
0000
1001
0000
1000
1100
0001
,  // measure 1328
0110
0000
1001
0000
0001
1000
0011
0100
,  // measure 1329
0010
0001
1100
0000
0001
1000
0101
0010
,  // measure 1330
0100
1000
0110
0000
0010
1000
0011
0100
,  // measure 1331
0010
1000
0101
0000
0100
0010
1001
0100
,  // measure 1332
0010
0001
1100
0000
0001
0000
1000
0100
,  // measure 1333
0010
0000
0001
0200
0000
0010
0000
0010
,  // measure 1334
0000
0010
0000
0310
1000
0000
0100
0010
,  // measure 1335
0001
0000
1000
0100
0010
0001
0110
1000
,  // measure 1336
0110
0001
0110
0000
2002
0000
0000
0000
,  // measure 1337
0000
0000
3003
0000
;

//---------------dance-single - ----------------
#NOTES:
     dance-single:
     :
     Hard:
     11:
     0.671,0.909,0.443,0.286,0.398,8748.000,977.000,630.000,0.000,0.000:  // measure 1
0000
0000
0000
0000
,  // measure 2
0000
0000
0000
0000
,  // measure 3
0000
0000
0000
0000
,  // measure 4
1001
0000
0000
1000
0000
0000
0001
0000
0110
0000
0000
0010
0000
0000
0100
0000
,  // measure 5
1001
0000
0000
0001
0000
0000
1000
0000
0110
0000
0000
0100
0000
0000
0010
0000
,  // measure 6
0001
0000
0000
1000
0000
0000
2200
0000
0000
0000
0000
0000
0000
0000
0000
0000
,  // measure 7
3300
0000
0000
0000
0010
0001
0100
0000
,  // measure 8
0002
0000
0000
0000
,  // measure 9
0003
0000
0000
0000
1001
0100
0010
0001
,  // measure 10
2000
0000
0000
3000
,  // measure 11
0010
0100
0010
0100
0000
0001
0010
0100
,  // measure 12
2001
0000
0000
3100
0000
0000
0120
0000
0000
0031
0000
0000
1000
0000
1000
0000
,  // measure 13
1002
0000
0000
0103
0000
0000
0120
0000
0000
1030
0000
0000
0001
0000
0001
0000
,  // measure 14
2001
0000
0000
3010
0000
0000
0210
0000
0000
0301
0000
0000
1000
0000
1000
0000
,  // measure 15
1002
0000
0000
0013
0000
0000
0210
0000
0000
1300
0000
0000
0001
0000
0001
0000
,  // measure 16
2000
0000
0000
3100
0000
0000
0020
0000
0000
0031
0000
0000
0100
0000
0010
0000
,  // measure 17
0200
0000
0000
0301
0000
0000
0020
0000
0000
1030
0000
0000
0100
0000
0010
0000
,  // measure 18
0002
0000
0000
0103
0000
0000
0020
0000
0000
1030
0000
0000
0100
0000
0010
0000
,  // measure 19
0100
0000
1000
0010
0000
0100
0001
1000
,  // measure 20
1100
0000
0000
0000
0000
0000
0000
0000
0000
0000
0000
0010
1000
0000
1001
0000
,  // measure 21
0100
0000
0000
1000
0001
0000
0000
0000
0010
0000
0000
0100
1000
0000
0001
0000
,  // measure 22
0100
0000
0000
1000
0001
0000
0000
0000
0010
0000
0000
0100
1000
0000
0001
0000
,  // measure 23
0100
0000
0000
0001
1000
0000
0000
0000
0010
0000
0000
0100
0001
0000
1000
0000
,  // measure 24
0100
0000
0000
0001
1000
0000
0000
0000
0010
0000
0000
0100
1000
0000
0001
0000
,  // measure 25
0100
0000
0000
0010
1000
0000
0000
0100
1000
0000
0000
0001
0100
0000
0001
0000
,  // measure 26
0010
0000
0000
0100
0001
0000
0000
0010
0001
0000
0000
1000
0010
0000
1000
0000
,  // measure 27
0001
0000
0000
0100
0010
0000
0100
0000
0001
1000
0000
0100
0010
0000
0100
0000
,  // measure 28
1000
0000
0000
0010
0100
0000
0010
0000
1000
0001
0000
0010
0100
0000
0010
0000
,  // measure 29
0001
0000
0000
0001
0000
0000
0002
0000
0000
0000
0000
0000
0000
0000
0000
0000
,  // measure 30
1000
0000
0000
1000
0000
0000
2000
0000
0000
0000
0000
3003
0000
0000
0000
0000
,  // measure 31
0000
0010
0000
0010
0100
0001
1000
0010
,  // measure 32
0100
0010
1000
0100
0000
0010
0001
0010
,  // measure 33
0000
0100
1000
0010
0100
0001
0010
0001
,  // measure 34
0000
1000
0010
1000
0001
0100
0001
0000
,  // measure 35
0000
0010
0100
1000
0010
0100
0001
0010
,  // measure 36
0100
1000
0100
1000
0000
0010
0001
0010
,  // measure 37
0000
0100
1000
1000
0001
0100
0010
1000
,  // measure 38
0000
0110
0101
1100
,  // measure 39
0010
0001
0010
0000
0100
0000
0000
0000
0010
0000
1000
0000
0001
0000
0100
0000
,  // measure 40
0010
1000
0010
0000
0100
0000
0000
0000
0010
0000
0001
0000
1000
0000
0001
0000
,  // measure 41
0000
0100
0010
0100
0000
0001
1000
0001
,  // measure 42
0100
0000
0010
0000
1000
0000
0100
0000
1000
0001
0100
0000
0001
0000
0000
0000
,  // measure 43
0010
1000
0010
0000
0100
0000
0000
0000
0010
0000
0001
0000
1000
0000
0100
0000
,  // measure 44
0010
0001
0010
0000
0100
0000
0000
0000
0010
0000
1000
0000
0001
0000
1000
0000
,  // measure 45
0000
0100
0010
1000
0100
0010
0001
2200
,  // measure 46
0000
0000
0000
0000
0000
3300
0000
0000
,  // measure 47
1002
0100
0000
1000
0000
0100
0000
0013
,  // measure 48
2001
0100
0000
0010
0000
0001
0000
3010
,  // measure 49
0102
0010
0000
1000
0000
0100
0000
0013
,  // measure 50
2100
0010
0000
0100
0000
3001
0100
0010
,  // measure 51
2002
0000
0000
0000
3003
0100
1000
0001
,  // measure 52
0202
0000
0000
0303
,  // measure 53
2020
0000
0000
3030
,  // measure 54
2200
0000
0000
0000
0000
0000
3300
0010
,  // measure 55
2002
0000
0000
0000
3003
0100
0010
0100
,  // measure 56
0220
0000
0000
0000
,  // measure 57
0330
0000
0000
0000
,  // measure 58
1100
0000
0000
0100
1000
0000
0010
0000
1001
0000
0000
0010
0001
0000
0100
0000
,  // measure 59
1010
0000
0000
0100
0001
0000
1000
0000
0110
0000
0000
0001
1000
0000
0001
0000
,  // measure 60
0010
0000
0100
1000
0000
0001
0200
0000
0000
0000
0010
0000
0310
0000
0000
0000
,  // measure 61
1000
0100
0001
0000
0001
0100
1000
0000
,  // measure 62
0010
1000
0010
1000
0010
1000
0010
1000
,  // measure 63
0001
0100
0001
0100
0001
0100
0010
1000
,  // measure 64
0002
0010
0013
0000
0200
1000
1300
0000
,  // measure 65
0010
0001
1000
1001
0000
0100
1000
0001
,  // measure 66
0101
0000
0000
0100
0001
0000
0010
0000
1001
0000
0000
0010
1000
0000
0100
0000
,  // measure 67
0011
0000
0000
0100
1000
0000
0001
0000
0110
0000
0000
1000
0001
0000
1000
0000
,  // measure 68
0010
0000
0100
0001
0000
1000
0200
0000
0000
0000
0010
0000
0310
0000
0000
0000
,  // measure 69
0001
0100
1000
0000
1000
0100
0001
0000
,  // measure 70
0010
0001
0010
0001
0010
0001
0010
0001
,  // measure 71
1000
0100
1000
0100
1000
0100
0010
0001
,  // measure 72
2000
0010
3010
0000
0200
0001
0301
0000
,  // measure 73
0010
1000
0001
0100
0010
1000
1001
0000
,  // measure 74
1002
0000
0000
0103
0000
0000
0120
0000
0000
1030
0000
0000
0001
0000
0001
0000
,  // measure 75
2001
0000
0000
3100
0000
0000
0120
0000
0000
0031
0000
0000
1000
0000
1000
0000
,  // measure 76
1002
0000
0000
0013
0000
0000
0210
0000
0000
1300
0000
0000
0001
0000
0001
0000
,  // measure 77
2001
0000
0000
3010
0000
0000
0210
0000
0000
0301
0000
0000
1000
0000
1000
0000
,  // measure 78
0002
0000
0000
0103
0000
0000
0020
0000
0000
1030
0000
0000
0100
0000
0010
0000
,  // measure 79
0200
0000
0000
1300
0000
0000
0020
0000
0000
0031
0000
0000
0100
0000
0010
0000
,  // measure 80
2000
0000
0000
3100
0000
0000
0020
0000
0000
0031
0000
0000
0100
0000
0010
0000
,  // measure 81
0100
0000
0000
1001
0000
0000
0010
0000
0000
1001
0000
0000
0100
0000
0010
0000
,  // measure 82
1000
0100
0001
0100
1000
0010
0001
0100
,  // measure 83
1000
0001
1000
0001
0100
0010
1000
0001
,  // measure 84
2000
0000
3020
0230
,  // measure 85
0002
0000
0000
0000
0300
0000
1000
1003
,  // measure 86
0000
0000
0200
0000
0320
0000
0032
2000
,  // measure 87
0000
0000
0000
0000
3000
0000
0100
0200
,  // measure 88
0000
0000
0000
0303
,  // measure 89
0010
1000
0100
0000
0220
0000
0330
0000
,  // measure 90
0010
0001
0100
0000
0110
0000
2002
0000
,  // measure 91
0000
3003
0100
1000
0020
0000
0000
0000
,  // measure 92
0000
0030
0020
0230
,  // measure 93
2000
0000
0000
0000
0300
0000
0001
3001
,  // measure 94
0000
0000
0200
0000
0320
0000
2030
0002
,  // measure 95
0000
0000
0000
0000
,  // measure 96
3003
0000
0000
0000
0000
0000
0010
0100
,  // measure 97
0020
0000
1000
0000
,  // measure 98
0100
0000
0031
0000
,  // measure 99
0220
0000
0000
0000
,  // measure 100
0000
0000
0330
0000
,  // measure 101
1000
0000
0100
0000
1000
0000
0100
0000
1000
0000
0001
0100
0001
0000
0110
0000
,  // measure 102
1000
0100
1000
0000
0001
0100
1000
0000
,  // measure 103
0010
0100
0001
0000
1000
0001
1000
0000
,  // measure 104
0100
0000
0010
1000
0010
0000
0000
0000
1000
0000
0001
0100
0001
0000
0000
0000
,  // measure 105
0010
0000
1000
0001
1000
0000
0000
0000
0100
0010
0100
0000
1000
0000
0001
0000
,  // measure 106
0100
0010
1000
0010
0100
0001
0100
0000
,  // measure 107
0010
0001
0010
0100
0010
1000
0100
0000
,  // measure 108
0010
0001
0100
1000
0100
0001
1000
1000
,  // measure 109
0200
1000
0010
1300
,  // measure 110
0100
0010
0001
0010
0100
1000
0100
0000
,  // measure 111
0010
1000
0010
0100
0010
0001
0100
0000
,  // measure 112
0010
1000
0100
0001
0100
1000
0001
0001
,  // measure 113
0200
0001
0010
0301
,  // measure 114
0010
1000
0001
0100
0001
1000
0100
0000
,  // measure 115
0010
0001
1000
0010
0100
0001
0100
0000
,  // measure 116
0010
1000
0100
0010
0100
1000
0001
0100
,  // measure 117
0020
1000
0100
1030
,  // measure 118
0010
0001
1000
0100
1000
0001
0100
0000
,  // measure 119
0010
1000
0001
0010
0100
1000
0100
0000
,  // measure 120
0010
0001
0100
0010
0100
0001
1000
0100
,  // measure 121
0020
0000
0001
0000
0100
0000
0031
1000
,  // measure 122
0010
0100
0101
0001
1000
0100
1100
1000
,  // measure 123
0001
0100
0000
0010
1000
0100
0010
0001
,  // measure 124
1001
0000
0000
1000
0000
0000
0001
0000
0000
0100
0000
0000
0010
0000
1000
0000
,  // measure 125
1001
0100
0010
0100
1001
0001
1000
0001
,  // measure 126
0010
0100
1100
1000
0001
0100
0101
0001
,  // measure 127
1000
0100
0000
0010
0001
0100
0010
1000
,  // measure 128
1001
0000
0000
0001
0000
0000
1000
0000
0000
0100
0000
0000
0010
0000
0001
0000
,  // measure 129
1001
0100
0010
0100
1001
1000
0001
0100
,  // measure 130
1010
0100
1001
0100
0011
0100
1001
0010
,  // measure 131
0100
0001
0000
0010
0100
1000
0010
0100
,  // measure 132
0110
0000
0001
1000
0000
0010
0100
0000
0001
0010
0000
0100
1000
0000
0010
0000
,  // measure 133
1001
0010
0100
0001
1001
0010
1000
0100
,  // measure 134
0011
0100
1001
0100
1010
0100
1001
0010
,  // measure 135
0100
1000
0000
0010
0100
0001
0010
0100
,  // measure 136
0110
0000
1000
0001
0000
0010
0100
0000
1000
0010
0000
0100
0001
0000
0010
0000
,  // measure 137
1001
0010
0100
1000
1001
0010
0100
0010
,  // measure 138
1000
0000
0101
1100
,  // measure 139
0010
0000
0001
0100
0000
0001
0010
0000
0001
1000
0000
0001
0100
0000
0001
0000
,  // measure 140
0010
0000
0001
0100
0000
0001
0010
0000
0001
1000
0000
0001
0100
0000
0001
0000
,  // measure 141
1000
0000
0100
1000
0000
0100
0010
0000
0100
0001
0000
0100
0010
0000
0100
0000
,  // measure 142
1000
0000
0100
1000
0000
0100
0010
0000
0100
0001
0000
0100
0010
0000
1000
0000
,  // measure 143
0001
0000
0100
1000
0000
0100
0001
0000
0100
1000
0000
0100
0001
0000
1000
0000
,  // measure 144
0001
0000
0100
1000
0000
0100
0001
0000
0100
1000
0000
0100
0001
0000
1000
0000
,  // measure 145
0001
0000
0100
0010
0000
0100
0001
0000
0100
0010
0000
0100
0001
0000
0100
0000
,  // measure 146
0010
0000
1000
0100
0000
0001
0100
0000
0010
0000
1000
0001
0000
0010
0001
0000
,  // measure 147
0010
0000
0100
1000
0000
0010
0100
0000
0001
0010
0000
0100
1000
0100
1000
0000
,  // measure 148
0010
0000
0100
0001
0000
0010
0100
0000
1000
0010
0000
0100
0001
0100
0001
0000
,  // measure 149
0100
0000
0010
1000
0000
0100
0010
0000
0001
0100
0000
0010
1000
0010
1000
0000
,  // measure 150
0100
0000
0010
0001
0000
0100
0010
0000
1000
0100
0000
0010
0001
0010
0001
0000
,  // measure 151
2200
3300
0202
0303
,  // measure 152
2020
3030
0022
0033
,  // measure 153
2002
0000
0000
0000
,  // measure 154
0000
0000
3003
0000
0010
1000
0001
0000
,  // measure 155
0110
1000
0100
0000
1001
0000
0101
0000
,  // measure 156
0110
0001
0100
0000
1001
0000
1100
0000
,  // measure 157
0110
0100
0001
0000
0110
0100
1000
0000
,  // measure 158
1001
0001
0100
0000
1001
1000
0100
0000
,  // measure 159
0011
1000
0100
0000
1010
0001
0100
0000
,  // measure 160
1100
0001
0010
0000
0101
1000
0010
0000
,  // measure 161
0100
0010
1001
0000
0010
0100
1001
0000
,  // measure 162
0101
0010
1000
0100
0010
0001
0100
0010
,  // measure 163
1000
0100
0000
0100
1000
0000
0010
0100
0000
0100
0001
0000
0010
0000
0000
0000
,  // measure 164
1000
0100
0000
0100
1000
0000
0010
0100
0000
0100
0001
0000
0010
0000
0010
0000
,  // measure 165
0001
0100
0000
0100
0010
0000
1000
0100
0000
0100
1000
0000
0010
0000
0000
0000
,  // measure 166
0001
0100
0000
0100
0010
0000
1000
0100
0000
0100
1000
0000
0010
0000
0010
0000
,  // measure 167
1000
0001
0000
0001
0100
0000
0100
0010
0000
0010
1000
0000
0001
0000
0100
0000
,  // measure 168
0001
1000
0000
1000
0100
0000
0100
0010
0000
0010
0001
0000
1000
0000
0100
0000
,  // measure 169
1000
0010
0000
0100
0001
0000
0010
1000
0000
0001
0100
0000
0001
0000
1000
0000
,  // measure 170
0001
0010
0000
0100
1000
0000
0010
0001
0000
1000
0100
0000
1000
0000
0001
0000
,  // measure 171
0100
0000
0010
0000
1001
0000
0000
0001
1000
0000
0000
1000
0001
0000
0000
0000
,  // measure 172
0100
0000
0010
0000
1001
0000
0000
1000
0001
0000
0000
0001
1000
0000
0000
0000
,  // measure 173
0010
0000
0100
0000
0101
0000
0000
0010
0100
0000
0000
0100
1000
0000
0000
0000
,  // measure 174
0010
0000
0100
0000
1100
0000
0000
0010
0100
0000
0000
0100
0001
0000
0000
0000
,  // measure 175
1000
0100
0011
0000
0001
0100
1010
0000
,  // measure 176
0001
1000
0110
0000
1000
0001
0110
0000
,  // measure 177
1000
0100
0101
0100
1000
0010
0011
0010
,  // measure 178
1000
0000
0000
0101
0000
0000
1100
0000
0000
1001
0000
0000
0010
0000
0100
0001
,  // measure 179
0100
0000
0000
0000
0010
0000
1000
0100
0000
0000
1000
0000
0010
0000
0010
0000
,  // measure 180
0100
0000
0001
0000
1000
0000
0010
0100
0000
0000
0000
0000
0010
0000
1000
0100
,  // measure 181
1000
0000
0000
0000
0001
0000
0100
0010
0000
0000
0100
0000
0001
0000
0001
0000
,  // measure 182
0010
0000
0100
0000
1000
0000
0100
0001
0000
0000
0000
0000
0010
0000
1000
0001
,  // measure 183
1000
0000
0000
0000
0100
0000
0010
0001
0000
0000
0100
0000
0010
0000
1000
0000
,  // measure 184
0100
0000
0010
0000
0100
0000
1000
0001
0100
0000
0000
0000
0010
0000
1000
0100
,  // measure 185
0000
0000
1000
0000
1000
0000
0001
0100
0000
0000
0010
0000
0010
0000
1000
0000
,  // measure 186
0100
0010
0001
1100
0000
0101
1001
0000
,  // measure 187
0110
0000
0000
0000
0101
0000
0000
0010
0000
1000
0000
0000
0100
0000
0000
0010
,  // measure 188
0000
0001
0000
0010
0001
0000
1000
0100
0000
1000
0000
0010
1000
0000
0000
0001
,  // measure 189
0000
0100
0000
0001
1000
0000
0000
0001
0000
0100
0000
0001
1000
0000
0000
0010
,  // measure 190
0000
0100
0000
0010
1000
0000
0000
0010
0000
0100
0000
0010
1000
0000
0000
0100
,  // measure 191
0000
0110
0000
0000
1001
0000
0000
0100
0000
1000
0000
0001
0010
0000
0000
0001
,  // measure 192
0000
1001
0000
0000
0110
0000
0000
1000
0000
0100
0000
1000
0010
0000
0000
0100
,  // measure 193
0000
0001
0000
0000
1001
0000
0000
1000
0000
0100
0000
0000
0110
0000
0001
1000
,  // measure 194
0001
0000
0110
1001
,  // measure 195
1000
0010
1000
0000
0001
0000
1000
0100
0000
1000
0010
0000
1000
0000
0001
0100
,  // measure 196
0000
0010
0000
0010
0100
0000
0001
0100
0000
0010
0000
0010
0100
0000
0001
1000
,  // measure 197
0000
0100
0000
1000
0100
0000
1000
0001
0000
1000
0100
1000
0100
0000
0010
0001
,  // measure 198
0000
1000
0000
0001
0010
0000
0001
1000
0000
0001
0010
0001
0010
0000
0000
0000
,  // measure 199
1000
0100
1000
0000
0010
0000
0100
0001
0000
0100
0010
1000
0010
0000
1000
0001
,  // measure 200
0000
0110
0000
1000
0001
0000
0100
0010
0000
1000
0100
1000
0010
0000
0100
0001
,  // measure 201
0000
1000
0000
0001
0100
0000
0010
1000
0000
0001
0000
1000
0010
0000
0100
0001
,  // measure 202
0000
0010
0000
0001
0100
0000
0010
1000
0000
0100
0000
1000
0010
0000
0100
0000
,  // measure 203
1001
0000
0000
0000
0010
0000
0001
0100
0000
0000
0001
0000
0010
0000
0010
0000
,  // measure 204
0100
0000
1000
0000
0001
0000
0010
0100
0000
0000
0000
0000
0010
0000
0001
0100
,  // measure 205
0001
0000
0000
0000
1000
0000
0100
0010
0000
0000
0100
0000
1000
0000
1000
0000
,  // measure 206
0010
0000
0100
0000
0001
0000
0100
1000
0000
0000
0000
0000
0010
0000
0001
1000
,  // measure 207
0001
0000
0000
0000
0100
0000
0010
1000
0000
0000
0100
0000
0010
0000
0001
0000
,  // measure 208
0100
0000
0010
0000
0100
0000
0001
1000
0100
0000
0000
0000
0010
0000
0001
0100
,  // measure 209
0000
0000
0001
0000
0001
0000
1000
0100
0000
0000
0010
0000
0010
0000
0001
0000
,  // measure 210
0100
0010
1000
0101
0000
1100
2002
0000
,  // measure 211
0000
0000
0000
0000
,  // measure 212
0000
0000
0000
0000
,  // measure 213
0000
0000
0000
0000
,  // measure 214
0000
0000
3003
0000
,  // measure 215
0100
1000
0010
0001
,  // measure 216
0100
1000
0010
0001
,  // measure 217
0100
1000
0010
0001
,  // measure 218
1001
0000
0000
0110
,  // measure 219
1001
0100
1000
0100
1000
0010
1000
0010
,  // measure 220
0001
0010
0001
0100
0001
0100
0001
0010
,  // measure 221
1000
0100
1000
0100
0001
0100
0001
0010
,  // measure 222
0001
0010
1000
0010
1000
0100
1000
0010
,  // measure 223
1001
0100
0001
0100
0001
0010
0001
0010
,  // measure 224
1000
0010
1000
0100
1000
0100
1000
0010
,  // measure 225
0001
0100
0001
0100
1000
0100
1000
0010
,  // measure 226
1000
0010
0001
0010
0001
0100
0001
0010
,  // measure 227
0110
0000
0000
0000
,  // measure 228
0000
0000
0000
0000
0010
0100
0000
0001
0000
0000
0100
0000
0010
0000
1000
0000
,  // measure 229
0000
0000
0000
0000
0100
1000
0000
0100
0000
0000
1000
0000
0001
0000
0000
0000
,  // measure 230
0000
0000
0000
0000
0010
1000
0000
0100
0000
0000
1000
0000
0010
0000
0100
0000
,  // measure 231
0000
0000
0000
0000
0001
0010
0000
0001
0000
0000
1000
0000
0010
0000
0000
0000
,  // measure 232
0000
0000
0000
0000
0100
0010
0000
1000
0000
0000
0010
0000
0100
0000
0001
0000
,  // measure 233
0000
0000
0000
0000
0010
0001
0000
0010
0000
0000
0001
0000
1000
0000
0000
0000
,  // measure 234
0000
0000
0000
0000
0100
0001
0000
0010
0000
0000
0001
0000
0100
0000
0010
0000
,  // measure 235
0000
0000
0000
0000
1000
0100
0000
1000
0000
0000
0001
0000
0100
0000
0010
1000
,  // measure 236
0020
0000
0000
0000
0000
0000
0000
0000
0030
0000
0000
0000
0000
0000
0001
0100
,  // measure 237
0002
0000
0000
0000
0000
0000
0000
0000
0003
0000
0000
0000
0000
0000
1000
0100
,  // measure 238
1000
0000
0000
0000
0000
0000
0001
0010
0001
0000
0000
0000
0000
0000
1000
0000
,  // measure 239
1010
0000
0000
0010
0110
0000
0000
0001
,  // measure 240
0101
0000
0000
0010
2002
0000
3003
0000
,  // measure 241
2200
3300
0202
0303
,  // measure 242
0022
0033
2020
3030
,  // measure 243
1100
0101
0011
1010
,  // measure 244
0001
0000
0001
0100
0000
0100
0001
0000
1000
0001
0000
0100
1000
0000
0010
0100
,  // measure 245
0010
0000
1000
0100
0000
0100
1000
0000
0010
0100
0000
0001
1000
0000
0010
0000
,  // measure 246
1000
0000
1000
0100
0000
0100
1000
0000
0001
1000
0000
0100
0001
0000
0010
0100
,  // measure 247
0010
0000
0001
0100
0000
0100
0001
0000
0010
0000
0100
0000
1000
0000
0001
0000
,  // measure 248
0100
0010
1000
0010
0100
0010
0001
0010
,  // measure 249
1000
0100
0010
0100
0001
0100
1000
0010
,  // measure 250
0100
0001
0100
0001
0100
0001
0100
0001
1000
0010
1000
0010
1000
0010
1000
0010
,  // measure 251
0100
0001
1000
0010
0100
0001
1000
0010
0100
0001
0010
0100
1000
0001
0010
0100
,  // measure 252
1000
1000
0010
0010
0100
0100
0001
0001
,  // measure 253
1100
0010
0100
0001
1100
0010
0100
0001
,  // measure 254
1000
0100
0010
0001
1001
0000
1001
0010
,  // measure 255
1001
0100
1000
0100
0010
0001
0010
0110
,  // measure 256
1000
0001
0010
0100
0010
1001
0100
1001
,  // measure 257
0010
0000
0100
0001
0000
0000
1000
0000
0010
0100
0000
0001
0000
0000
1000
0000
,  // measure 258
0010
0000
0100
0000
0010
0000
1000
0000
0001
0000
0000
0100
0010
0000
0000
0000
,  // measure 259
1000
0100
0001
0100
1000
0010
0001
0010
,  // measure 260
1000
0000
0100
0000
0010
0000
0001
0000
1100
0000
0000
0000
1001
0000
0000
0010
,  // measure 261
0100
0000
0000
0100
0001
0000
0000
0001
1000
0000
0000
1000
0100
0000
0000
0100
,  // measure 262
0010
0000
0001
0000
1000
0000
0100
0000
0010
0000
0000
0000
0110
0000
0000
0100
,  // measure 263
1000
0000
0000
1000
0010
0000
0000
0010
0100
0000
0000
0100
0010
0000
0000
0010
,  // measure 264
1000
0001
0010
0100
1000
0000
0101
0000
,  // measure 265
0010
0000
1000
0100
0000
0000
0000
0000
0010
0001
0000
0100
0000
0000
0000
0000
,  // measure 266
0011
0000
0100
0000
1010
0000
0100
0000
1001
0000
0000
0010
0100
0000
0000
0000
,  // measure 267
0001
0010
0100
1000
0001
0100
0010
1000
,  // measure 268
0001
0010
0100
1000
0010
0100
0001
1000
,  // measure 269
0100
0000
1100
0000
0001
0001
0101
0000
,  // measure 270
0010
0000
0000
0000
1100
0000
0000
0000
0010
0001
0000
0001
0100
0000
0000
0000
,  // measure 271
1000
0000
0101
0000
1000
1000
1100
0000
,  // measure 272
0010
0000
0101
0000
0010
1000
0100
0010
,  // measure 273
0001
0000
1001
0000
0100
1000
1001
0000
,  // measure 274
0010
0000
0000
0000
0101
0000
0000
0000
0010
1000
0000
1000
0001
0000
0000
0000
,  // measure 275
1000
0000
1001
0000
0100
0001
0101
0000
,  // measure 276
0010
0000
1100
0000
0010
0001
0100
0010
,  // measure 277
2000
3002
0203
0320
,  // measure 278
1030
0000
0100
0000
1000
0000
0100
0000
1000
0000
0010
0000
0100
0000
0010
1000
,  // measure 279
0000
0100
0010
0001
0100
0001
0100
0010
,  // measure 280
1000
0000
0100
0000
1000
0000
0100
0000
1000
0000
0010
0000
0100
0000
0010
1000
,  // measure 281
0000
0100
0010
0001
0100
0001
0100
0010
,  // measure 282
1000
0000
1000
0100
0010
0000
0000
0000
0010
0000
0010
0001
1000
0000
0000
0000
,  // measure 283
1000
0000
1000
0010
0100
0000
0000
0000
0100
0000
0100
0001
1000
0000
0000
0000
,  // measure 284
0001
0000
0100
0010
0100
0000
1001
0000
0010
0000
1000
0001
1000
0000
0110
0000
,  // measure 285
0001
0000
0100
0010
0100
0000
1001
0000
0010
0000
1000
0001
1000
0000
0110
0000
,  // measure 286
0010
0100
0001
0100
0010
0100
0001
0100
,  // measure 287
0010
1000
0100
0000
0010
0001
0100
0000
,  // measure 288
0010
1000
0100
0010
1000
0001
0100
0010
,  // measure 289
1000
0000
0101
0000
0001
1000
1001
0000
,  // measure 290
0010
0100
1000
0100
0010
0100
1000
0100
,  // measure 291
0010
0001
0100
0000
0010
1000
0100
0000
,  // measure 292
0010
0001
0100
0010
0001
1000
0100
0010
,  // measure 293
0001
0000
1100
0000
1000
0100
1001
0000
,  // measure 294
0001
0100
0010
1000
0010
0100
0001
1000
,  // measure 295
0001
0100
0010
1000
0010
0100
0001
1000
,  // measure 296
0100
0010
0011
0000
0101
1000
1010
0000
,  // measure 297
1100
0010
0001
0100
0010
1000
1100
0000
,  // measure 298
1000
0100
0010
0001
0010
0100
1000
0001
,  // measure 299
1000
0100
0010
0001
0010
0100
1000
0001
,  // measure 300
0100
0010
1010
0000
1100
0001
0011
2002
,  // measure 301
0000
0000
0000
0000
,  // measure 302
0000
0000
3003
0000
,  // measure 303
1001
0020
0000
0030
,  // measure 304
0020
0000
2030
0000
0000
3020
0000
0000
,  // measure 305
0032
0000
0023
0000
0000
2030
0000
0000
,  // measure 306
0100
0200
0000
0000
0000
0000
0000
0000
,  // measure 307
3300
0020
0000
0030
,  // measure 308
0020
0000
0032
0000
0000
0203
0000
0000
,  // measure 309
2300
0000
3200
0000
0000
0302
0000
0000
,  // measure 310
2003
0002
0000
0000
,  // measure 311
3003
0020
0000
0030
,  // measure 312
0020
0000
2030
0000
0000
3020
0000
0000
,  // measure 313
0032
0000
0023
0000
0000
2030
0000
0000
,  // measure 314
0100
0200
0000
0000
0000
0000
0000
0000
,  // measure 315
3300
0020
0000
0030
,  // measure 316
0020
0000
2030
0000
0000
3200
0000
0000
,  // measure 317
0302
0000
0203
0000
0000
2300
0000
0000
,  // measure 318
3002
2000
3000
0010
,  // measure 319
0103
2002
0000
0000
,  // measure 320
3003
0000
2020
0000
3030
0202
0000
0000
,  // measure 321
0000
0303
0022
0000
0033
2200
0000
0000
,  // measure 322
0000
3300
2002
0000
0000
0000
0000
0000
,  // measure 323
3003
2002
0000
0000
,  // measure 324
3003
0000
2020
0000
3030
0202
0000
0000
,  // measure 325
0000
0303
0022
0000
0033
2200
0000
0000
,  // measure 326
0000
3300
0220
0000
0000
0000
0000
0000
,  // measure 327
0330
0000
0001
0010
0200
1000
0000
0000
,  // measure 328
0310
0000
1000
0010
0200
0001
0000
0000
,  // measure 329
0310
0000
0001
0010
0200
0010
0000
0000
,  // measure 330
1300
2002
0000
0000
,  // measure 331
3003
0000
1000
0010
0200
0001
0000
0000
,  // measure 332
0310
0000
0001
0010
0200
1000
0000
0000
,  // measure 333
0310
0000
1000
0010
0200
0010
0000
0000
,  // measure 334
0301
2200
0000
0000
,  // measure 335
3300
0000
0010
0001
0100
0010
0000
0010
,  // measure 336
1000
0001
0010
0100
1000
0010
0000
0010
,  // measure 337
0100
0001
1000
0010
1000
0001
0000
0001
,  // measure 338
0100
0010
2000
0000
0000
0100
0000
0000
,  // measure 339
3001
0000
0010
1000
0100
0010
0000
0010
,  // measure 340
0001
1000
0010
0100
0001
0010
0000
0010
,  // measure 341
0100
1000
0001
0010
0001
1000
0000
1000
,  // measure 342
0100
0010
2002
0000
0000
0000
0000
0000
,  // measure 343
3003
1010
0011
0101
,  // measure 344
1100
0000
0000
0000
0010
0100
0001
0000
0100
0010
0000
0100
0001
0000
0100
0010
,  // measure 345
0000
0010
0100
0000
0001
0010
0000
1000
0010
0000
0001
0010
0000
1000
0010
0000
,  // measure 346
0010
1000
0000
0001
0010
0100
1000
0000
0010
1000
0000
0100
1000
0000
0010
1000
,  // measure 347
0000
1000
0010
0000
0100
0010
0000
1000
0001
0000
1000
0010
0000
1000
0001
0000
,  // measure 348
1000
0010
0000
1000
0010
1000
0010
1000
0000
0010
0100
0000
0010
1000
0000
1000
,  // measure 349
0010
0000
0100
0010
0000
1000
0100
0000
1000
0001
0000
1000
0100
0000
0100
1000
,  // measure 350
0000
0001
1000
0000
0010
0100
0000
0001
0100
0000
0010
0100
0000
0100
0010
0000
,  // measure 351
0100
0001
0000
1000
0100
0000
1000
0100
0000
1000
0100
0000
1000
0100
0000
1000
,  // measure 352
0100
0010
1001
0100
1000
0100
0000
0010
,  // measure 353
0010
1000
1001
0100
0001
0100
0000
0010
,  // measure 354
1100
0202
0000
0303
,  // measure 355
1001
2002
0000
3003
,  // measure 356
0000
0000
0110
1000
0001
1000
0000
0100
,  // measure 357
0100
1000
0110
0001
0100
0001
0000
0010
,  // measure 358
1001
2002
0000
3003
,  // measure 359
0000
0000
0010
0001
0010
0001
0100
1000
,  // measure 360
0100
0000
0010
0001
1000
0100
0000
0010
,  // measure 361
0100
0010
0001
0100
1000
0001
0000
0000
,  // measure 362
0100
0000
0100
0000
0010
0000
0000
0000
0010
0000
1000
0100
1000
0000
0001
0000
,  // measure 363
0100
0020
2000
0000
0000
0000
0000
0000
,  // measure 364
3030
0000
0010
1000
0001
0100
0000
0010
,  // measure 365
0100
0010
1000
0100
0001
1000
0000
0000
,  // measure 366
0100
0100
0010
0000
0010
0001
0100
0010
,  // measure 367
1000
0002
0200
0000
0303
0000
0110
0000
,  // measure 368
0110
0000
0000
0000
1000
0010
0000
0000
1000
0000
0000
0000
0010
1000
0000
0000
,  // measure 369
0001
0000
1000
0000
0100
1000
0000
0000
0100
0000
0000
0000
1000
0100
0000
0000
,  // measure 370
1000
0000
0001
0000
0001
0010
0000
0000
0001
0000
0000
0000
0010
0001
0000
0000
,  // measure 371
1000
0000
0001
0000
0100
0001
0000
0000
0100
0000
0000
0000
0001
0100
0000
0000
,  // measure 372
0001
0000
1000
0000
1000
0010
0000
0100
0000
0010
1000
0000
0001
0000
0100
0000
,  // measure 373
0001
0000
1000
0000
0100
0010
0000
1000
0000
0010
0100
0000
1000
0000
0001
0000
,  // measure 374
1000
0000
0010
0000
0100
0001
0000
1000
0000
0001
0100
0000
0010
0000
1000
0000
,  // measure 375
0100
0000
0010
0000
0001
1000
0000
0100
0000
0010
0001
0000
1000
0000
0100
0000
,  // measure 376
0010
0000
0100
0000
1000
0010
1000
0000
0001
0100
0001
0000
0010
0001
0010
0000
,  // measure 377
0100
1000
0100
0000
0010
0001
0000
0001
0000
0010
0001
0000
1000
0100
0000
0100
,  // measure 378
0000
1000
0001
1000
0010
0100
0000
0100
0000
0010
1000
0000
1000
0001
0000
0001
,  // measure 379
0000
1000
0100
1000
0010
0100
0000
0100
0000
0010
1000
0000
0001
0100
0000
0100
,  // measure 380
0000
0001
1000
0001
0010
0100
0000
0100
0000
0010
0001
0000
0001
1000
0000
0001
,  // measure 381
0000
1000
0001
1000
0020
0000
0100
0000
0000
0000
1000
0000
0000
0000
0130
0000
,  // measure 382
0001
1000
0100
0010
0002
0000
0100
0000
0000
0000
1000
0000
0000
0000
0103
0000
,  // measure 383
0010
1000
0001
0100
0020
0000
0100
0000
0000
0000
0001
0000
0000
0000
0130
0000
,  // measure 384
1000
0001
0100
0010
2000
0000
0100
0000
0000
0000
0001
0000
0000
0000
3100
0000
,  // measure 385
0010
1000
0001
0100
0010
1000
0000
1000
0000
0010
1000
0000
0001
0100
0000
0100
,  // measure 386
0000
0001
1000
0001
0010
0100
0000
0100
0000
0010
0001
0000
0001
1000
0000
1000
,  // measure 387
0000
0001
0100
0001
0010
0100
0000
0100
0000
0010
0001
0000
1000
0100
0000
0100
,  // measure 388
0000
1000
0001
1000
0010
0100
0000
0100
0000
0010
1000
0000
1000
0001
0000
1000
,  // measure 389
0000
0001
1000
0001
0020
0000
0100
0000
0000
0000
0001
0000
0000
0000
0130
0000
,  // measure 390
1000
0001
0100
0010
2000
0000
0100
0000
0000
0000
0001
0000
0000
0000
3100
0000
,  // measure 391
0010
0001
1000
0100
0020
0000
0100
0000
0000
0000
1000
0000
0000
0000
0130
0000
,  // measure 392
0001
1000
0100
0010
0002
0000
0100
0000
0000
0000
1000
0000
0000
0000
0103
0000
,  // measure 393
0010
0001
1000
0100
0010
0000
0001
0000
0010
0000
0000
0000
0001
0000
0100
0000
,  // measure 394
0001
0000
0100
1000
0100
0000
1000
0010
,  // measure 395
1000
0000
0010
0001
0100
0000
0001
0100
,  // measure 396
1000
0000
0100
1000
0010
0000
1000
0010
,  // measure 397
0001
0000
0010
1000
0010
0000
1000
0100
,  // measure 398
1000
0000
0100
0001
0100
0000
0001
0010
,  // measure 399
0001
0000
0010
1000
0100
0000
1000
0100
,  // measure 400
0001
0000
0100
0001
0010
0000
0001
0010
,  // measure 401
1000
0000
0000
0000
1001
0000
0010
0000
0100
0001
0000
0000
1000
0000
0010
0000
,  // measure 402
0100
0010
0000
0000
1001
0000
0100
0000
0010
0001
0000
0000
1000
0000
0100
0000
,  // measure 403
0010
0100
0000
0000
1001
0000
0010
0000
0100
0001
0000
1000
0100
0000
1000
0000
,  // measure 404
0010
0000
0000
0000
1000
0000
0001
0000
0100
0010
0000
0010
0100
0000
0001
0000
,  // measure 405
1000
0000
0000
0000
1001
0000
0010
0000
0100
1000
0000
0000
0001
0000
0010
0000
,  // measure 406
0100
0010
0000
0000
1001
0000
0100
0000
0010
1000
0000
0000
0001
0000
0100
0000
,  // measure 407
0010
0100
0000
0000
1001
0000
0010
0000
0100
1000
0000
0001
0100
0000
0001
0000
,  // measure 408
0010
0000
0000
0000
0001
0000
1000
0000
0100
0010
0000
0010
0100
0000
1000
0000
,  // measure 409
0001
0000
0000
0000
0101
0000
0010
0000
1000
0100
0000
1000
0001
0000
0100
0000
,  // measure 410
0010
1000
0010
1000
0010
0000
1000
0000
0001
0100
0000
0001
1000
0000
0100
0000
,  // measure 411
0010
0001
0010
0001
0010
0000
0100
0000
1000
0010
0000
0100
0001
0000
1000
0000
,  // measure 412
0001
0100
0010
0100
0001
0000
1000
0000
0001
0010
0000
0100
1000
0000
0001
0000
,  // measure 413
1000
0100
0010
0100
1000
0000
0001
0000
0100
0010
0100
0010
0100
0000
0001
0000
,  // measure 414
1000
0100
1000
0100
1000
0000
0010
0000
0100
0001
0100
0001
0100
0000
1000
0000
,  // measure 415
0010
0100
0001
0100
0001
0000
1000
0000
0100
0010
0100
0010
0100
0000
1000
0000
,  // measure 416
0001
0100
0001
0100
0001
0000
0010
0000
0100
1000
0100
1000
0100
0000
0001
0000
,  // measure 417
0010
0100
1000
0100
1000
0000
0010
0000
0100
0000
0001
0000
0010
0000
0100
0000
,  // measure 418
1100
0000
0010
0100
0001
0010
0100
1000
,  // measure 419
0101
0000
0001
0010
0100
1000
0010
0100
,  // measure 420
0101
0000
0010
0100
1000
0010
0100
0001
,  // measure 421
1100
0000
1001
0010
0100
0010
1000
0001
,  // measure 422
1000
0100
0010
0001
0110
1000
0110
0000
,  // measure 423
0101
0000
1001
0010
0100
0010
0001
1000
,  // measure 424
0001
0100
0010
1000
0110
0001
0110
1000
,  // measure 425
0110
0001
0010
0100
1000
0100
1000
0100
,  // measure 426
1000
0010
0100
0001
0100
0001
0100
0001
,  // measure 427
0100
0010
1000
0001
1000
0001
1000
0001
,  // measure 428
1000
0000
0010
0100
0010
0100
0001
1000
,  // measure 429
0110
0000
1000
0001
0100
0001
0000
1000
,  // measure 430
0010
1000
0000
0001
0100
0001
0000
1000
,  // measure 431
0010
1000
0000
0001
0010
0001
0000
1000
,  // measure 432
0100
0000
1000
0000
0001
0100
0001
0100
0010
1000
0010
1000
0001
0010
0001
0010
,  // measure 433
0100
1000
0100
1000
0001
0000
0000
0001
0100
0001
0000
0000
1000
0000
0000
1000
,  // measure 434
0100
1000
0000
0000
0010
0000
0000
0010
0001
0010
0000
0000
0100
0000
0000
0100
,  // measure 435
1000
0100
0000
0000
0001
0000
0000
0001
0100
0001
0000
0000
1000
0000
0000
1000
,  // measure 436
0100
1000
0000
0000
0010
0000
0000
0010
0001
0010
0000
0000
0100
0000
0000
0100
,  // measure 437
1000
0100
0000
0000
0010
0000
0000
0100
0001
0010
0000
0000
0010
0000
0000
0100
,  // measure 438
1000
0001
0000
0000
0001
0000
0000
0100
0010
1000
0000
0000
1000
0000
0000
0100
,  // measure 439
0001
0010
0000
0000
0010
0000
0000
0100
1000
0010
0000
0000
0010
0000
0000
0100
,  // measure 440
0001
1000
0000
0000
1000
0000
0000
0100
0010
0001
0000
0000
0001
0000
0000
0100
,  // measure 441
1000
0001
0000
0000
0001
0000
0000
0001
0100
0000
0000
0000
1000
0000
0000
1000
,  // measure 442
0100
0000
0000
0000
0010
0000
0000
0010
0001
0000
0000
0000
0100
0000
0000
0100
,  // measure 443
1000
0000
0000
0000
0001
0000
0000
0001
0100
0000
0000
0000
1000
0000
0000
1000
,  // measure 444
0100
0000
0000
0000
0010
0000
0000
0010
0001
0000
0000
0000
0100
0000
0000
0100
,  // measure 445
1000
0000
0000
0000
0010
0000
0000
0100
0001
0000
0000
0000
0010
0000
0000
0100
,  // measure 446
1000
0000
0000
0000
0001
0000
0000
0100
0010
0000
0000
0000
1000
0000
0000
0100
,  // measure 447
0001
0000
0000
0000
0010
0000
0000
0100
1000
0000
0000
0000
0010
0000
0000
0100
,  // measure 448
0001
0000
0000
0000
1000
0000
0000
0100
0010
0000
0000
0000
0001
0000
0000
0100
,  // measure 449
1000
0002
0103
2000
,  // measure 450
3100
0020
0031
0200
,  // measure 451
1300
0002
0103
2000
,  // measure 452
3100
0020
0031
0200
,  // measure 453
1300
0020
0031
0020
,  // measure 454
1030
0002
0013
2000
,  // measure 455
3001
0020
1030
0020
,  // measure 456
0031
2000
3010
0002
,  // measure 457
1003
1001
0100
1001
,  // measure 458
0100
1100
0001
0101
,  // measure 459
1000
1001
0100
1001
,  // measure 460
0100
0101
1000
1100
,  // measure 461
0001
0000
0010
1000
0100
0000
0010
0001
,  // measure 462
0100
0000
0100
1000
0010
0000
0100
0001
,  // measure 463
0010
0000
0000
0000
0100
1000
0000
0000
0001
0000
0100
0000
0010
0000
1000
0000
,  // measure 464
0010
0000
0000
0000
0100
0001
0000
0000
1000
0000
0100
0000
0010
0000
0100
0000
,  // measure 465
1001
0000
0000
0000
1000
0000
0010
0000
0100
0001
0100
0001
0000
0000
0100
0000
,  // measure 466
0010
1000
0010
1000
0000
0000
0010
0000
0100
0001
0100
0001
0000
0000
0100
0000
,  // measure 467
0010
1000
0010
1000
0001
0000
0010
0000
0100
1000
0100
1000
0000
0000
0100
0000
,  // measure 468
0010
0001
0010
0001
0000
0000
0010
0000
0100
1000
0100
1000
0000
0000
0100
0000
,  // measure 469
0010
0001
0010
0001
1000
0000
0000
0000
1000
0000
0010
0000
0100
0000
0001
0000
,  // measure 470
1000
0000
0101
0000
1000
0010
0100
0001
,  // measure 471
1000
0000
0000
0000
0002
0000
0000
0103
0000
0000
0110
0000
0020
0000
0000
1030
,  // measure 472
0000
1001
1001
0000
0100
0000
1000
0001
,  // measure 473
0100
0000
0001
0000
0001
0010
0100
1000
,  // measure 474
0001
0000
1100
0000
0001
0010
0100
1000
,  // measure 475
0001
0000
0000
0000
2000
0000
0000
3100
0000
0000
0110
0000
0020
0000
0000
0031
,  // measure 476
0000
1001
2002
0000
3003
0000
0100
0010
,  // measure 477
0100
0000
1000
0000
0110
0001
0010
0100
,  // measure 478
1000
0000
0110
0000
0001
0010
0100
1000
,  // measure 479
0010
0000
0100
0000
0101
0010
1000
0100
,  // measure 480
1000
0001
0100
0000
0101
0000
1000
0000
,  // measure 481
1100
0000
0010
0001
0100
0001
1000
0100
,  // measure 482
1000
0000
0010
0001
0100
0001
1000
0100
,  // measure 483
0010
0000
0000
0000
0002
0000
0000
1003
0000
0000
1100
0000
0200
0000
0000
0310
,  // measure 484
0000
0011
0011
0000
0000
0000
0200
0000
,  // measure 485
2300
0000
3020
0100
0000
0230
0001
0000
,  // measure 486
0302
1000
2003
0000
3100
0000
0002
0000
,  // measure 487
0203
0000
0320
0100
0000
0230
0001
0000
,  // measure 488
0302
1000
1003
0100
0010
0001
1100
0000
,  // measure 489
0011
0000
1001
0000
0020
0001
0000
0230
,  // measure 490
0000
1000
0000
0020
0000
0330
0001
1000
,  // measure 491
0100
0000
0010
0000
0000
0000
0100
0000
1000
0000
1000
0010
0000
0000
0100
0000
,  // measure 492
0001
0000
0001
0010
0000
0000
0100
0000
1000
0000
0010
0100
0010
0000
0000
0000
,  // measure 493
0110
0000
0020
0100
0000
0230
1000
0000
,  // measure 494
2300
0001
3002
0000
0103
0000
2000
0000
,  // measure 495
3200
0000
0320
0100
0000
0230
1000
0000
,  // measure 496
2300
0001
3001
0100
0010
1000
0101
0000
,  // measure 497
1010
0000
1001
0000
0020
1000
0000
0230
,  // measure 498
0000
0001
0000
0020
0000
0330
1000
0001
,  // measure 499
1000
0000
0100
0010
0100
0000
0000
0000
1100
0000
0000
0000
0010
0000
0100
0000
,  // measure 500
0101
0000
0010
0000
1001
0000
0100
0010
,  // measure 501
1001
0000
0000
0000
0001
1000
0000
1000
0001
0000
0110
0000
1000
0000
0001
0000
,  // measure 502
0100
0000
0010
0000
1000
0001
0000
0001
1000
0000
0110
0000
0001
0000
1000
0000
,  // measure 503
0100
0000
0010
0000
0001
1000
0000
1000
0001
0000
0110
0000
1000
0000
0001
0000
,  // measure 504
0100
0000
0010
0000
1000
0001
0000
0001
1000
0000
0110
0000
0001
0000
1000
0000
,  // measure 505
0100
0010
0011
0000
0101
0000
1001
0000
,  // measure 506
0101
0011
0101
1001
,  // measure 507
0101
1010
1100
1001
,  // measure 508
1100
1010
1100
1001
,  // measure 509
1100
1001
1010
0101
,  // measure 510
1001
0000
1001
0000
0011
0000
1100
1000
,  // measure 511
1001
1001
0011
1100
,  // measure 512
1001
0000
1001
0000
1010
0000
0101
0001
,  // measure 513
1001
0000
0000
0000
1001
0000
0000
0101
0000
0000
1000
0000
0101
0000
0000
1001
,  // measure 514
0000
0000
0010
0000
1001
0000
0000
1100
0000
0000
0001
0000
1100
0000
0000
1001
,  // measure 515
0000
0000
0010
0000
0101
0000
0000
0101
0000
0000
0010
0000
1100
0000
0000
1100
,  // measure 516
0000
0010
0220
0000
0000
0000
0000
0000
,  // measure 517
0330
0000
0000
0000
0110
0000
0001
1000
0000
1000
0001
0000
0110
0000
1000
0100
,  // measure 518
0000
0100
1000
0000
0110
0000
0001
1000
0000
1000
0001
0000
0110
0000
1000
0100
,  // measure 519
0000
0100
1000
0100
1000
0000
0010
0100
0000
0100
0001
0000
1100
0000
0010
0100
,  // measure 520
0000
0100
0001
0000
1001
0000
0100
0010
0000
0010
0001
0000
1001
0000
0100
0010
,  // measure 521
0000
0010
0001
0010
0001
0000
1000
0001
0000
0001
1000
0000
0110
0000
0001
0100
,  // measure 522
0000
0100
0001
0000
0110
0000
1000
0001
0000
0001
1000
0000
0110
0000
0001
0100
,  // measure 523
0000
0100
0001
0100
0001
0000
0010
0100
0000
0100
1000
0000
0101
0000
0010
0100
,  // measure 524
0000
0100
1000
0000
1001
0000
0100
0010
0000
0010
1000
0000
1001
0000
0100
0010
,  // measure 525
0000
0010
1000
0010
1000
0000
0000
0001
0100
0000
0001
0000
1000
0000
0000
0001
,  // measure 526
0100
0000
0001
0000
1000
0000
0000
0001
0100
0000
0001
0000
1000
0000
0000
0001
,  // measure 527
0100
0000
0010
0000
0100
0000
0000
0001
1000
0000
0100
0000
0010
0000
0000
0001
,  // measure 528
1000
0000
0100
0000
0010
0000
0000
0001
1000
0000
0100
0000
0010
0000
0000
0100
,  // measure 529
1000
0001
1001
0010
0100
0010
0100
0010
,  // measure 530
0100
0010
1001
0010
0100
0010
0100
0010
,  // measure 531
0100
0010
1001
0010
0100
0010
1001
0010
,  // measure 532
0100
0010
1001
0010
0100
0001
1000
0001
,  // measure 533
0100
0010
0220
0000
0000
0000
0000
0000
,  // measure 534
0000
0000
0000
0000
0000
0000
0330
0000
0000
0000
0000
0000
0000
0000
0100
1000
,  // measure 535
0000
0001
0100
0000
0220
0000
0000
0000
0000
0000
0000
0000
0000
0000
0000
0000
,  // measure 536
0000
0000
0000
0000
0000
0000
0330
0000
0000
0000
0000
0000
0000
0000
0100
0001
,  // measure 537
0000
1000
0100
0000
0220
0000
0000
0000
0000
0000
0000
0000
0000
0000
0000
0000
,  // measure 538
0000
0000
0000
0000
0000
0000
0330
0000
0000
0000
0000
0000
0000
0000
0100
1000
,  // measure 539
0000
0001
0100
0000
2002
0000
0000
0000
0000
0000
0000
0000
0000
0000
0000
0000
,  // measure 540
0000
0000
0000
0000
0000
0000
3003
0000
0000
0000
0000
0000
0000
0000
0100
0001
,  // measure 541
0000
1000
0100
0000
2001
0000
0000
3020
0000
0000
0230
0000
0000
0000
0301
0000
,  // measure 542
1000
0000
0010
0100
0020
0000
0000
2030
0000
0000
3200
0000
0000
0000
0010
0000
,  // measure 543
0310
0000
0001
1000
0100
0110
2002
0000
,  // measure 544
3003
0000
0110
0000
0000
1100
0000
0101
,  // measure 545
0000
0000
1001
0000
0010
0000
0100
0001
0000
0100
0001
0000
0000
0000
0010
0000
,  // measure 546
0100
0000
1000
0000
0002
0000
0000
0100
0000
0000
2000
0000
0000
0000
3003
0000
,  // measure 547
0010
0100
0220
0000
0000
0000
0000
0000
,  // measure 548
0330
0000
1001
0000
0000
0011
0000
1010
,  // measure 549
0000
0000
0110
0000
1002
0000
0000
0023
0000
0000
0230
0000
0000
0000
1300
0000
,  // measure 550
0001
0000
0010
0100
0020
0000
0000
0032
0000
0000
0203
0000
0000
0000
0010
0000
,  // measure 551
0310
0000
1000
0001
0100
0110
2002
0000
,  // measure 552
3003
0000
0110
0000
0000
0101
0000
1100
,  // measure 553
0000
0000
1001
0000
0010
0000
0100
1000
0000
0100
1000
0000
0000
0000
0010
0000
,  // measure 554
0100
0000
0001
0000
2000
0000
0000
0100
0000
0000
0002
0000
0000
0000
3003
0000
,  // measure 555
0010
0100
0220
0000
0000
0000
0000
0000
,  // measure 556
0330
0000
1001
0000
0000
1010
0000
0011
,  // measure 557
0000
0110
1001
0100
1000
0100
1000
0010
,  // measure 558
1000
0000
0001
0100
0010
0000
1000
0000
0100
0000
0010
0000
0100
0000
1000
0000
,  // measure 559
0010
1000
0110
1000
0100
1000
0100
0010
,  // measure 560
0001
0000
1000
0010
0100
0000
0001
0000
0010
0000
0100
0000
0010
0000
0001
0000
,  // measure 561
0100
0010
1001
0100
0001
0100
0001
0010
,  // measure 562
0001
0000
1000
0100
0010
0000
0001
0000
0100
0000
0010
0000
0100
0000
0001
0000
,  // measure 563
0010
0001
0110
0001
0100
0001
0100
0010
,  // measure 564
1000
0000
0001
0010
0100
0000
1000
0000
0010
0000
0100
0000
0010
0000
1000
0000
,  // measure 565
0100
0010
0000
0001
1010
0001
0000
0001
,  // measure 566
1010
0001
0000
0001
1010
0001
0000
0010
,  // measure 567
1100
0010
0000
1000
0011
1000
0000
1000
,  // measure 568
0011
1000
0000
1000
0011
1000
0000
0010
,  // measure 569
0101
0010
0000
0001
1010
0001
0000
1000
,  // measure 570
0011
1000
0000
0001
1010
0001
0000
0100
,  // measure 571
1001
0010
0000
0001
1100
0001
0000
1000
,  // measure 572
0101
1000
0000
0001
1100
0001
0000
0010
,  // measure 573
1001
0000
0100
0000
0000
0000
0010
0100
0000
0000
0010
0100
0000
0000
0001
0100
,  // measure 574
0000
0000
0001
0100
0000
0000
1000
0100
0000
0000
1000
0100
0000
0000
0001
0100
,  // measure 575
0000
0000
0001
0100
0000
0000
0010
0100
0000
0000
0010
0100
0000
0000
1000
0100
,  // measure 576
0000
0000
1000
0100
0000
0000
0001
0100
0000
0000
1000
0100
0000
0000
0001
0100
,  // measure 577
0000
0000
1000
0100
0000
0000
0010
0001
0000
0000
0010
0001
0000
0000
0001
0100
,  // measure 578
0000
0000
0001
0100
0000
0000
0100
1000
0000
0000
0100
1000
0000
0000
1000
0010
,  // measure 579
0000
0000
1000
0010
0000
0000
0010
0001
0000
0000
0001
0100
0000
0000
0100
1000
,  // measure 580
0000
0000
1000
0010
0000
0000
0010
0100
0000
0000
0100
0010
0000
0000
1000
0001
,  // measure 581
0000
0100
1001
0000
1000
0000
0010
0110
,  // measure 582
0000
0000
1001
0000
0100
0000
1000
0001
,  // measure 583
0100
0000
1001
0000
0100
0000
0001
1000
,  // measure 584
0100
0000
1001
0000
0010
0000
1000
0001
,  // measure 585
0010
0000
1001
0000
0010
0000
0001
1000
,  // measure 586
0010
0000
1001
0000
0010
0100
1010
0000
,  // measure 587
0010
0100
1010
0000
0100
0010
0101
0000
,  // measure 588
0100
0010
0101
0000
1000
0001
0110
0000
,  // measure 589
1000
0000
0001
0000
0010
0100
1000
0010
0100
0001
0010
0100
0020
0000
0000
0000
,  // measure 590
0030
0000
0001
0100
0010
1000
0001
0100
,  // measure 591
0010
0000
0000
0000
1000
0000
0100
0000
1000
0000
0001
0000
0100
0000
0010
1000
,  // measure 592
0000
0001
0100
0000
0001
0000
0010
0000
0100
0000
1000
0000
0010
0000
0100
0000
,  // measure 593
0001
0000
1000
0100
0010
0100
1000
0110
,  // measure 594
0110
0001
1000
0100
0010
0001
1000
0100
,  // measure 595
0010
0000
0000
0000
0001
0000
0100
0000
0001
0000
1000
0000
0100
0000
0010
0001
,  // measure 596
0000
1000
0100
0000
1000
0000
0010
0000
0100
0000
0001
0000
0010
0000
0100
0000
,  // measure 597
1000
0000
0001
0100
0010
0100
0001
0110
,  // measure 598
0110
1000
0002
0000
0010
0000
0100
0000
,  // measure 599
1003
2000
0010
0100
,  // measure 600
3001
0002
0100
0010
,  // measure 601
1003
2000
0100
0010
,  // measure 602
3001
0000
0100
0010
0100
1000
0000
0000
,  // measure 603
0000
0000
0000
0000
,  // measure 604
0000
0000
0010
0100
0001
1000
0010
0100
,  // measure 605
0010
0000
0000
0000
0000
0000
0000
1001
,  // measure 606
0000
0000
0000
0000
0101
0000
0000
0000
1001
0000
0000
0000
0010
1000
0000
0000
,  // measure 607
0100
0000
1000
0000
0010
0000
0000
0011
0000
0000
0001
0000
0101
0000
0000
0000
,  // measure 608
0000
0000
0010
0000
1000
0001
0000
1001
0000
0000
0010
0000
0001
1000
0000
1001
,  // measure 609
0000
0000
0010
0000
0002
0000
0000
0103
0000
0000
0020
0000
2000
0000
0000
0000
,  // measure 610
3030
1100
1001
0101
,  // measure 611
0000
0000
0010
0000
1000
0000
0100
1000
0000
0001
0100
0000
0010
0000
0000
0000
,  // measure 612
0000
0000
0100
0001
1000
0100
0000
1000
0000
0000
0001
0000
0100
0010
0000
0100
,  // measure 613
0000
0001
1000
0000
0220
0000
0000
0000
0330
0000
0000
0000
0002
0000
0000
0000
,  // measure 614
1003
0000
0000
0000
1100
0000
0000
0000
1001
0000
0000
0000
0010
0001
0000
0000
,  // measure 615
0100
0000
0001
0000
0010
0000
0000
1010
0000
0000
1000
0000
1100
0000
0000
0000
,  // measure 616
0000
0000
0010
0000
0001
1000
0000
1001
0000
0000
0010
0000
1000
0001
0000
1001
,  // measure 617
0000
0000
0010
0000
2000
0000
0000
3100
0000
0000
0020
0000
0002
0000
0000
0000
,  // measure 618
0033
0101
1001
1100
,  // measure 619
0000
0000
0010
0000
0001
0000
0100
0001
0000
1000
0100
0000
0010
0000
0000
0000
,  // measure 620
0000
0000
0100
1000
0001
0100
0000
0001
0000
0000
1000
0000
0100
0010
0000
0100
,  // measure 621
0000
1000
0001
0000
0110
0000
1000
0000
0100
0000
0010
0000
2002
0000
0000
0000
,  // measure 622
3003
0000
0001
0100
0001
1000
0001
0100
,  // measure 623
0010
0100
0001
0010
0100
0010
1000
0010
,  // measure 624
0001
0001
1000
0100
0010
0001
1000
0100
,  // measure 625
0010
0001
1001
0100
0010
0001
1001
0100
,  // measure 626
0010
0001
1000
0100
1000
0001
1000
0100
,  // measure 627
0010
0100
1000
0010
0100
0010
0001
0010
,  // measure 628
1000
1000
0001
0100
0010
1000
0001
0100
,  // measure 629
0010
0000
1000
0000
0001
0100
0010
1000
0001
0100
0010
1000
0001
0010
0100
1000
,  // measure 630
0001
0010
0100
1000
0001
0000
0100
0010
0000
0000
0100
0010
0000
0000
0010
1000
,  // measure 631
0000
0000
0010
1000
0000
0000
0001
0010
0000
0000
0010
1000
0000
0000
1000
0100
,  // measure 632
0000
0000
0100
0001
0000
0000
1000
0100
0000
0000
1000
0100
0000
0000
0001
1000
,  // measure 633
0000
0000
0001
1000
0000
0000
0010
0100
0000
0000
0010
0100
0000
0000
0010
1000
,  // measure 634
0000
0000
0010
1000
0000
0000
0001
0100
0000
0000
0100
0010
0000
0000
0010
1000
,  // measure 635
0000
0000
1000
0010
0000
1000
0100
0010
0001
0000
0010
0000
0000
0000
0100
1000
,  // measure 636
0000
0000
0001
0100
0000
0000
1000
0100
0000
0000
0100
0010
0000
0000
0010
0001
,  // measure 637
0000
0000
0001
0010
0000
0001
0100
0010
1000
0000
0010
0000
0000
0000
0100
0001
,  // measure 638
0000
0000
1000
0100
1000
0000
0010
0000
0001
0000
0010
0000
1000
0000
0100
0000
,  // measure 639
0001
0000
0000
0000
0010
0000
0001
0000
0100
0000
0010
0000
1000
0100
1000
0000
,  // measure 640
0010
1000
0101
0010
1001
0010
1100
0010
,  // measure 641
1001
0000
0000
0000
0100
0000
1000
0000
0010
0000
0100
0000
0001
0000
0010
0100
,  // measure 642
0010
1001
0001
0010
1000
0010
0001
0100
,  // measure 643
1000
0000
0000
0000
0010
0000
1000
0000
0100
0000
0010
0000
0001
0100
0001
0000
,  // measure 644
0010
0001
1100
0010
1001
0010
0101
0010
,  // measure 645
1001
0000
0000
0000
0100
0000
0001
0000
0010
0000
0100
0000
1000
0000
0010
0100
,  // measure 646
0010
0000
1001
0000
0100
0000
0001
0000
1000
0000
0010
0000
0100
0000
0000
0100
,  // measure 647
0010
0000
0000
0000
1000
0000
0100
0000
0010
0000
0001
0000
0100
0000
0000
0100
,  // measure 648
0010
0000
0001
0010
0100
1000
0010
0100
,  // measure 649
0001
0000
0000
0001
1000
0000
0100
0000
0010
0000
0001
0000
0100
0000
0010
0000
,  // measure 650
1001
0000
0000
0000
0100
0000
1000
0000
0001
0000
0010
0000
0100
0000
0000
0100
,  // measure 651
0010
0000
0000
0000
0001
0000
0100
0000
0010
0000
1000
0000
0100
0000
0000
0100
,  // measure 652
0010
0000
1000
0010
0100
0001
0010
0100
,  // measure 653
1000
0000
0000
1000
0001
0000
0100
0000
0010
0000
1000
0000
0100
0000
0010
0000
,  // measure 654
0100
1000
0001
1000
0001
0000
0000
0000
0100
0000
0000
0000
0001
0000
0100
0000
,  // measure 655
1000
0000
0100
0000
0001
1000
0100
0001
,  // measure 656
0100
0000
1000
0000
0100
0000
1000
0100
,  // measure 657
0001
0000
0100
0000
1000
0001
0100
1000
,  // measure 658
0100
0000
0010
0001
0100
0001
0000
1000
,  // measure 659
0100
0000
0001
0100
0000
1000
0100
0000
,  // measure 660
1100
0000
0010
0100
0010
1000
0001
0100
,  // measure 661
0010
0000
1000
0000
0100
0010
0001
1001
,  // measure 662
1001
1001
0120
0000
1030
0100
1000
0000
,  // measure 663
0101
0000
0010
0001
1100
0000
0010
1000
,  // measure 664
0101
0000
0001
0100
0101
1000
0100
1000
,  // measure 665
1100
0000
0101
0000
1010
0000
1100
0010
,  // measure 666
0001
0000
0120
0000
0031
0100
0001
0000
,  // measure 667
1100
0000
0010
1000
0101
0000
0010
0001
,  // measure 668
1100
0000
1000
0100
1100
0001
0100
0001
,  // measure 669
0101
0000
0000
0000
0010
1000
0010
1000
0001
0100
0001
0100
0010
1000
0001
0100
,  // measure 670
0010
1000
0001
0100
0020
0000
0000
0000
0000
0000
1030
0000
0200
0000
0000
0000
,  // measure 671
0300
0000
0100
0000
0010
0000
0000
0001
0000
0000
0001
0000
1000
0000
0000
0100
,  // measure 672
0000
1000
0001
0000
0100
0000
0010
1000
0000
0000
1000
0000
0001
0000
0100
0001
,  // measure 673
0000
0000
0100
0000
0010
0000
1000
0000
0100
0000
0010
0000
0001
1000
0001
0000
,  // measure 674
0100
0000
0010
0000
1000
0000
0100
1000
0000
0100
1000
0000
0001
0000
0100
0001
,  // measure 675
0000
0100
0001
0000
0010
0000
1000
0001
0000
0100
0010
0000
1000
0000
0000
0100
,  // measure 676
0000
0010
0001
0000
1000
0000
0100
1000
0000
1000
0001
0000
0100
0000
0001
1000
,  // measure 677
0000
1000
0001
0000
0010
0000
0100
0000
1000
0000
0010
0000
0100
0001
0010
0001
,  // measure 678
0010
0100
1000
0100
1000
0000
0001
0100
0000
0010
1000
0000
0001
0000
1000
0100
,  // measure 679
0000
0010
0001
0000
1000
0000
0010
1000
0000
0100
1000
0000
0001
0000
0100
0001
,  // measure 680
0000
0001
0010
0000
0001
0000
1000
0100
0000
0010
0001
0000
1000
0000
0001
0100
,  // measure 681
0000
0010
1000
0000
0001
0000
0010
0001
0000
0100
0001
0000
1000
0000
0100
1000
,  // measure 682
0000
1000
0010
0000
1001
0000
0100
0010
0000
1000
0001
0000
0110
0000
0001
1000
,  // measure 683
0000
0010
0100
0000
1001
0000
0100
0010
0000
1000
0001
0000
0110
0000
0001
1000
,  // measure 684
0000
0010
0100
0000
1001
0000
0100
0001
1000
0000
0100
1000
0001
0000
0100
0001
,  // measure 685
1000
0000
0010
0100
1001
0000
1001
0000
0000
0110
0000
0000
2002
0000
0000
0000
,  // measure 686
0000
0000
3003
0000
1001
0000
0010
0100
,  // measure 687
0000
0001
1000
0000
0110
0000
0001
0100
,  // measure 688
0000
1000
0100
0000
0011
0000
0100
0010
,  // measure 689
0000
1000
0001
0000
1010
0000
0100
0010
,  // measure 690
0000
0001
1000
0001
1001
0000
0010
0100
,  // measure 691
0000
1000
0001
0000
0110
0000
1000
0100
,  // measure 692
0000
0001
0100
0000
1010
0000
1010
0000
,  // measure 693
0101
0000
0000
0000
0101
0000
0000
0000
0010
1000
0000
0000
1000
0001
0000
0000
,  // measure 694
0001
0100
0000
0000
0100
0010
0000
0000
1100
0000
0000
0000
0010
0000
0001
0000
,  // measure 695
0000
1000
0100
0010
1001
0000
0100
0001
,  // measure 696
0000
0100
0010
1000
0110
0000
0001
1000
,  // measure 697
0000
0001
1000
0010
0100
0010
1000
0000
,  // measure 698
0100
0010
0001
0000
0101
0000
0010
1000
,  // measure 699
0000
0001
0100
0010
1001
0000
0100
1000
,  // measure 700
0000
0100
0010
0001
0110
0000
1000
0001
,  // measure 701
0000
1000
0001
0010
0100
0010
0001
0000
,  // measure 702
0100
0010
1000
0001
0220
0000
0330
1000
,  // measure 703
0100
0000
0010
0001
1000
0100
0010
0100
,  // measure 704
1000
0000
0010
0100
0001
0000
1100
0000
,  // measure 705
2020
0000
3030
0100
0001
0010
0100
1000
,  // measure 706
0110
0000
0000
0000
2002
0000
3003
0010
,  // measure 707
0100
0000
0000
0000
0001
0000
0010
0000
0100
0000
1000
0010
0100
0000
0010
0000
,  // measure 708
1000
0000
0100
0010
0100
0000
1001
0000
,  // measure 709
0022
0000
0000
0000
0033
0000
0010
0000
0001
0000
1000
0100
0010
0000
0100
0000
,  // measure 710
0010
0000
0000
0000
0010
0001
1000
0100
0020
0000
0000
0000
0000
0000
0000
0000
,  // measure 711
0030
0000
0001
0000
0100
0000
0001
0000
1000
0000
0000
1100
0000
0000
0001
0000
,  // measure 712
0101
0000
0000
0000
0010
1000
0001
0100
0020
0000
0000
0000
0000
0000
0000
0000
,  // measure 713
0030
0000
0000
0000
0000
0000
0100
0000
0001
0000
0000
0100
0000
0000
0010
0000
,  // measure 714
1000
0000
0000
0010
0000
0000
1000
0000
2002
0000
0000
0000
0000
0000
0000
0000
,  // measure 715
3003
0000
0000
0000
0000
0000
0000
0000
0010
0000
1000
0001
0000
0100
0001
0000
,  // measure 716
0010
0000
0001
1000
0000
0100
1000
0000
0110
0000
1000
0001
0100
0000
0001
1000
,  // measure 717
0100
0000
1000
0001
0100
0000
0010
0100
1001
0000
1001
0000
0000
0110
0000
0000
,  // measure 718
2002
0000
3003
1001
,  // measure 719
0010
0100
0000
0001
1000
0000
0110
0000
,  // measure 720
0001
0100
0000
1000
0100
0000
0011
0000
,  // measure 721
0100
0010
0000
1000
0001
0000
1010
0000
,  // measure 722
0100
0010
0000
0001
1000
0001
1001
0000
,  // measure 723
0010
0100
0000
1000
0001
0000
0110
0000
,  // measure 724
1000
0100
0000
0001
0100
0000
1010
0000
,  // measure 725
1010
0000
0000
0000
0101
0000
0000
0000
0101
0000
0000
0000
0010
1000
0000
0000
,  // measure 726
1000
0001
0000
0000
0001
0100
0000
0000
0100
0010
0000
0000
1001
0000
0000
0000
,  // measure 727
0010
0100
0000
1000
0001
0000
0110
0000
,  // measure 728
1000
0100
0000
0001
0100
0000
1010
0000
,  // measure 729
0100
0010
0000
0001
1000
0000
0011
0000
,  // measure 730
0100
0010
0000
1000
0001
1000
1001
0000
,  // measure 731
0010
0100
0000
0001
1000
0000
0110
0000
,  // measure 732
0001
0100
0000
1000
0100
0000
0011
0000
,  // measure 733
0011
0000
0000
0000
1100
0000
0000
0000
1100
0000
0000
0000
0010
0001
0000
0000
,  // measure 734
0001
1000
0000
0000
1000
0100
0000
0000
0100
0010
0000
0000
0001
0000
0000
0000
,  // measure 735
1000
0100
0010
0110
,  // measure 736
0001
1000
0001
0101
,  // measure 737
0010
0000
1100
0000
0010
0000
0001
0100
,  // measure 738
0001
0000
1000
0100
1000
0000
0010
0000
,  // measure 739
0100
0001
0010
1000
,  // measure 740
0100
0001
0010
1000
,  // measure 741
0100
0010
0100
0000
1000
0000
0010
0100
,  // measure 742
0010
0100
0010
0000
1001
0000
1000
0000
,  // measure 743
0001
0100
0010
0110
,  // measure 744
1000
0001
1000
1100
,  // measure 745
0010
0100
0101
0000
0010
0000
1000
0100
,  // measure 746
1000
0000
0001
0100
0001
0000
0010
0000
,  // measure 747
0100
1000
0010
0001
,  // measure 748
0100
1000
0010
0001
,  // measure 749
0100
0010
0100
0000
0001
0000
0110
0000
,  // measure 750
0000
0000
1000
0001
1000
0001
2000
0000
,  // measure 751
0000
0010
0000
3100
,  // measure 752
0010
0100
0001
1100
,  // measure 753
0010
0001
0000
1000
0100
0000
1000
0000
,  // measure 754
1000
0000
0001
1000
0001
1000
0002
0000
,  // measure 755
0000
0010
0000
0103
,  // measure 756
0010
0100
1000
0101
,  // measure 757
0010
1000
0000
0001
0100
0000
0001
0000
,  // measure 758
0001
1000
1000
1002
,  // measure 759
0103
2001
3100
1002
,  // measure 760
0103
0000
0000
0000
2001
0000
0000
0000
3100
0000
0000
0000
0010
0001
0000
0000
,  // measure 761
0100
0000
0001
1000
0001
0000
0100
0000
0010
0000
1000
0100
1000
0000
0001
0000
,  // measure 762
0100
0000
0010
1000
0010
0000
1000
0000
0001
0000
0100
0010
0100
0000
0001
0000
,  // measure 763
1000
0000
0100
0010
0100
0000
1000
0000
0001
0000
0100
0010
0100
0000
0001
0000
,  // measure 764
1000
0000
0100
0010
0100
0000
1000
0000
0001
0000
1000
0000
0010
0100
0000
0001
,  // measure 765
1000
0000
0000
0100
1000
0000
0001
0100
0001
0000
0000
0010
0001
0000
1000
0010
,  // measure 766
1000
0000
0000
0001
0100
0000
0010
1000
0010
0000
0000
0100
0001
0000
1000
0100
,  // measure 767
1000
0000
0000
0100
1000
0000
0001
0100
0001
0000
0000
0100
0001
0000
1000
0100
,  // measure 768
1000
0000
0000
0100
1000
0000
0001
0100
0001
0000
0000
0000
0010
0000
0000
1001
,  // measure 769
0000
0000
0100
0000
1000
0010
0001
0010
1000
0000
0001
0100
0001
1000
0000
0100
,  // measure 770
0000
0000
1000
0000
0010
0000
0000
1010
0000
0000
0001
0000
0010
0000
0000
0011
,  // measure 771
0000
0000
1000
0000
0010
0000
0000
1010
0000
0000
0001
0000
0010
0000
0000
0011
,  // measure 772
0000
0000
0100
0000
0010
0000
0000
1001
0000
0000
0100
0000
1000
0001
0000
1001
,  // measure 773
0000
0000
0010
0000
0001
0100
1000
0100
0001
0000
0010
1000
0001
0100
0001
0100
,  // measure 774
0000
0000
0001
0000
1000
0000
0000
1100
0000
0000
1000
0000
0001
0000
0000
0101
,  // measure 775
0000
0000
0001
0000
1000
0000
0000
1100
0000
0000
1000
0000
0001
0000
0001
0000
,  // measure 776
1000
0000
0001
0000
1000
0001
1000
0001
1000
0001
0010
0100
0010
0000
0000
0110
,  // measure 777
0000
0000
0100
0000
1000
0001
0000
1000
0001
0000
1000
0001
0000
1000
0001
0000
,  // measure 778
1000
0001
0000
1000
0000
0000
1000
0000
0000
1000
0000
0000
1000
0000
0000
1000
,  // measure 779
0000
0000
0000
0000
0000
0000
0000
1000
0000
0000
0000
0000
0000
0000
0000
1000
,  // measure 780
0000
0000
0000
0000
0000
0000
0000
1000
0000
0000
0010
0100
0010
1000
0000
0001
,  // measure 781
0000
0000
0010
0100
0010
0001
0000
0010
1000
0000
0010
0001
0000
0010
1000
0000
,  // measure 782
0010
0001
0000
0010
0000
0000
0010
0000
0000
0010
0000
0000
0010
0000
0000
0010
,  // measure 783
0000
0000
0000
0000
0000
0000
0000
0010
0000
0000
0000
0000
0000
0000
0000
0010
,  // measure 784
0000
0000
0000
0000
0000
0000
0000
0020
0000
0000
0000
0000
0000
0000
0000
0000
,  // measure 785
0000
0000
0030
0000
0000
0000
1000
0100
,  // measure 786
0001
0000
0100
0000
1000
0000
0000
1001
0000
0000
0100
0000
1001
0000
0000
1001
,  // measure 787
0000
0000
0010
0000
0100
0000
0001
1000
0001
0000
0000
0000
1000
0000
0001
1000
,  // measure 788
0001
0000
0000
0000
0001
0000
1000
0001
1000
0000
0000
0000
2000
0000
0000
0000
,  // measure 789
0000
3000
2000
0000
0000
3000
0001
0100
,  // measure 790
1000
0000
0100
0000
0001
0000
0000
1001
0000
0000
0100
0000
1001
0000
0000
1001
,  // measure 791
0000
0000
0010
0000
0100
0000
1000
0001
1000
0000
0000
0000
0001
0000
1000
0001
,  // measure 792
1000
0000
0000
0000
1000
0000
0001
1000
0001
0000
0000
0000
0002
0000
0000
0000
,  // measure 793
0000
0003
0002
0000
0000
0003
0020
0000
,  // measure 794
0000
2030
0000
3200
,  // measure 795
0000
0320
0000
0032
,  // measure 796
0000
2003
0000
3200
,  // measure 797
0000
0320
0000
0032
,  // measure 798
0000
0203
0000
2300
,  // measure 799
0000
3200
0000
0302
,  // measure 800
0000
2003
0000
3020
,  // measure 801
0000
0230
0000
0320
,  // measure 802
2030
3200
0320
0032
,  // measure 803
2003
3200
0320
0032
,  // measure 804
0203
2300
3200
0302
,  // measure 805
2003
3020
0230
0302
,  // measure 806
0023
0230
2300
3200
,  // measure 807
0320
0032
2003
3020
,  // measure 808
0230
0302
2003
3002
,  // measure 809
0203
0000
0320
0000
2030
0000
3020
1000
,  // measure 810
1000
0000
2030
0100
0100
0000
3200
0010
,  // measure 811
0010
0000
0320
0001
0001
0000
0032
1000
,  // measure 812
1000
0000
2003
0100
0100
0000
3200
0010
,  // measure 813
0010
0000
0320
0001
0001
0000
0032
0100
,  // measure 814
0100
0000
0203
1000
1000
0000
2300
0100
,  // measure 815
0100
0000
3200
0001
0001
0000
0302
1000
,  // measure 816
1000
0000
2003
0010
0010
0000
3020
0100
,  // measure 817
0100
0000
0230
0010
0010
0310
1001
0000
,  // measure 818
1001
0000
1001
0000
1001
0000
0010
0100
,  // measure 819
1001
0000
0100
0010
1001
0000
0110
0000
,  // measure 820
1001
0000
0000
0000
0110
0000
0000
0000
1001
0000
0100
0010
0100
0000
0000
0000
,  // measure 821
1001
0000
0010
0100
0010
0000
1000
0000
0100
0000
0010
0000
0001
0000
0100
0000
,  // measure 822
0010
1000
0100
0010
0001
0100
0010
1000
,  // measure 823
0100
0000
0010
0000
0001
0000
0100
0000
0010
0000
1000
0100
0010
0001
0100
0010
,  // measure 824
1000
0100
0010
0001
0100
0010
1000
0100
0010
0100
1000
0010
0100
0001
0010
0100
,  // measure 825
1000
0010
0100
0001
0010
0100
1000
0010
0100
0001
0010
0100
0010
0001
0010
0000
,  // measure 826
0001
0010
0001
0000
1000
0001
0100
0000
0001
0100
0001
0000
0010
1000
0010
0000
,  // measure 827
1000
0010
1000
0000
0001
1000
0100
0000
0010
0001
0010
0000
0001
0100
0001
0000
,  // measure 828
0100
0001
0100
0000
0010
1000
0010
0000
1000
0010
1000
0000
0100
1000
0100
0000
,  // measure 829
1000
0100
1000
0000
0010
0001
0010
0000
0001
0010
0001
0000
0010
1000
0010
0000
,  // measure 830
1000
0010
1000
0000
0001
1000
0100
0000
1000
0100
1000
0000
0010
0001
0010
0000
,  // measure 831
0001
0010
0001
0000
1000
0001
0100
0000
0010
1000
0010
0000
1000
0100
1000
0000
,  // measure 832
0100
1000
0100
0000
0010
0001
0010
0000
0001
0010
0001
0000
0100
0001
0100
0000
,  // measure 833
0001
0100
0001
0000
0010
1000
0010
0000
1000
0010
1000
0010
1000
0001
0100
0000
,  // measure 834
0010
1000
0100
0000
0001
1000
0100
0000
0010
0001
1000
0000
0010
0100
0001
0000
,  // measure 835
0010
0100
1000
0000
0001
0100
0010
0000
1000
0001
0100
0000
0010
1000
0100
0000
,  // measure 836
0010
0001
0100
0000
0010
1000
0100
0000
0010
0001
0100
0000
1000
0001
0010
0000
,  // measure 837
0001
1000
0100
0000
1000
0010
0100
0000
0001
0010
0100
0000
0001
1000
0100
0000
,  // measure 838
0010
0001
0100
0000
1000
0001
0100
0000
0010
1000
0001
0000
0010
0100
1000
0000
,  // measure 839
0010
0100
0001
0000
1000
0100
0010
0000
0001
1000
0100
0000
0010
0001
0100
0000
,  // measure 840
0010
1000
0100
0000
0010
0001
0100
0000
0010
1000
0100
0000
0001
1000
0010
0000
,  // measure 841
1000
0001
0100
0000
0001
0010
0100
0000
1000
0010
0100
0010
0100
0000
0001
1000
,  // measure 842
0001
0000
0100
0000
0010
1000
0000
0010
1000
0000
0100
0000
0010
0000
0001
0100
,  // measure 843
0001
0000
1000
0000
0010
0100
0010
0100
0010
0000
1000
0000
0100
0010
0001
0010
,  // measure 844
0000
0001
1000
0000
0100
0010
0001
0010
0000
0001
1000
0000
0010
0100
0001
0100
,  // measure 845
0000
0001
1000
0000
0010
0100
0001
0100
0000
0001
1000
0000
0010
0000
0100
0001
,  // measure 846
0100
0000
0010
0000
1000
0100
0000
1000
0100
0000
0010
0000
0001
0100
0001
0000
,  // measure 847
1000
0010
1000
0010
1000
0100
0010
0100
1000
0000
1001
0000
1000
0100
0010
0100
,  // measure 848
1000
0000
1001
0000
0001
0100
0010
0100
0001
0000
1001
0000
1000
0100
0010
0100
,  // measure 849
1000
0000
1001
0000
0001
0100
0010
0100
0001
0000
1001
0000
0100
0000
1000
0001
,  // measure 850
1000
0000
0100
0000
0010
0001
0000
0010
0001
0000
0100
0000
0010
0000
1000
0100
,  // measure 851
1000
0000
0001
0000
0010
0100
0010
0100
0010
0000
0001
0000
0100
0010
1000
0010
,  // measure 852
0000
1000
0001
0000
0100
0010
1000
0010
0000
1000
0001
0000
0010
0100
1000
0100
,  // measure 853
0000
1000
0001
0000
0010
0100
1000
0100
0000
1000
0001
0000
0010
0000
0100
1000
,  // measure 854
0100
0000
0010
0000
0001
0100
0000
0001
0100
0000
0010
0000
1000
0100
1000
0000
,  // measure 855
0001
0010
0001
0010
0001
0100
0010
0100
0001
0000
1001
0000
0001
0100
0010
0100
,  // measure 856
0001
0000
1001
0000
1000
0100
0010
0100
1000
0000
1001
0000
0001
0100
0010
0100
,  // measure 857
0001
0000
1001
0000
1000
0100
0010
0100
1000
0000
1001
0000
0010
0100
0000
0001
,  // measure 858
0000
1000
0100
0000
0010
0100
0000
0100
0010
0000
0001
0000
1000
0100
0000
0010
,  // measure 859
0000
0000
1000
0000
0001
0100
0000
0010
0000
0000
0001
0000
0010
0100
0000
1000
,  // measure 860
0000
0000
1000
0000
0010
0100
0000
0001
0000
0000
0001
0000
0010
0100
0000
1000
,  // measure 861
0000
0000
1000
0000
0010
0100
0000
0001
0000
0000
0001
0000
0010
0100
0000
1000
,  // measure 862
0000
0001
0100
0000
0010
0100
0000
0100
0010
0000
1000
0000
0010
0100
0000
0001
,  // measure 863
0000
0000
1000
0000
0010
0100
0000
1000
0000
0000
0001
0000
0100
0010
0000
1000
,  // measure 864
0000
0000
1000
0000
0100
0010
0000
0001
0000
0000
0001
0000
0100
0010
0000
1000
,  // measure 865
0000
0000
1000
0000
0100
0010
0000
0001
0000
0000
0100
0000
0001
0000
0000
0000
,  // measure 866
0001
0000
0000
0000
0001
0100
0000
0000
0001
0000
0000
0000
1001
0000
0000
0000
,  // measure 867
0100
0000
0000
0000
0010
0100
0000
0000
0100
0000
0000
0000
1000
0000
0000
0000
,  // measure 868
1000
0000
0000
0000
1000
0100
0000
0000
1000
0000
0000
0000
1001
0000
0000
0000
,  // measure 869
0100
0000
0000
0000
0010
0100
0000
0000
0100
0000
0000
0000
0001
0000
0000
1000
,  // measure 870
0001
0000
0000
1000
0001
0000
0000
1000
0001
0000
0000
1000
0100
0000
0000
1000
,  // measure 871
0100
0000
0000
1000
0001
0000
0000
1000
0001
0000
0000
0100
0001
0000
0000
0100
,  // measure 872
0001
0000
0000
0100
0001
0000
0000
0100
0001
0000
0000
1000
0001
0000
0000
1000
,  // measure 873
0001
0000
0000
0100
1000
0000
0000
0100
1000
0000
0000
0010
0100
0000
0000
0001
,  // measure 874
0100
0000
0000
1000
0100
0000
0000
0010
0100
0000
0000
0001
0100
0000
0000
1000
,  // measure 875
0100
0000
0000
0010
0100
0000
0000
0010
0100
0000
0000
0001
0100
0000
0000
1000
,  // measure 876
0100
0000
0000
0001
0100
0000
0000
1000
0100
0000
0000
0010
0100
0000
0000
0000
,  // measure 877
1001
0000
0100
0000
1000
0000
0010
0000
0001
0100
1000
0100
0000
1001
0000
0000
,  // measure 878
0000
0000
0000
0000
0001
0000
1000
0000
0001
1000
0000
0000
0001
0000
1000
0000
,  // measure 879
0001
1000
0000
0000
0001
0000
1000
0000
0001
1000
0000
0000
0010
0000
0100
0000
,  // measure 880
0001
1000
0000
1000
0100
0000
1000
0000
0010
1000
0000
0000
0100
0000
0001
0000
,  // measure 881
0010
0001
0000
0000
0100
0000
1000
0000
0010
1000
0000
0000
0001
0000
0100
0000
,  // measure 882
0010
0100
0000
0100
0001
0000
1000
0000
0001
1000
0000
0000
0001
0000
1000
0000
,  // measure 883
0001
1000
0000
0000
0001
0000
1000
0000
0001
1000
0000
0000
0010
0000
0100
0000
,  // measure 884
0001
1000
0000
1000
0100
0000
0010
0000
0001
0010
0000
0000
0100
0000
0010
0000
,  // measure 885
1000
0010
0000
0010
0001
1000
0001
1000
0001
1000
0001
1000
0010
0100
0010
0100
,  // measure 886
0010
0100
0010
0100
1001
0000
0010
0000
1000
0000
0010
0000
0100
0000
0010
0000
,  // measure 887
1000
0010
0001
0100
1000
0100
0001
0100
,  // measure 888
1000
0100
0010
0001
0100
0001
0010
0001
,  // measure 889
0100
0001
0010
1000
0001
0100
0010
0001
,  // measure 890
1000
0100
1001
0010
0001
0010
0100
0010
,  // measure 891
0001
0010
1000
0100
0001
0100
1000
0100
,  // measure 892
0001
0100
0010
1000
0100
1000
0010
1000
,  // measure 893
0100
0000
1000
0000
0010
0000
0100
0000
1000
0000
0001
0000
0100
0010
0000
1000
,  // measure 894
0000
0001
0100
0000
0010
0000
1000
0000
0010
0000
0000
0000
0010
0000
0100
0000
,  // measure 895
0010
0000
0010
0001
0010
0000
0010
1000
,  // measure 896
0001
0000
0100
0001
0100
0000
0100
0010
,  // measure 897
0100
0000
0100
1000
0100
0000
1000
0001
,  // measure 898
1000
0000
0010
0001
0010
0000
0010
0100
,  // measure 899
0010
0000
0010
1000
0010
0000
0010
0001
,  // measure 900
1000
0000
0100
1000
0100
0000
0100
0010
,  // measure 901
0100
0000
0100
0001
0100
0000
0001
1000
,  // measure 902
0001
2000
0010
0100
,  // measure 903
3010
0200
0010
1000
,  // measure 904
0310
0002
0100
1000
,  // measure 905
0103
2000
3001
0200
,  // measure 906
0310
0002
0000
0000
,  // measure 907
0000
0200
0000
0003
,  // measure 908
0000
0020
0000
0300
,  // measure 909
0000
2000
0030
0200
,  // measure 910
3000
0000
0300
0000
0010
0001
1000
0000
,  // measure 911
1001
0000
0100
1000
0000
1001
0000
0010
,  // measure 912
0100
0010
1000
1000
0100
1000
0001
0001
,  // measure 913
1000
0001
0010
0010
0001
0010
0002
0000
,  // measure 914
1000
1003
0000
0000
0010
0100
0001
0000
,  // measure 915
1100
0000
0010
0101
0000
1100
0000
0010
,  // measure 916
0100
0010
0110
0000
1001
0000
0220
0000
,  // measure 917
0330
1000
0001
1000
0000
0100
0011
0000
,  // measure 918
0101
2020
0000
0000
,  // measure 919
3030
2002
0000
0000
,  // measure 920
3003
2200
0000
0000
,  // measure 921
0000
0000
0000
0000
0000
0000
0000
0000
3300
0000
0000
0000
1001
0000
0010
1000
,  // measure 922
0000
0001
0000
1000
0220
0000
0000
0000
0000
0000
0000
0000
0000
0000
0000
0000
,  // measure 923
0330
2002
0000
0000
,  // measure 924
3003
0202
0000
0000
,  // measure 925
0000
0000
0000
0000
0000
0000
0000
0000
0303
0000
0000
0000
0010
0000
0000
1000
,  // measure 926
0000
0000
0100
0000
0000
0000
0020
0000
0000
0032
0000
0000
1000
0000
0000
0023
,  // measure 927
0000
0000
0032
0000
0000
1000
0000
0000
0203
0000
0000
0010
0000
0000
2300
0000
,  // measure 928
0000
0001
0000
0000
3002
0000
0000
0100
0000
0000
0010
0000
0000
2003
0000
0000
,  // measure 929
0010
0000
0000
0100
0000
0000
3002
0000
0000
0100
0000
0000
0010
0000
0000
1000
,  // measure 930
0000
0000
1003
0000
0000
0010
0100
0000
0010
0100
0000
0010
0100
0000
0010
0100
,  // measure 931
0000
0010
0100
0000
0010
1000
0000
0010
1000
0000
0010
1000
0000
0010
1000
0000
,  // measure 932
0010
1000
0000
0001
0010
0000
0001
0010
0000
0001
0010
0000
0001
0010
0000
0001
,  // measure 933
0010
0000
0001
0010
0000
0001
0010
0000
0100
1000
0000
0001
1000
0000
0001
0010
,  // measure 934
0000
0001
0010
0000
0000
0000
1001
0000
0000
0011
0000
0000
1001
0000
0000
1001
,  // measure 935
0000
0000
1100
0000
0000
0110
0000
0000
1100
0000
0000
1010
0000
0000
1001
0000
,  // measure 936
0000
0101
0000
0000
0011
0000
0000
1001
0000
0000
1100
0000
0000
1010
0000
0000
,  // measure 937
1001
0000
0000
0101
0000
0000
1100
0000
0000
1010
0000
0000
0011
0000
0000
1001
,  // measure 938
0000
0110
1001
0100
1000
0001
0100
0001
,  // measure 939
1000
0100
1000
0010
0100
0001
0010
0100
,  // measure 940
1000
0010
0100
0001
0010
0001
0100
0001
,  // measure 941
0010
0001
0100
0010
1000
0100
1000
0100
,  // measure 942
0010
1000
0001
0100
0001
0100
0010
1000
,  // measure 943
0010
1000
0001
0010
0100
0010
0001
1000
,  // measure 944
0100
0010
1001
0000
0001
0100
0010
0000
,  // measure 945
0100
0001
0000
0100
0010
0000
0100
0001
,  // measure 946
0000
0010
0100
1000
0010
0100
0000
0010
,  // measure 947
1000
0000
0010
0100
0000
0010
1000
0000
,  // measure 948
0010
0100
0000
0010
1000
0000
0001
0010
,  // measure 949
0000
1000
0010
0000
0001
0010
0000
0100
,  // measure 950
1000
0000
0001
0100
0000
0010
1000
0000
,  // measure 951
0001
0010
0000
0100
1000
0000
0010
0100
,  // measure 952
0010
0000
0110
0000
1000
0010
0100
0000
,  // measure 953
0010
1000
0000
0010
0100
0000
0010
1000
,  // measure 954
0000
0100
0010
0001
0100
0010
0000
0100
,  // measure 955
0001
0000
0100
0010
0000
0100
0001
0000
,  // measure 956
0100
0010
0000
0100
0001
0000
1000
0100
,  // measure 957
0000
0001
0100
0000
1000
0100
0000
0010
,  // measure 958
0001
0000
1000
0010
0000
0100
0001
0000
,  // measure 959
1000
0100
0000
0010
0001
0000
0100
0010
,  // measure 960
0100
0000
0110
0000
0001
1000
0100
1000
,  // measure 961
0100
0000
0010
0100
0001
0000
1000
0100
,  // measure 962
0010
0000
0100
0010
0001
0100
0000
0100
,  // measure 963
0010
0000
0010
1000
0000
1000
0001
0000
,  // measure 964
0001
0010
0000
0010
0100
0000
0100
1000
,  // measure 965
0000
0100
1000
0000
0100
1000
0000
0100
,  // measure 966
1000
0000
0100
1000
0000
0100
1000
0100
,  // measure 967
0010
0001
0010
0100
1000
0010
0100
0010
,  // measure 968
0100
0000
1001
0000
0000
0000
0010
1000
,  // measure 969
0000
0010
1000
0000
0001
0100
0000
0001
,  // measure 970
0100
0000
1000
0100
0000
1000
0100
0000
,  // measure 971
0010
0001
0000
0010
0001
0000
0100
0010
,  // measure 972
0000
0100
0010
0100
0010
1000
0001
0000
,  // measure 973
1000
0100
1000
0000
0001
0100
0001
0000
,  // measure 974
1000
0010
1000
0000
0001
0010
0001
0000
,  // measure 975
0100
0010
0100
0000
0001
1000
0001
0000
,  // measure 976
0010
0100
0010
0000
1001
0000
0010
0000
,  // measure 977
0100
0010
1000
0001
,  // measure 978
1000
1001
0100
0011
,  // measure 979
0001
0101
0000
1001
,  // measure 980
0110
1001
1000
1100
,  // measure 981
0001
0101
0010
1000
,  // measure 982
0100
0010
1001
1001
,  // measure 983
0110
1001
0100
0010
,  // measure 984
0001
1000
0000
0000
,  // measure 985
0100
0010
0110
0001
,  // measure 986
1001
0000
0110
0001
,  // measure 987
1001
1001
0000
0100
,  // measure 988
1000
0100
0010
0001
,  // measure 989
0100
0010
1000
0100
,  // measure 990
0010
0001
0011
0001
,  // measure 991
1001
1000
1100
0010
,  // measure 992
0100
0110
0000
0000
,  // measure 993
0100
0010
0001
1000
,  // measure 994
0001
1001
0100
1010
,  // measure 995
1000
1100
0000
1001
,  // measure 996
0110
1001
0001
0101
,  // measure 997
1000
1100
0010
0001
,  // measure 998
0100
0010
1001
1001
,  // measure 999
0110
1001
0100
0010
,  // measure 1000
1000
0001
0000
0000
,  // measure 1001
0100
0010
0110
1000
,  // measure 1002
1001
0000
0110
1000
,  // measure 1003
1001
1001
0000
0100
,  // measure 1004
0001
0100
0010
1000
,  // measure 1005
0100
0010
0001
0100
,  // measure 1006
0010
1000
1010
1000
,  // measure 1007
1001
0001
0101
0010
,  // measure 1008
0100
0110
0220
0000
,  // measure 1009
0000
0000
0000
0000
,  // measure 1010
0330
0001
2002
0000
,  // measure 1011
0000
0000
0000
0000
,  // measure 1012
3003
0000
1000
0100
,  // measure 1013
0001
0100
1000
0100
,  // measure 1014
0001
0100
1000
0010
,  // measure 1015
0001
0010
1000
0010
,  // measure 1016
0001
0000
0010
0000
1000
0100
1000
0100
,  // measure 1017
1000
0100
1000
0100
0010
0001
0010
0001
,  // measure 1018
0010
0001
0010
0001
0100
0010
0100
0010
,  // measure 1019
0100
0010
0100
0010
1000
0001
1000
0001
,  // measure 1020
1000
0001
1000
0001
1000
0000
1000
0000
,  // measure 1021
1000
0010
0100
0000
0100
0001
1000
0001
,  // measure 1022
1000
0000
1001
0000
0001
0100
0010
1000
,  // measure 1023
0001
0010
0100
1000
0010
0010
0100
0001
,  // measure 1024
2000
0000
0001
3001
0000
0000
0100
0010
,  // measure 1025
0100
1000
0001
0000
0100
0010
1000
1100
,  // measure 1026
0000
0101
0010
1000
0001
0010
0100
1000
,  // measure 1027
0001
0101
1000
1100
,  // measure 1028
0010
0100
0010
0001
2002
0000
0000
0000
,  // measure 1029
0000
3003
2020
0000
,  // measure 1030
0000
3030
0100
0001
,  // measure 1031
0010
1000
0100
0010
0001
0100
0001
0100
,  // measure 1032
0010
1000
0100
0010
0001
0100
0010
0100
,  // measure 1033
0001
0100
0010
0100
0001
0010
0100
1000
,  // measure 1034
0001
0010
0100
1000
0010
1000
0100
1000
,  // measure 1035
0010
1000
0100
1000
0010
1000
0100
0010
,  // measure 1036
0001
1000
0100
0010
0001
0100
0010
0110
,  // measure 1037
0000
0100
0010
1000
1001
0000
0100
0000
,  // measure 1038
1000
0001
1000
0000
0100
0000
1000
0000
0001
0000
0000
0000
1001
0000
0000
0000
,  // measure 1039
0100
1000
0100
0000
0010
0000
0001
0000
0110
0000
0000
0000
0001
0000
0000
0000
,  // measure 1040
0100
0010
0100
0000
0001
0000
1000
0000
0100
0000
0000
0000
1001
0000
0000
0000
,  // measure 1041
0001
1000
0001
0000
1000
0000
0100
0000
0010
0100
0000
0000
0001
0000
0000
0000
,  // measure 1042
1000
0100
1000
0001
1000
0000
0000
0000
0001
0100
0000
0000
0010
0000
0000
0000
,  // measure 1043
1000
0100
0010
0100
1000
0000
0000
0000
0010
0100
0000
0000
1000
0000
0000
0000
,  // measure 1044
0001
0100
0001
1000
0001
0000
0000
0000
1000
0100
0000
0000
0010
0000
0000
0000
,  // measure 1045
0001
0100
0010
0100
0001
0000
0000
0000
1001
0000
0100
0000
1000
0000
0010
0000
,  // measure 1046
2000
0000
3001
0010
0002
0000
0103
0010
,  // measure 1047
1000
0100
0010
0100
2000
0000
3010
0100
,  // measure 1048
0001
0100
1000
0100
0002
0010
0000
2003
,  // measure 1049
0100
0000
3000
0000
1001
0100
0001
0010
,  // measure 1050
0002
0000
1003
0010
2000
0000
3100
0010
,  // measure 1051
0001
0100
0010
0100
0002
0000
0013
0100
,  // measure 1052
1000
0000
0100
0000
0001
0000
0100
0000
1000
0000
0000
0101
0000
0000
2002
0000
,  // measure 1053
0000
0000
0000
0000
3003
0000
0000
0000
0010
0000
0000
1000
0000
0000
0100
0000
,  // measure 1054
1100
0000
0000
0001
0000
0000
0100
0000
0110
0000
0000
1000
0000
0000
0001
0000
,  // measure 1055
1001
0000
0000
0000
0100
0000
0000
0000
1001
0000
0000
0000
0010
0000
0100
0001
,  // measure 1056
0100
0010
1000
0000
0001
0010
0100
1000
,  // measure 1057
0001
0000
0000
0000
0101
0000
0000
0000
0010
0000
0000
0001
0000
0000
0100
0000
,  // measure 1058
0101
0000
0000
1000
0000
0000
0100
0000
0110
0000
0000
0001
0000
0000
1000
0000
,  // measure 1059
1001
0000
0000
0010
0000
0000
0100
0000
0101
0000
0000
0000
0101
0000
0000
0000
,  // measure 1060
0010
0000
1000
0100
0010
0001
1000
0001
,  // measure 1061
0200
0000
0000
0000
0310
0100
0010
0100
0010
0000
1000
0100
0000
0000
1001
0000
,  // measure 1062
0010
0000
1000
0100
0000
0000
1001
0000
0010
0000
0001
0100
0000
0000
1001
0000
,  // measure 1063
0010
0000
0001
0100
0000
0000
1010
0000
0001
0000
1000
0100
0000
0000
1010
0000
,  // measure 1064
0001
0000
1000
0100
0000
0000
0011
0000
1000
0000
0001
0100
0000
0000
0011
0000
,  // measure 1065
1000
0000
0001
0100
0000
0000
0110
0000
0001
0000
1000
0100
1000
0000
0110
0000
,  // measure 1066
0001
0000
1000
0100
1000
0000
0101
0000
0010
0000
1000
0001
1000
0000
0101
0000
,  // measure 1067
0010
0000
1000
0001
1000
0000
0110
0000
0001
0000
1000
0100
1000
0000
0011
0000
,  // measure 1068
0100
0000
0010
1000
0010
0000
1001
0000
0100
1000
0100
1000
0001
0100
0001
0100
,  // measure 1069
0010
1000
0001
0100
0001
1000
0100
0010
0001
0000
0100
0000
0010
0000
1000
0000
,  // measure 1070
0020
0000
1030
0001
2000
0000
3100
0010
,  // measure 1071
0100
1000
0001
0010
0002
0000
0103
0010
,  // measure 1072
1000
0100
0010
0100
0110
0000
1001
0100
,  // measure 1073
1100
0000
0101
0000
1000
0100
0010
0100
,  // measure 1074
0020
0000
0031
1000
0002
0000
0103
0010
,  // measure 1075
0100
0001
1000
0010
2000
0000
3100
0010
,  // measure 1076
0001
0000
0100
0000
0010
0000
0100
0000
0110
0000
0001
1000
0000
0100
0010
0000
,  // measure 1077
0200
0000
0000
0000
0310
0000
0000
0000
2000
0000
0000
3001
0100
0000
0010
0000
,  // measure 1078
2000
0000
0000
3100
0010
0000
0001
0000
0200
0000
0000
0310
1000
0000
0001
0000
,  // measure 1079
1002
0000
0000
0000
0103
0000
0000
0000
0010
0000
0000
0000
1100
0000
0010
0001
,  // measure 1080
1000
0010
0100
0010
1000
0100
0001
0100
,  // measure 1081
1000
0000
0000
0000
0101
0000
0000
0000
0002
0000
0000
1003
0100
0000
0010
0000
,  // measure 1082
0002
0000
0000
0103
0010
0000
1000
0000
0200
0000
0000
0310
0001
0000
1000
0000
,  // measure 1083
2001
0000
3100
0001
0102
0000
1003
0010
,  // measure 1084
0120
0000
0130
1000
2002
0000
3003
0010
,  // measure 1085
0202
0000
0000
0000
0303
0000
0000
0000
0010
0000
0010
1000
0000
0000
1000
0000
,  // measure 1086
0001
0000
0001
0100
0000
0000
0100
0000
0001
0000
0001
0010
0000
0000
0010
0000
,  // measure 1087
0100
0000
0100
0010
0000
0000
1001
0000
0010
0000
0010
0001
0000
0000
0001
0000
,  // measure 1088
1000
0000
1000
0100
0000
0000
0100
0000
1000
0000
1000
0010
0000
0000
0010
0000
,  // measure 1089
0100
0000
0100
0010
0000
0000
1001
0000
0010
0000
1000
0001
0000
0000
0100
0000
,  // measure 1090
1000
0000
0001
0100
0000
0000
0001
0000
0010
0000
0100
1000
0000
0000
0100
0000
,  // measure 1091
1000
0000
0010
0100
0000
0000
0010
0000
1100
0000
0001
1000
0000
0000
0100
0000
,  // measure 1092
0001
0000
1000
0100
0000
0000
1000
0000
0010
0000
0100
0001
0000
0000
0001
0000
,  // measure 1093
0120
0100
0000
0032
2000
0000
3003
0000
,  // measure 1094
0010
0100
0001
0100
0010
0110
0000
1000
,  // measure 1095
0001
0100
0010
1000
1100
0000
0001
0101
,  // measure 1096
0000
0020
0000
0130
0000
1000
0001
0010
,  // measure 1097
0100
2000
0000
0000
3020
0000
0000
0000
,  // measure 1098
0130
0000
0010
0200
0000
0302
0000
0000
,  // measure 1099
1003
0000
0000
1000
0000
0000
0100
0000
0010
0000
0001
0000
0100
0000
0000
0000
,  // measure 1100
0010
1000
0100
0000
0010
0001
1000
1001
,  // measure 1101
0110
0000
0000
0101
0000
0000
1100
0000
1200
0000
0000
0000
0000
0000
0310
0000
,  // measure 1102
0001
0000
0000
1000
0000
0000
0100
0000
0120
0000
0000
0000
0000
0000
0130
0000
,  // measure 1103
1000
0000
0000
0001
0000
0000
0100
0000
2010
0000
0000
0000
0000
0000
3010
0000
,  // measure 1104
0100
0000
0000
0001
0000
0000
0010
0000
1002
0000
0000
0000
0000
0000
0013
0000
,  // measure 1105
0100
0000
0000
1000
0000
0000
0010
0000
0210
0000
0000
0000
0000
0000
0301
0000
,  // measure 1106
1000
0000
0000
0010
0000
0000
1000
0000
2002
0000
0000
0000
3003
0000
0100
0010
,  // measure 1107
0100
1000
0110
0001
0010
0100
1000
0001
,  // measure 1108
0200
0000
0001
0010
,  // measure 1109
1000
0000
0310
0000
2002
0000
0000
3003
,  // measure 1110
2000
0000
0000
3020
0230
0000
0002
0000
,  // measure 1111
0300
0000
0203
2300
0020
0000
3000
0000
,  // measure 1112
0002
0030
0000
2003
0200
0000
0000
0000
,  // measure 1113
3000
0000
0000
0000
0300
0000
0000
0000
1001
0000
0010
0100
0000
0100
0001
0000
,  // measure 1114
1100
0000
0010
0001
0000
0001
1000
0000
0110
0000
0001
1000
0000
1000
0100
0000
,  // measure 1115
0011
0000
0100
0010
0000
0010
1000
0000
0101
0000
0010
1000
0000
1000
0100
0010
,  // measure 1116
0100
0000
1000
0010
0000
0100
0001
0010
0001
0000
1000
0100
0000
0010
0001
0100
,  // measure 1117
0001
0000
0010
0100
0000
1000
0010
0100
1001
0000
0010
0100
0000
0100
1000
0000
,  // measure 1118
0101
0000
0010
1000
0000
1000
0001
0000
0110
0000
1000
0001
0000
0001
0100
0000
,  // measure 1119
1010
0000
0100
0010
0000
0010
0001
0000
1100
0000
0010
0001
0000
0001
0100
0010
,  // measure 1120
0100
0000
0001
0010
0000
0100
1000
0010
1000
0000
0001
0100
0000
0010
1000
0100
,  // measure 1121
1000
0000
0010
0100
0000
0001
0010
0100
1001
0000
0000
0100
0001
0000
0000
1000
,  // measure 1122
0001
0000
0000
1000
0110
0000
0000
0100
1001
0000
0000
0100
1000
0000
0000
0001
,  // measure 1123
1000
0000
0000
0001
0110
0000
0000
0100
1001
0000
0000
0010
0001
0000
0000
0100
,  // measure 1124
1000
0000
0000
0010
0101
0000
0000
0010
1001
0000
0000
0010
1000
0000
0000
0100
,  // measure 1125
0001
0000
0000
0010
1100
0000
0000
0010
1001
0000
0100
1000
0000
0000
0000
0000
,  // measure 1126
1001
0000
0100
1000
0000
0000
0000
0000
1001
0000
0100
0001
0000
0000
0000
0000
,  // measure 1127
1001
0000
0100
0001
0000
0000
0000
0000
0110
0000
0001
1000
0000
0000
0000
0000
,  // measure 1128
0110
0000
0001
1000
0000
0000
0000
0000
0010
0100
0010
1000
0001
1000
0010
0100
,  // measure 1129
0010
1000
0100
0010
0001
0100
0010
1000
0100
0000
0000
0000
0100
0000
0000
0000
,  // measure 1130
0010
0001
0010
0000
1100
0000
0000
0000
0001
0000
0000
0000
0001
0000
0000
0000
,  // measure 1131
0010
1000
0010
0000
1001
0000
0000
0000
0100
0000
0000
0000
0100
0000
0000
0000
,  // measure 1132
0010
1000
0010
0000
0101
0000
0000
0000
1000
0000
0000
0000
1000
0000
0000
0000
,  // measure 1133
0010
0001
0010
0000
1001
0000
0200
0000
0000
0000
0310
0000
0001
0000
2000
0000
,  // measure 1134
0000
3010
0100
0002
0000
1003
0100
0020
,  // measure 1135
0000
0031
0100
2002
0000
0000
3003
0000
,  // measure 1136
0100
0100
2002
3003
,  // measure 1137
0100
0000
0000
0000
0100
0000
0000
0000
1000
0010
0000
1000
0010
0000
1000
0000
,  // measure 1138
0001
0000
0100
0000
0001
0000
1000
0000
0001
0010
0000
0001
0010
0000
0001
0000
,  // measure 1139
1000
0000
0100
0000
1000
0000
0001
0000
0100
0010
0000
0100
0010
0000
1000
0000
,  // measure 1140
0001
0000
0010
0000
0100
0000
1000
0000
0010
0100
0000
0010
0100
0000
0001
0000
,  // measure 1141
1000
0100
0010
0001
1100
0000
1000
0000
,  // measure 1142
0001
1000
0001
1000
0101
0000
0001
0000
,  // measure 1143
1000
0001
1000
0001
0110
1000
0001
1000
,  // measure 1144
0110
0000
1000
0000
0001
0000
1000
0000
0010
0100
0010
0100
0010
0100
0010
0100
,  // measure 1145
0010
1000
0001
0100
0010
1000
0001
0100
1001
0000
0100
0000
0010
0000
0100
0000
,  // measure 1146
1001
0010
0100
0010
1001
0100
1000
0100
,  // measure 1147
1001
0010
0001
0010
1001
0100
1000
0010
,  // measure 1148
1001
0100
0001
0010
1001
0010
1000
0100
,  // measure 1149
1001
0010
0001
0100
0011
0100
1000
0001
,  // measure 1150
1010
0100
0001
1000
0110
0001
1000
0100
,  // measure 1151
0110
1000
0001
0100
0011
0100
1000
0010
,  // measure 1152
0101
0010
1000
0100
1010
0100
0001
0010
,  // measure 1153
1100
0010
0001
0100
1001
0000
0100
1000
,  // measure 1154
0010
0100
0001
1000
0002
0000
0013
0100
,  // measure 1155
1000
0001
0100
0010
2000
0000
3100
0020
,  // measure 1156
0000
0031
0100
0001
0010
0100
1000
0001
,  // measure 1157
0010
0100
1000
0001
1001
0000
0100
0001
,  // measure 1158
0010
0100
1000
0001
2000
0000
3010
0100
,  // measure 1159
0001
1000
0100
0010
0002
0000
0103
0020
,  // measure 1160
0000
1030
0100
1000
0010
0100
0001
1000
,  // measure 1161
0010
0000
0100
0000
0001
0000
1000
0000
1001
0000
0000
0100
1000
0000
0010
0000
,  // measure 1162
0100
0000
0001
0000
1000
0000
0100
0000
1100
0000
0000
0001
0100
0000
0010
0000
,  // measure 1163
1000
0000
0100
0000
1000
0000
0000
0000
0110
0000
0000
0001
1000
0000
0010
0000
,  // measure 1164
0100
0000
0001
0000
0010
0000
0100
0000
0101
0000
0000
0010
0100
0000
0010
0000
,  // measure 1165
1000
0001
1000
1001
0100
0010
0100
1100
,  // measure 1166
0000
0001
0100
0101
0000
0110
0110
1000
,  // measure 1167
0001
0100
0010
1000
0000
0001
0001
0010
,  // measure 1168
0010
0100
0100
1000
1000
0010
0100
0001
,  // measure 1169
0100
0010
1000
0000
1001
0010
0101
0010
,  // measure 1170
1000
0100
0010
0001
1001
0010
1100
0010
,  // measure 1171
0001
0000
0100
0000
0010
0000
1000
0000
0001
0100
0001
0000
0100
0000
1000
0000
,  // measure 1172
0100
0001
0100
0000
0001
0000
0010
0000
0100
1000
0100
0000
0010
0000
0001
0000
,  // measure 1173
0100
0010
1000
0001
1100
0010
0001
0100
,  // measure 1174
0000
1000
1000
0101
0010
1000
0100
0010
,  // measure 1175
0000
0000
0001
0000
0001
0000
1001
0000
0010
0000
0100
0001
0000
0001
0100
0000
,  // measure 1176
0010
0000
1000
0100
0000
0100
1000
0000
0001
0000
0100
0000
0010
0000
0100
0000
,  // measure 1177
0001
0000
0110
0000
2002
0000
0000
3003
,  // measure 1178
0000
0000
1000
0000
0010
0000
0001
0000
1000
0000
0000
1000
0100
0000
0000
0100
,  // measure 1179
0010
0000
0000
0010
0001
0000
0000
0001
1000
0000
0100
0000
0010
0000
0100
0000
,  // measure 1180
1000
0000
0010
0000
0100
0000
0001
0000
0010
0000
0000
0010
0100
0000
0000
0100
,  // measure 1181
1000
0000
0000
1000
0001
0000
0100
0000
0010
0000
1000
0000
1001
0000
0000
0000
,  // measure 1182
0101
0000
0000
0000
1100
0000
0010
0000
0100
0000
0000
0100
0001
0000
1000
0000
,  // measure 1183
0000
0000
0100
0000
0010
0000
0100
0000
1000
0000
0000
1000
0010
0000
0100
0000
,  // measure 1184
0000
0100
1001
0000
0001
0100
1000
0100
,  // measure 1185
0001
0010
2000
0200
0000
0000
0000
0000
,  // measure 1186
0000
3300
0000
0000
,  // measure 1187
0000
0000
0000
0000
0000
0000
0000
0000
0010
0100
0000
0110
0000
0000
1001
0000
,  // measure 1188
0001
1000
0000
0110
0000
0000
2002
0000
0000
0000
0000
0000
0000
0000
3003
0000
,  // measure 1189
0000
0000
0000
0000
,  // measure 1190
0000
0000
0000
0000
,  // measure 1191
0000
0000
0000
0000
0000
0000
1001
0000
0010
0100
0000
0110
0000
0000
1001
0000
,  // measure 1192
1000
0001
0000
0110
0000
0000
2002
0000
0000
0000
0000
0000
0000
0000
3003
0000
,  // measure 1193
0000
0000
0000
0000
,  // measure 1194
0000
0000
0000
0000
,  // measure 1195
0000
0000
0000
0000
0000
0000
0000
0000
0001
1000
0000
0101
0000
0000
1100
0000
,  // measure 1196
0010
0001
0000
1001
0000
0000
0220
0000
0000
0000
0000
0000
0000
0000
0330
0000
,  // measure 1197
0000
0000
0000
0000
,  // measure 1198
0000
0000
0000
0000
,  // measure 1199
0000
0000
0000
0000
0000
0000
0110
0000
1000
0001
0000
1100
0000
0000
0101
0000
,  // measure 1200
0010
1000
0000
1001
0000
0000
0220
0000
0000
0000
0000
0000
0000
0000
0330
0000
,  // measure 1201
0000
0000
0000
0000
,  // measure 1202
0000
0000
0000
0000
,  // measure 1203
0000
0000
0000
0000
0000
0000
0000
0000
0010
0100
0000
0020
0000
0000
1030
0000
,  // measure 1204
0001
1000
0000
0002
0000
0000
0103
0000
0001
1000
0000
0002
0000
0000
1003
0000
,  // measure 1205
0010
1000
0000
0020
0000
0000
0130
0000
0001
0100
0000
0002
0000
0000
1003
0000
,  // measure 1206
0010
1000
0000
0020
0000
0000
0130
0000
0001
0100
0000
0020
0000
0000
0130
0000
,  // measure 1207
0001
1000
0000
0200
0000
0000
1300
0000
0010
0100
0000
0020
0000
0000
0031
0000
,  // measure 1208
1000
0001
0000
2000
0000
0000
3100
0000
1000
0001
0000
2000
0000
0000
3001
0000
,  // measure 1209
0010
0001
0000
0020
0000
0000
0130
0000
1000
0001
0000
0200
0000
0000
0301
0000
,  // measure 1210
1000
0001
0000
2000
0000
0000
3010
0000
1000
0010
0000
0002
0000
0000
0013
0000
,  // measure 1211
1000
0100
0000
0020
0000
0000
0031
0000
1001
0000
0000
0000
0010
0000
0100
0000
,  // measure 1212
0110
0000
0001
0100
0101
0000
1000
0100
,  // measure 1213
1100
0010
0001
1000
1001
0000
0001
0100
,  // measure 1214
0110
0000
1000
0100
0110
0000
0001
0010
,  // measure 1215
0011
0000
0100
0010
1001
1000
0001
0100
,  // measure 1216
1001
0010
1000
0001
1001
0010
0001
1000
,  // measure 1217
1001
0001
1000
0100
0010
0001
0100
0000
,  // measure 1218
0010
0000
1000
0000
0100
0000
0010
0000
0001
0100
0000
0010
0000
0000
1001
0000
,  // measure 1219
1000
0100
0000
0010
0000
0000
1001
0000
0001
0010
0000
0100
0000
0000
1001
0000
,  // measure 1220
1000
0010
0000
0100
0000
0000
1001
0000
0001
0010
0000
0100
0000
0000
1001
0000
,  // measure 1221
1000
0010
0000
0100
0000
0000
1001
0000
0100
0010
0000
0001
0000
0000
0101
0000
,  // measure 1222
0010
1000
0000
0001
0000
0000
1001
0000
0100
0010
0000
1000
0000
0000
1100
0000
,  // measure 1223
0010
0001
0000
1000
0000
0000
1001
0000
0010
1000
0000
0001
0000
0000
1001
0000
,  // measure 1224
0010
0001
0000
1000
0000
0000
1001
0000
0010
1000
0000
0001
0000
0000
1001
0000
,  // measure 1225
0010
0001
0000
1000
0000
0000
1001
0000
0100
0010
0000
0010
1000
0100
0000
0100
,  // measure 1226
1000
0010
0000
0010
1000
0100
0000
0100
0010
0001
0000
0001
0100
0010
0000
0010
,  // measure 1227
0100
0001
0000
0001
0100
0010
0000
0010
1000
0100
0010
0100
0010
0100
0010
0100
,  // measure 1228
0010
0100
0010
0100
0010
0100
0010
0100
0010
0001
0000
1000
0000
0100
0000
0010
,  // measure 1229
0000
0001
0000
1000
0000
0100
0000
0010
0001
0100
0001
0100
0010
1000
0010
1000
,  // measure 1230
0100
1000
0100
1000
0001
0010
0001
0010
0100
1000
0010
0100
0001
0010
0100
1000
,  // measure 1231
0010
0100
0001
0010
0100
1000
0010
0100
0001
1000
0000
1100
0000
0000
1100
0000
,  // measure 1232
0010
0100
0000
1001
0000
0000
1001
0000
0100
0001
0000
0101
0000
0000
0101
0000
,  // measure 1233
0010
1000
0000
1001
0000
0000
1100
0000
0010
0001
0000
0011
0000
0000
1010
0000
,  // measure 1234
1000
0001
0000
1001
0000
0000
0110
0000
0010
1000
0000
1010
0000
0000
0011
0000
,  // measure 1235
0001
0100
0000
0101
0000
0000
1100
0000
1000
0001
0000
0101
0000
0000
0101
0000
,  // measure 1236
0010
0100
0000
1001
0000
0000
1001
0000
0100
1000
0000
1100
0000
0000
1100
0000
,  // measure 1237
0010
0001
0000
1001
0000
0000
0101
0000
0010
1000
0000
1010
0000
0000
0011
0000
,  // measure 1238
0001
1000
0000
1001
0000
0000
0110
0000
0010
0001
0000
0011
0000
0000
1010
0000
,  // measure 1239
1000
0100
0000
1100
0000
0000
0101
0000
0010
1000
0010
1000
0000
0000
1001
0000
,  // measure 1240
0100
1000
0100
1000
0000
0000
0101
0000
0010
1000
0010
1000
0000
0000
1001
0000
,  // measure 1241
0100
1000
0100
1000
0000
0000
0101
0000
0010
1000
0010
1000
0000
0000
1001
0000
,  // measure 1242
0100
1000
0100
1000
0000
0000
0101
0000
0010
1000
0010
1000
0000
0000
1001
0000
,  // measure 1243
0100
1000
0100
1000
0000
0000
0101
0000
0010
1000
0000
1000
0000
0000
0100
0000
,  // measure 1244
1000
0001
0000
0100
0000
0000
0100
0000
0010
1000
0000
1000
0000
0000
0100
0000
,  // measure 1245
1000
0001
0000
0100
0000
0000
0100
0000
0010
1000
0000
1000
0000
0000
0100
0000
,  // measure 1246
1000
0001
0000
0100
0000
0000
0100
0000
0110
0000
0000
0000
0000
0000
0000
0000
,  // measure 1247
1001
0000
0000
0000
0001
0100
0010
0000
,  // measure 1248
0010
1000
0001
0000
0001
0100
0010
0000
,  // measure 1249
0010
1000
0001
0000
0001
0010
0100
0000
,  // measure 1250
0100
1000
0001
0000
0001
0010
0100
0000
,  // measure 1251
0100
1000
0001
0000
0001
0100
0010
0000
,  // measure 1252
0010
1000
0100
0000
0010
1000
0001
0100
,  // measure 1253
0010
1000
0001
0100
0010
1000
0100
0010
,  // measure 1254
0001
0000
0100
0000
0010
0000
0100
0000
0000
0000
0000
0001
1000
0000
0000
0100
,  // measure 1255
0010
0000
0000
0001
0100
0000
0000
0010
2001
0000
0000
0000
0100
0000
0000
0000
,  // measure 1256
0001
3100
1002
0100
,  // measure 1257
1000
0103
2001
0100
,  // measure 1258
0001
3100
1002
0100
,  // measure 1259
1000
0000
0103
0000
1020
0000
0130
0001
,  // measure 1260
2000
0000
3100
0000
0021
0000
0130
1000
,  // measure 1261
0002
0000
0103
0000
1020
0000
0130
0001
,  // measure 1262
2000
0000
3100
0000
0021
0000
0130
1000
,  // measure 1263
0002
0000
0103
0000
2002
3003
0110
0001
,  // measure 1264
2200
3300
1100
0000
2002
3003
0110
1000
,  // measure 1265
0202
0303
0101
0100
0220
0330
0110
0001
,  // measure 1266
2002
3003
1001
0100
0220
0330
0110
1000
,  // measure 1267
2002
0000
3003
0000
1001
0000
0010
0000
1000
0010
1000
0010
2000
0000
0000
0000
,  // measure 1268
3001
0100
0001
0100
0002
0000
0000
0000
1003
0001
1000
0001
1000
0001
1000
0001
,  // measure 1269
0100
0010
1000
0001
0100
0010
1000
0001
2000
0000
0000
0000
0000
0000
0000
0000
,  // measure 1270
3000
0000
0000
0010
0000
0000
0100
0000
0001
0000
0000
0000
1000
0000
0100
0000
,  // measure 1271
2000
0000
3001
0100
0002
0000
1003
0010
,  // measure 1272
2000
0000
0000
3002
0000
0000
0203
0000
0320
0000
0000
0000
1000
0000
0000
0000
,  // measure 1273
0130
0000
0002
0000
0000
2003
0000
0000
3200
0000
0000
0000
1300
0000
0000
0000
,  // measure 1274
0010
0000
0001
0000
0100
0000
0010
0000
2000
0000
0000
3200
0000
0000
2300
0000
,  // measure 1275
3002
0000
0000
0203
0000
0000
0302
0000
0023
0000
0000
0230
0000
0000
2300
0000
,  // measure 1276
0001
0000
0000
0000
3100
0000
0000
0000
0010
0100
0010
0000
1000
0100
1000
0000
,  // measure 1277
0001
0100
0001
0000
0010
0100
0010
0000
0010
0000
1000
0000
0100
0000
0001
0000
,  // measure 1278
0100
1000
0001
0100
1000
0100
0001
0010
,  // measure 1279
0100
1000
0100
1000
0001
0100
0010
0100
,  // measure 1280
0001
0010
0100
0010
0001
1000
0100
0010
,  // measure 1281
0100
1000
0010
0100
0001
0010
1000
0010
,  // measure 1282
0001
1000
0010
0001
0010
1000
0100
0010
,  // measure 1283
0001
0100
0010
1000
0100
0010
0100
0010
,  // measure 1284
0001
1000
0100
0010
0002
0000
0100
0000
,  // measure 1285
1003
0100
0001
1000
0200
0000
1000
0000
,  // measure 1286
0310
0001
1000
0010
2000
0000
0100
0000
,  // measure 1287
3001
0100
1000
0001
0200
0000
0001
0000
,  // measure 1288
0310
1000
0001
0010
0001
2000
0010
3010
,  // measure 1289
0010
0200
0001
0301
0001
2000
0100
3100
,  // measure 1290
0100
0020
0001
0031
0002
0000
2003
0000
,  // measure 1291
3200
0320
0032
0203
,  // measure 1292
0320
0000
2030
0000
3010
0100
0001
0100
,  // measure 1293
1000
0000
1001
0000
0010
0100
1000
0100
,  // measure 1294
0001
0000
0101
0000
0010
1000
0100
0010
,  // measure 1295
0100
0000
0110
0000
1000
0001
0100
0010
,  // measure 1296
0100
0000
1001
0000
0001
0100
0001
0000
,  // measure 1297
1000
0100
1000
0000
0010
0100
0010
0000
,  // measure 1298
0100
0001
0100
1000
0200
0000
0310
0000
,  // measure 1299
1001
0000
0000
0000
0110
0000
0000
0000
1000
0001
1000
0001
0010
0100
0010
0100
,  // measure 1300
1000
0001
1000
0001
0010
0100
0010
0100
0010
0000
0001
0000
1001
0000
0100
0000
,  // measure 1301
1001
0000
0010
0000
0100
0001
0100
0000
0010
0000
1000
0000
0100
0000
0010
0000
,  // measure 1302
0100
1000
0000
0001
0100
0000
0010
0000
1000
0100
1000
0000
0100
0000
1000
0000
,  // measure 1303
0001
0100
0001
0000
0100
0000
0001
0000
0010
0000
0100
0000
0010
0000
0110
0000
,  // measure 1304
1001
0000
0000
0110
0000
0000
1001
0000
0010
0000
1000
0000
1001
0000
0100
0000
,  // measure 1305
1001
0000
0010
0000
0100
1000
0100
0000
0010
0000
0001
0000
0100
0000
0010
0000
,  // measure 1306
0100
0001
0000
1000
0100
0000
0010
0000
0001
0100
0001
0000
0100
0000
0001
0000
,  // measure 1307
1000
0100
1000
0000
0100
0000
1000
0000
0010
0000
0100
0000
0010
0000
0110
0000
,  // measure 1308
1001
0000
0001
1000
0000
0010
0100
0000
0010
0000
0100
0000
1001
0000
0100
0000
,  // measure 1309
0101
0000
0010
0000
1000
0100
1000
0000
0010
0001
1000
0000
0010
0000
0100
0000
,  // measure 1310
0001
0010
0001
0000
1000
0100
1000
0000
0001
0100
0000
0001
0100
0000
0010
0000
,  // measure 1311
1000
0100
0000
1000
0100
0000
0010
0000
0001
0100
0001
0000
1000
0100
1000
0000
,  // measure 1312
0110
0001
1000
1001
0010
0100
1001
0100
,  // measure 1313
1100
0000
0010
0000
0001
0100
0001
0000
0010
1000
0001
0000
0010
0000
0100
0000
,  // measure 1314
1000
0010
1000
0000
0001
0100
0001
0000
1000
0100
0000
1000
0100
0000
0010
0000
,  // measure 1315
0001
0100
0000
0001
0100
0000
0010
0000
1000
0100
1000
0000
0001
0100
0001
0000
,  // measure 1316
0110
1000
0001
1001
0100
1000
0100
1000
,  // measure 1317
0100
1000
0100
1000
0010
0100
0010
0100
,  // measure 1318
0010
0100
0001
0010
0100
1000
0010
1000
,  // measure 1319
0100
1000
0010
1000
0100
0010
0001
0100
,  // measure 1320
1010
0000
0101
0000
0010
0100
0010
0100
,  // measure 1321
1000
0001
0010
0110
0000
1001
0100
0010
,  // measure 1322
0001
1000
1100
0101
0010
1000
0010
1000
,  // measure 1323
0001
0100
0001
0100
0010
1000
0001
0100
,  // measure 1324
0010
1000
0001
0100
1010
0001
1100
0000
,  // measure 1325
0011
1000
0101
0000
0110
0000
0110
0000
,  // measure 1326
1001
0010
0110
0000
0101
1000
0011
0000
,  // measure 1327
1100
0001
1010
0000
1001
0000
1001
0000
,  // measure 1328
0110
0010
1001
0000
0002
0000
0100
0000
,  // measure 1329
2003
0100
3002
0100
,  // measure 1330
2003
0100
3002
0010
,  // measure 1331
2003
0010
3002
0010
,  // measure 1332
2003
0010
3002
0100
,  // measure 1333
0203
0010
0320
1000
,  // measure 1334
2030
0000
3002
0000
2003
0001
0100
0000
,  // measure 1335
3200
1000
0010
0000
0320
1000
0001
0000
,  // measure 1336
0032
0100
1003
0100
2002
0000
0000
0000
,  // measure 1337
0000
0000
3003
0000
;
