#TITLE:Ultimate Destroyer;
#SUBTITLE:Blast Wind;
#ARTIST:S.S.H.;
#TITLETRANSLIT:;
#SUBTITLETRANSLIT:;
#ARTISTTRANSLIT:;
#CREDIT:;
#BANNER:ultimatedestroyer-bn.png;
#BACKGROUND:ultimatedestroyer-bg.png;
#LYRICSPATH:;
#CDTITLE:cdtitle.PNG;
#MUSIC:Blastwind - Ultimate Destroyer.mp3;
#OFFSET:-0.017;
#SAMPLESTART:7.420;
#SAMPLELENGTH:15.000;
#SELECTABLE:YES;
#BPMS:0.000=194.040;
#STOPS:;
#BGCHANGES:;
// cache tags:
#FIRSTBEAT:0.000;
#LASTBEAT:484.000;
#SONGFILENAME:Songs/Astronomic Metal Collection 2/(Zaghurim) Ultimate Destroyer/Ultimate Destroyer.sm;
#HASMUSIC:1;
#HASBANNER:1;
#MUSICLENGTH:150.052;
// end cache tags

//---------------dance-single - ----------------
#NOTES:
     dance-single:
     :
     Hard:
     12:
     1.000,1.000,1.000,0.053,0.526,935.000,398.000,8.000,0.000,0.000:
0010
1000
0010
0100
0001
0100
0010
1000
0011
0000
0011
0000
0011
0000
0110
0000
,
1000
0110
0001
1100
0000
0000
0010
0000
,
0010
0000
0001
0010
0101
0000
1010
0000
0000
0000
0100
0010
0101
0000
1000
0000
,
0110
0011
1000
0110
0000
0100
0011
1000
,
0011
0110
1100
0110
0000
1000
0110
1000
,
0110
0101
1100
0110
0000
1000
0101
0010
,
0110
1010
1100
0110
0000
1000
0101
0010
,
0101
1001
1010
1001
0000
0010
1001
0010
,
1001
1100
1010
1001
0000
0010
1100
0001
,
1001
0000
0000
0011
0000
0000
1010
0000
0000
1001
0000
0000
0010
0100
0000
0010
0000
0000
0001
1000
0000
0001
0000
0000
,
1000
0000
0110
0000
0011
0000
0110
0000
0000
0000
1000
0100
0011
0000
1001
0000
,
0011
1001
0110
0101
0000
1001
0101
1001
,
0011
0110
1100
0110
0000
0011
1001
0110
,
0011
1001
0110
0011
0000
0011
1001
0110
,
1100
0110
0011
0110
0000
0110
1010
0110
,
0101
1100
0110
0011
0000
1100
1010
1100
,
1001
0011
0110
0011
0000
1001
1100
0011
,
1001
0000
1100
0000
0011
0000
1001
0000
0000
0000
1000
0100
0010
0001
0100
0010
,
0100
0001
0010
0100
1000
0010
1001
0000
0000
0000
1100
0000
1010
0000
0110
0000
,
0101
1010
0110
0011
0000
0011
0000
0011
,
0000
1001
0110
1100
0011
0011
1010
0110
,
0011
0000
0000
0011
0000
0000
1100
0000
0000
0011
0000
0000
0001
0010
0000
0001
0000
0000
0010
0100
0000
0010
0000
0000
,
1000
0110
0011
0110
0000
1100
1010
0110
,
1010
0110
1001
0011
0000
0110
0011
0110
,
1010
1001
0101
1001
0000
1010
0110
1001
,
1010
0110
1001
1010
0000
1010
0110
1001
,
0101
1001
1010
1001
0000
1001
1100
1001
,
0011
0101
1001
1010
0000
0101
1100
0101
,
0110
1010
1001
1010
0000
0110
0101
1010
,
0110
0101
1010
0110
0000
0011
1001
0110
,
0011
1001
0110
0011
0000
0011
1001
0110
,
1100
0110
0011
0110
0000
0110
1010
0110
,
0101
1100
0110
0011
0000
1100
1010
1100
,
1001
0000
0011
0000
0110
0000
0011
0000
0000
0000
1000
0100
0010
0001
0100
0001
,
0100
1000
0100
0010
0001
0100
1001
0000
0000
0000
1010
0000
0011
0000
1001
0000
,
1100
0011
1001
0101
0000
0101
0000
0101
,
0000
0110
1001
1010
0101
0101
0011
1001
,
0101
0000
0000
0101
0000
0000
1010
0000
0000
0101
0000
0000
0001
0010
0000
0001
0000
0000
0010
0100
0000
0010
0000
0000
,
0100
1001
0101
1001
0000
1010
0011
1001
,
0011
1001
0110
0101
0000
0110
1001
0011
,
0101
0000
0110
0000
1010
0000
1100
0000
1001
0000
0010
0100
0010
0000
1001
0000
,
0100
0010
0100
0000
1001
0000
1001
0000
0000
0000
0000
0000
0020
0000
0000
0000
,
0030
0000
1000
0100
0011
0000
0110
0000
0000
0000
0010
0100
1001
0000
0000
0000
,
0100
0100
0101
1010
0000
1010
0101
0000
,
0010
0000
0010
0000
0011
0000
0110
0000
0000
0000
1000
0100
0011
0000
0000
0000
,
1000
1000
1001
0101
0000
0110
1001
0000
,
0100
0000
0101
0000
0101
0000
1010
0000
0000
0000
0010
0100
1010
0000
0000
0000
,
0100
0100
0110
1100
0000
0100
0101
0000
,
1000
0000
1000
0000
1001
0000
0110
0000
0000
0000
1000
0100
0011
0000
0000
0000
,
0010
0010
0110
0100
0000
0100
0101
0000
,
0100
0000
0110
0000
0110
0000
0100
0010
0100
0010
0101
0000
0101
0000
0000
0000
,
0101
1000
0011
0110
0000
0100
0110
0000
,
0010
0000
1100
0000
0011
0000
0110
0000
0000
0000
1000
0100
0011
0000
0011
0000
,
0011
1010
0101
0110
0000
0011
0011
0011
,
0101
0000
0110
0000
1010
0000
1100
0000
0000
0000
0100
0010
0101
0000
0000
0000
,
0001
0001
0101
0100
0000
0100
1100
0000
,
1000
0000
0101
0000
0010
0100
1010
0000
0000
0000
0010
0000
0010
0000
0010
0000
,
0010
0000
0010
0000
0010
0000
0010
0100
0010
0000
0010
0000
0010
0000
0010
0000
,
0011
0000
0110
0000
1010
0000
0010
0100
0010
0000
0010
0000
0010
0000
0010
0000
,
0010
0000
0010
0000
0010
0000
0010
0100
0010
0000
0010
0000
0010
0000
0010
0000
,
0001
0011
0110
1100
0011
0011
0011
0110
,
1000
0110
0001
1100
0000
0000
0010
0000
,
0010
0000
1000
0100
0011
0000
0110
0000
0000
0000
0010
0100
1001
0000
0000
0000
,
0000
1001
0000
1001
,
0000
1001
0000
1001
,
0000
0000
0000
0000
1001
0000
0110
0000
0000
0000
0010
0100
1010
0000
0100
0010
,
0101
0000
1000
0000
0101
0000
1001
0000
0000
0000
0100
0010
1001
0000
0000
0000
,
0000
1001
0000
1001
,
0000
0000
1001
0110
0000
0000
1000
0001
,
1000
0000
0001
0000
1000
0100
0010
0000
0000
0000
0100
0010
0001
0000
0010
0001
,
0010
0000
0001
0000
0100
0000
0010
0000
0000
0000
0010
0100
0010
1000
0010
0100
,
0010
1000
0010
0100
0010
1000
0010
0100
0010
1000
0100
0010
0001
0010
0100
1000
,
0100
0010
0001
1000
0100
0010
0001
0100
0010
0000
0100
0001
0010
0000
0100
0010
,
1000
0000
0100
0001
0010
0000
0100
1000
0020
0000
0000
0000
0030
0000
0001
0000
,
0010
0000
0100
0000
1000
0001
1000
0000
0001
0010
0100
1000
0100
0010
0001
1000
,
0100
0010
0001
0010
0100
1000
0001
0010
0100
1000
0001
0000
0010
0000
0100
0000
,
0010
0000
0100
0000
1000
0000
0100
0000
0000
0000
1000
0100
0010
0000
0100
0010
,
0001
0000
1000
0100
0010
0000
0002
0000
0003
0000
1000
0100
1010
0000
0100
0010
,
0101
0000
0010
0100
1001
0000
0010
0000
0000
0000
0010
0000
0001
0000
0100
0000
,
0010
0001
0100
0010
0001
0100
0010
0001
,
0010
0100
1000
0000
0100
0000
0010
0000
0000
0000
0010
0000
0100
0010
0100
0000
,
0001
0000
0000
0000
0000
0000
0000
0000
0010
0000
0000
0000
0000
0000
0000
0000
0100
0000
0000
0000
0000
0000
0000
0000
0010
0000
0000
0000
0000
0000
0010
0000
0000
1000
0000
0000
0010
0000
0000
0000
0000
0000
0010
0000
0000
1000
0000
0000
,
0100
0010
0001
0100
0010
0001
0100
0000
0000
0000
0010
0100
0010
0000
0100
0000
,
1000
0001
0000
0010
0000
0100
1000
0000
,
1000
0000
0100
0000
0100
0010
0001
0000
0000
0000
0001
0000
0010
0000
0001
0000
,
0000
0010
0001
0000
0010
0001
0000
0010
,
0001
0000
0010
0000
0001
0000
1010
0000
0000
0000
0100
0010
0101
0000
0000
0000
,
0100
0100
0101
1100
0000
0100
0101
0000
,
0010
0000
0010
0000
0011
0000
0110
0000
0000
0000
1000
0100
0011
0000
0000
0000
,
0010
0010
0011
1010
0000
0001
0011
0000
,
0100
0101
0101
1000
0000
1000
0011
0000
,
0100
0100
0101
1100
0000
0100
0110
0000
,
1000
0000
1000
0000
1001
0000
0110
0000
0000
0000
0100
0010
1100
0000
0000
0000
,
0100
0100
0110
1100
0000
0010
0011
0000
,
0100
0000
0110
0000
0110
0000
0001
0010
0100
1000
0110
0000
0110
0000
0000
0000
,
0101
0100
0110
0100
0000
0100
0110
0000
,
1000
0000
1010
0000
1010
0000
1100
0000
0000
0000
0010
0100
0011
0000
0100
0000
,
0011
0100
0101
1010
0000
0100
0101
0100
,
0110
0000
1000
0000
0101
0000
1010
0000
0000
0000
0100
1000
0110
0000
0000
0000
,
0100
0100
0101
1010
0000
0010
0101
0000
,
0100
0000
0110
0000
1000
0100
0010
0000
0000
0000
0000
0000
1000
0100
0010
0001
,
0100
0010
1000
0100
0010
0001
0100
0010
1000
0100
0010
0001
0100
0010
0000
0000
,
0110
0000
0000
0000
0110
0000
0000
0000
0101
0000
0000
0000
0110
0000
0000
0110
0000
0000
1100
0000
0000
0110
0000
0000
,
0000
1100
0000
0011
0000
0011
0110
0000
,
1100
0000
0110
0000
0000
0000
0110
0000
0000
0000
0000
0000
0100
0010
0002
0000
,
0000
0000
0000
0003
0010
0100
2000
0000
0000
0000
0000
0000
3000
0000
0000
0000
,
0000
0000
0000
1000
0100
0010
0001
1000
0100
0011
0000
0000
0000
0000
0000
0011
0000
0000
0110
0000
0000
0110
0000
0000
,
1100
0110
0110
1001
0000
1010
0101
0110
,
0000
0000
0000
0011
0000
0000
1100
0000
0000
0011
0000
0000
1000
0000
0100
0000
0010
0000
1000
0000
0100
0000
0010
0000
,
1000
0100
0010
0001
0020
0000
0000
0000
0000
0000
0000
0000
,
0030
0000
0000
1000
0000
0100
0010
1000
,
0100
0001
0010
0001
0010
0100
0001
0010
,
0100
0000
0010
0000
1000
0000
0020
0000
0000
0000
0031
0000
1000
0001
0010
1000
,
0010
0000
1000
0001
0010
1000
0010
1000
0001
0010
0100
1000
0010
0100
0010
1000
,
0100
0010
0001
1000
0100
0010
0001
0000
0000
0000
0010
0001
0100
0000
0001
0000
,
0010
0100
1000
0000
0001
0000
0010
0000
0000
0000
0100
0001
1000
0000
0010
0001
,
0010
0100
1000
0100
0010
0000
0100
0000
0000
0000
0010
0001
0010
0000
1000
0000
,
0100
0000
0010
0000
0100
1000
0100
0000
0000
0000
0010
0001
0010
0000
0100
0000
,
0001
0000
0010
0000
1000
0100
0010
0000
0000
0000
0100
0010
0001
0000
0100
0000
,
0010
0000
0001
0000
1000
0100
0010
0001
1000
0001
0010
0100
1000
0001
1000
0001
,
0010
1000
0010
0100
0001
0100
0020
0000
0000
0000
0000
0000
0000
0000
0000
0000
,
0030
0000
0000
0000
;
