#TITLE:X Soldier Storm;
#SUBTITLE:;
#ARTIST:Kommisar;
#TITLETRANSLIT:;
#SUBTITLETRANSLIT:;
#ARTISTTRANSLIT:;
#CREDIT:;
#BANNER:../ban - Jawn2.png;
#BACKGROUND:../Jawn2 - bg.png;
#LYRICSPATH:;
#CDTITLE:../CDa.png;
#MUSIC:X Soldier Storm.ogg;
#OFFSET:0.009;
#SAMPLESTART:44.312;
#SAMPLELENGTH:12.000;
#SELECTABLE:YES;
#BPMS:0.000=260.000;
#STOPS:;
#BGCHANGES:;
// cache tags:
#FIRSTBEAT:16.000;
#LASTBEAT:268.000;
#SONGFILENAME:Songs/Jimmy Jawns 2/X Soldier Storm - [Mad Matt & Aoreo]/X Soldier Storm.sm;
#HASMUSIC:1;
#HASBANNER:1;
#MUSICLENGTH:62.538;
// end cache tags

//---------------dance-single - Mad Matt & Aoreo----------------
#NOTES:
     dance-single:
     Mad Matt & Aoreo:
     Challenge:
     18:
     1.000,1.000,0.000,0.927,1.000,487.000,0.000,58.000,0.000,0.000:
0000
0000
0000
0000
,
0000
0000
0000
0000
,
0000
0000
0000
0000
,
0000
0000
0000
0000
,
1000
0001
1000
0100
0000
0010
0100
0000
,
1000
0001
1000
0100
0000
0010
0100
0000
,
1000
0001
1000
0100
0000
0010
0100
0000
,
1000
0001
1000
0100
0000
0010
0100
0000
,
1000
0001
1000
0010
0000
0100
0010
0000
,
1000
0001
1000
0010
0000
0100
0010
0000
,
1000
0001
1000
0100
0000
0010
0100
0000
,
1000
0001
1000
0100
0000
0010
0100
0000
,
0010
0001
1000
0001
0100
0001
1000
0100
,
1000
0001
0100
0001
1000
0100
1000
0020
,
0000
0000
0000
0000
,
0130
0000
0001
0000
0100
0000
0001
0000
0100
0001
0010
0100
1000
0010
0100
0001
,
2000
0000
0000
0000
0000
0000
3001
1000
,
0000
1000
0000
1000
0010
0100
0010
1000
,
0200
0000
0000
0000
0000
0310
0001
0010
,
0100
0010
0100
0000
1000
0000
1000
0000
,
0020
0000
0000
0000
0000
0000
0000
0000
0000
0030
1000
0000
0000
0000
1000
0000
,
0010
1000
0100
1000
0001
1000
0200
0000
,
0320
0000
0000
0000
0000
0000
0000
0030
,
0001
0010
0001
0100
0010
1000
0001
1000
0100
1000
0010
0100
0001
1000
0100
0000
,
0010
0002
0000
0000
0000
1003
0010
0100
,
0000
0100
0000
0100
0002
0000
2003
0000
,
3200
0000
0000
2300
0000
0000
3020
0000
,
0230
0000
0302
0000
,
1003
0100
0010
0001
0100
0001
1000
0100
,
0010
0001
0100
0001
2000
0000
3200
0000
,
0320
0000
0000
0000
,
0031
1000
0100
1000
0010
0100
0010
1000
0001
0010
0100
0010
0001
1000
0010
0100
,
0001
0000
0100
0010
0000
0100
0001
0000
,
1000
0010
0100
0001
2000
0000
3002
0000
,
1003
0100
0010
0100
1000
0001
1000
0010
0100
0010
1000
0001
1000
0100
0010
0100
,
1000
0010
0100
0001
1000
0100
0010
0100
1000
0010
0100
0001
1000
0100
0010
0100
,
1000
0001
0100
0010
1000
0100
1000
0010
1000
0001
0100
0001
0010
0001
1000
0010
,
0100
0001
1000
0100
0010
0001
0100
0001
1000
0100
0010
0100
1000
0010
0100
0001
,
1000
0100
0010
0001
1000
0010
0100
0001
1000
0100
0010
0001
1000
0010
0100
0001
,
1000
0100
1000
0010
0100
0001
1000
0100
0010
0001
0100
0010
1000
0001
0010
0001
,
0100
0010
0100
0001
1000
0001
0010
0100
0010
0001
0100
0001
1000
0100
1000
0010
,
0100
0010
1000
0001
1000
0100
0010
0100
1000
0010
1000
0001
0010
0001
1000
0010
,
0100
0001
1000
0100
1000
0010
1000
0001
0100
0001
1000
0100
0010
0001
0100
0010
,
1000
0001
1000
0100
1000
0001
0100
0010
1000
0001
0010
0001
0100
0001
1000
0100
,
0010
0001
0100
0010
1000
0001
1000
0100
1000
0010
0100
0001
0010
0100
0010
0001
,
1000
0010
0100
0001
1000
0100
0010
0001
1000
0010
0100
0001
1000
0100
0010
0001
,
1000
0100
1000
0001
0100
0001
1000
0100
,
1000
0001
0010
0001
1000
0010
1000
0001
,
2000
3000
0000
0002
0003
0000
0020
0030
,
0000
0000
0200
0300
2000
3000
0020
0030
,
2000
3000
0000
0002
0003
0000
0020
0030
,
0000
0002
0003
0002
2003
3000
0020
0030
,
2000
3000
0000
0002
0003
0000
0020
0030
,
0000
0000
0200
0300
2000
3000
0002
0003
,
1000
0010
0100
0010
1000
0001
0010
0001
0100
0010
1000
0001
1000
0100
0010
0001
,
1000
0001
0100
0010
0100
0001
1000
0100
1000
0001
0100
0010
0100
0001
1000
0100
,
2000
3000
0000
0002
0003
0000
0020
0030
,
0000
0000
0200
0300
2000
3000
0020
0030
,
2000
3000
0000
0002
0003
0000
0020
0030
,
0000
0200
0300
0200
2300
3000
0020
0030
,
2000
3000
0000
0002
0003
0000
0020
0030
,
0000
0000
0200
0300
2000
3000
0020
0030
,
1000
0100
0010
0100
1000
0001
0100
0001
0010
0100
1000
0001
1000
0010
0100
0001
,
0100
0010
1000
0001
1000
0100
0010
0001
1000
0001
0100
0010
1000
0001
0010
0100
,
2000
0000
0000
0000
,
0000
0000
0000
0000
,
0000
0000
0000
0000
,
3000
0000
0000
0000
;

//---------------dance-single - Mad Matt & Aoreo----------------
#NOTES:
     dance-single:
     Mad Matt & Aoreo:
     Hard:
     18:
     1.000,1.000,0.000,0.927,1.000,487.000,0.000,58.000,0.000,0.000:
0000
0000
0000
0000
,
0000
0000
0000
0000
,
0000
0000
0000
0000
,
0000
0000
0000
0000
,
1000
0001
1000
0010
0000
0100
0010
0000
,
1000
0001
1000
0010
0000
0100
0010
0000
,
1000
0001
1000
0010
0000
0100
0010
0000
,
1000
0001
1000
0010
0000
0100
0010
0000
,
1000
0001
1000
0100
0000
0010
0100
0000
,
1000
0001
1000
0100
0000
0010
0100
0000
,
1000
0001
1000
0010
0000
0100
0010
0000
,
1000
0001
1000
0010
0000
0100
0010
0000
,
0100
0001
1000
0001
0100
0001
1000
0100
,
1000
0001
0100
0001
1000
0100
1000
0020
,
0000
0000
0000
0000
,
0130
0000
0001
0000
0100
0000
0001
0000
0100
0001
1000
0001
0010
0100
0010
0001
,
2000
0000
0000
0000
0000
0000
3001
1000
,
0000
1000
0000
1000
0010
0100
0010
1000
,
0200
0000
0000
0000
0000
0310
0001
0010
,
0100
0010
0100
0000
1000
0000
1000
0000
,
0020
0000
0000
0000
0000
0000
0000
0000
0000
0030
1000
0000
0000
0000
1000
0000
,
0010
1000
0100
1000
0001
1000
0200
0000
,
0320
0000
0000
0000
0000
0000
0000
0030
,
0001
1000
0100
0010
0100
1000
0001
1000
0010
0100
0001
1000
0100
1000
0001
0000
,
0010
0002
0000
0000
0000
1003
0010
0100
,
0000
0100
0000
0100
0002
0000
2003
0000
,
3200
0000
0000
2300
0000
0000
3020
0000
,
0230
0000
0302
0000
,
1003
0100
0010
0001
0100
0001
1000
0100
,
0010
0001
0100
0001
2000
0000
3200
0000
,
0320
0000
0000
0000
,
0031
1000
0001
0100
0001
1000
0001
0010
0100
1000
0001
1000
0010
0100
0001
1000
,
0001
0000
0100
0010
0000
0100
0001
0000
,
1000
0010
0100
0001
2000
0000
3002
0000
,
1003
0010
0100
0001
1000
0010
1000
0001
1000
0100
0010
0100
1000
0001
0010
0100
,
1000
0001
1000
0010
0100
0010
1000
0001
1000
0100
1000
0001
0100
0010
1000
0001
,
1000
0100
1000
0001
0010
0100
0010
0001
1000
0001
0100
0001
1000
0010
0100
0010
,
1000
0001
1000
0100
1000
0001
0100
0010
0100
0001
1000
0010
0100
0001
1000
0001
,
0010
0100
1000
0001
0010
0100
1000
0001
0010
0100
1000
0001
0010
0100
1000
0001
,
1000
0010
1000
0001
0100
0010
0100
0001
1000
0001
0010
0001
1000
0100
0010
0100
,
1000
0001
1000
0010
1000
0001
0100
0010
1000
0010
0100
0001
1000
0001
0010
0100
,
0010
0001
0010
0100
1000
0001
1000
0010
1000
0001
1000
0010
0100
0001
1000
0010
,
1000
0001
1000
0100
1000
0001
0010
0100
0010
0001
1000
0100
0010
0001
1000
0001
,
0100
0001
1000
0010
0100
0001
0100
0010
1000
0001
1000
0100
1000
0001
0010
0100
,
0010
0001
1000
0001
0100
0001
1000
0100
0010
0001
1000
0001
0100
0001
1000
0010
,
0100
0001
1000
0001
0010
0100
0010
0001
1000
0001
0100
0010
1000
0010
0100
0001
,
1000
0001
0010
0001
0100
0001
1000
0001
,
0010
0100
1000
0010
1000
0100
1000
0001
,
2000
3000
0000
0200
0300
0000
0020
0030
,
0000
0000
0002
0003
0200
0300
0020
0030
,
2000
3000
0000
0200
0300
0000
0020
0030
,
0000
0002
0003
0002
2003
3000
0200
0300
,
0020
0030
0000
0002
0003
0000
0200
0300
,
0000
0000
0020
0030
2000
3000
0002
0003
,
1000
0010
1000
0001
1000
0100
1000
0001
0010
0100
1000
0001
0010
0001
1000
0001
,
0100
0001
1000
0010
0100
0001
1000
0010
1000
0001
1000
0100
1000
0001
0010
0100
,
2000
3000
0000
0200
0300
0000
0020
0030
,
0000
0000
0002
0003
2000
3000
0020
0030
,
2000
3000
0000
0200
0300
0000
0020
0030
,
0000
0002
0003
0002
2003
3000
0200
0300
,
0020
0030
0000
0002
0003
0000
0200
0300
,
0000
0000
0020
0030
2000
3000
0002
0003
,
1000
0100
1000
0001
1000
0010
1000
0001
0100
0010
1000
0001
0100
0001
1000
0001
,
0010
0001
1000
0100
0010
0001
1000
0100
1000
0001
1000
0010
1000
0001
0100
0010
,
2000
0000
0000
0000
,
0000
0000
0000
0000
,
0000
0000
0000
0000
,
3000
0000
0000
0000
;
