#TITLE:Romantyzm Mnie Napierdala;
#SUBTITLE:;
#ARTIST:Loffciamcore & odaxelagnia;
#TITLETRANSLIT:;
#SUBTITLETRANSLIT:;
#ARTISTTRANSLIT:;
#CREDIT:Aoreo;
#BANNER:romantyzm bn.png;
#BACKGROUND:romantyzm bg.png;
#LYRICSPATH:;
#CDTITLE:;
#MUSIC:Romantyzm Mnie Napierdala.ogg;
#OFFSET:0.003;
#SAMPLESTART:31.038;
#SAMPLELENGTH:12.000;
#SELECTABLE:YES;
#DISPLAYBPM:200.000;
#BPMS:0.000=200.000;
#STOPS:;
#BGCHANGES:;
// cache tags:
#FIRSTBEAT:16.000;
#LASTBEAT:381.000;
#SONGFILENAME:Songs/Index Tournament 1/Romantyzm Mnie Napierdala - [Aoreo]/Romantyzm Mnie Napierdala.sm;
#HASMUSIC:1;
#HASBANNER:1;
#MUSICLENGTH:115.910;
// end cache tags

//---------------dance-single - J. Nero----------------
#NOTES:
     dance-single:
     J. Nero:
     Challenge:
     14:
     1.000,1.000,0.216,0.104,1.000,922.000,25.000,12.000,6.000,1.000:

0000
0000
0000
0000
,
0000
0000
0000
0000
,
0000
0000
0000
0000
,
0000
0000
0000
0000
,
0001
0000
1000
0000
0100
0000
0010
0000
0100
0000
1000
0000
0001
0100
0001
0000
,
1000
0000
0010
0000
0100
0001
0100
0001
1000
0000
0100
0000
0040
0030
0100
0000
,
1000
0000
0000
0000
0004
0003
0000
0000
1000
0000
0000
0000
0010
0000
0000
0000
0100
0000
0001
0000
0100
0000
0001
0000
1000
0000
0010
0000
1000
0000
0010
0000
,
0400
0300
0001
1000
0040
0030
0100
0001
0100
0001
1000
0100
0010
0001
1000
0100
,
0010
0000
0001
0000
1000
0000
0100
0000
0010
0000
0400
0300
1000
0000
0100
0000
,
0010
0000
0001
1000
0001
1000
0100
0000
1000
0010
0100
0010
1000
0000
0001
0000
,
0100
0001
0100
0010
1000
0100
0010
0100
1000
0100
0010
0001
4000
3000
0001
0000
,
0100
0010
0100
0001
2000
3000
1001
0000
,
0001
0100
0010
1000
0010
0100
0001
1000
0001
0100
0010
1000
0100
0010
0001
0100
,
0010
1000
0100
1000
0001
0100
0010
0100
0001
0000
0000
0000
1001
0000
0000
0000
,
1000
0010
0100
0001
1000
0010
1000
0001
0100
0001
0010
0100
1000
0001
0010
0100
,
1000
0001
0100
0010
1000
0000
0000
0000
,
0001
0100
0001
1000
0100
1000
0001
0100
0010
0100
0001
1000
0100
0010
0001
1000
,
0100
0010
0100
0010
0001
1000
0001
1000
0010
0100
0010
0100
0001
1000
0100
1000
,
0001
0100
0010
0100
0001
1000
0100
0010
0001
1000
0010
1000
0010
0100
0001
0100
,
0001
0000
0000
1000
0000
0000
0010
0000
0000
0100
0000
0000
0010
0000
0000
0100
0000
0000
0001
0000
0000
1000
0000
0000
0001
0000
0000
0000
0000
0000
1000
0000
0000
0000
0100
0000
0000
0000
0000
0000
0000
0000
0000
0000
0000
0000
0000
0000
,
1100
0000
0100
0000
1000
0000
0004
0003
0010
0000
0100
0000
1000
0000
0100
0000
,
0010
0001
0010
0001
1000
0100
1000
0100
0010
0000
0001
0000
1000
0000
1000
0000
,
0001
0000
0010
0000
0100
0000
0010
0000
0001
0000
0010
0000
0400
0300
1000
0000
,
0010
0100
0001
1000
0010
0100
0010
1000
0001
0000
0000
0000
2000
3000
0000
0000
,
1010
0000
0010
0100
0001
0000
1000
0000
1100
0000
0100
0010
0001
0000
1000
0000
,
0010
1000
0010
0100
0001
0100
0001
1000
0100
0000
0010
0000
0001
0010
0001
0010
,
0100
0000
1000
0000
0001
0100
0001
0000
0100
0010
0100
0001
1000
0001
1000
0100
,
0010
0000
0100
0000
1000
0000
0001
0000
0100
0010
0100
0001
1000
0000
0000
0000
,
0001
0100
0001
1000
0010
0100
0001
0010
0100
1000
0010
1000
0100
0010
0001
0100
,
0010
1000
0010
0100
0001
1000
0001
1000
0010
0000
0000
0000
0000
0000
0000
0000
,
1000
0010
0100
0001
0100
0001
1000
0010
0100
0010
1000
0001
1000
0100
0010
0001
,
1000
0001
0010
0100
0010
0001
1001
0000
,
1000
0010
0100
0010
1000
0001
0100
0001
1000
0010
0100
0001
0010
0100
1000
0010
,
0100
0001
1000
0010
0100
0001
1000
0100
0010
0001
0100
0001
0010
0100
1000
0010
,
0100
0001
1000
0001
1000
0010
0100
0001
1000
0100
0010
0001
0100
0010
1000
0100
,
1000
0100
0010
0001
1000
0001
0100
0001
1000
0000
0001
0000
0100
0000
0000
0000
,
0001
0100
0040
0030
0100
0001
4000
3000
0100
1000
0040
0030
0100
0001
4000
3000
,
0100
1000
0001
0100
0001
0100
0010
1000
0001
1000
0100
0010
0001
0010
0100
1000
,
0001
0100
0040
0030
0100
0001
4000
3000
0100
1000
0004
0003
0010
0100
4000
3000
,
0001
1000
0000
0000
0001
1000
0001
0100
,
0010
0100
0001
0010
0110
0000
1100
0000
,
1000
0010
0100
0001
1001
0000
1010
0000
,
0010
0100
0001
0010
0110
0000
1100
0000
,
2000
3000
0002
0003
0MM0
0000
0000
0000
,
1000
0100
0010
0100
1100
0000
1001
0000
,
0001
0100
0010
0100
0101
0000
1001
0000
,
1000
0100
0010
0001
0011
0000
0110
0000
,
0200
2300
30MM
0000
,
0001
0100
0040
0030
1000
0001
0400
0300
0001
1000
0040
0030
1000
0001
0100
0000
,
0001
0100
0001
0100
0010
1000
0010
1000
0001
0010
0100
1000
0001
1000
0100
0010
,
0001
1000
0400
0300
1000
0010
0400
0300
0001
1000
0040
0030
0100
0001
4000
3000
,
0001
0010
0110
0100
1100
0000
2000
3000
,
0001
1000
0040
0030
0100
0001
4000
3000
0001
0010
0400
0300
1000
0001
0400
0300
,
0001
1000
0100
1000
0001
0100
0010
1000
0001
1000
0100
0010
0001
0000
1000
0000
,
0010
0100
0004
0003
1000
0100
0040
0030
0001
1000
0400
0300
1000
0001
0040
0030
,
0200
0300
1000
0001
0100
0000
0020
0000
,
0130
0010
1000
0001
0010
0100
1000
0100
,
0010
0100
1000
0001
0100
0010
0100
0001
,
1000
0100
0010
0100
1000
0001
0100
0010
,
0100
0001
0010
0100
1000
0000
1001
0000
,
0001
0100
0010
1000
0100
0010
0001
0010
,
0100
0010
0001
1000
0010
0100
0010
1000
,
0001
0010
0100
0010
0001
1000
0010
0100
,
0010
1000
0100
0010
0002
0000
1003
0000
,
0001
0010
0100
0010
0001
0001
2MM0
0000
,
3000
0000
0000
0000
,
0000
0000
0000
0000
,
0000
0000
0004
0003
1000
0001
0010
0100
,
0010
0000
0001
0000
1000
0010
1000
0000
0001
0000
0100
0000
0010
1000
0010
1000
,
0001
0000
0000
0000
0010
0000
0000
0000
0400
0000
0300
0000
0010
0000
0000
0000
0001
0000
0000
0000
4000
3000
0000
0000
0001
0000
0000
0000
0100
0000
0000
0000
,
0010
1000
0010
1000
0001
0100
0001
0100
0040
0030
1000
0001
0400
0300
0010
1000
,
0010
1000
0001
0010
0100
1000
0001
0010
0100
0000
1000
0000
0001
0000
0010
0000
,
0100
0000
0040
0030
0001
0000
0010
0000
0100
0000
1000
0001
1000
0001
0010
0000
,
0001
0100
0010
0100
0001
0000
1000
0000
0010
1000
0010
0100
0001
0010
0100
0010
,
0001
0010
0100
1000
0004
0003
1000
0000
0010
0000
0100
0000
0010
0000
1000
0000
,
0002
0000
0003
0000
1001
0000
0000
0000
1000
0010
0100
0001
0100
0010
1000
0001
,
1000
0010
0100
0001
0010
0100
1000
0010
0100
0001
0010
0001
1000
0010
0100
0010
,
1000
0000
0000
0000
1001
0000
0000
0000
0001
0100
0010
1000
0001
0100
0001
1000
,
0010
1000
0100
0010
0001
1000
0100
0010
0001
0000
1000
0000
0010
0000
0100
0000
,
0001
0000
0000
0000
0000
0000
0000
0000
1000
0010
1000
0001
0010
0001
1000
0010
,
0100
0010
1000
0001
0010
0100
1000
0001
0010
0100
0010
0100
1000
0001
1000
0001
,
0100
0010
0100
0010
1000
0001
0010
0001
1000
0010
0100
0010
1000
0001
0010
0100
,
1000
0001
0100
0001
0100
0010
1000
0010
1000
0001
0100
0010
0100
0010
1000
0001
,
1000
0000
0000
0000
0000
0000
0001
0000
0000
0000
0100
0000
0000
0000
0000
0000
0000
0000
0000
0000
0000
0000
0000
0000
0001
0000
0000
1000
0000
0000
0001
0000
0000
0100
0000
0000
0010
0000
0000
0100
0000
0000
0001
0000
0000
0010
0000
0000
,
0100
1000
0010
1000
0100
0010
0001
0100
0010
1000
0010
0100
0001
1000
0001
1000
,
0010
0000
0000
0000
0000
0000
0000
0000
1000
0010
0100
0001
0100
0001
1000
0010
,
0100
0010
1000
0001
1000
0100
0010
0001
1000
0000
0001
0000
0010
0000
0100
0000
,
0010
0000
0001
0000
1001
0000
0000
0000
1000
0010
0100
0010
1000
0001
0100
0001
,
1000
0010
0100
0001
0010
0100
1000
0010
0100
0001
1000
0010
0100
0001
1000
0100
,
0010
0001
0100
0001
0010
0100
1000
0010
0100
0001
1000
0001
1000
0010
0100
0001
,
1000
0100
0010
0001
0100
0010
1000
0100
1000
0100
0010
0001
1000
0001
0100
0001
,
1000
0000
0001
0000
0100
0000
0000
0000
0001
0100
0040
0030
0100
0001
4000
3000
,
0100
1000
0040
0030
0100
0001
4000
3000
0100
1000
0001
0100
0001
0100
0010
1000
,
0001
1000
0100
0010
0001
0010
0100
1000
0001
0100
0040
0030
0100
0001
4000
3000
,
0100
1000
0004
0003
0010
0100
4000
3000
0001
0000
1000
0000
0000
0000
0000
0000
,
0001
0100
1101
0000
0000
0000
0000
0000
;
