#TITLE:Wanderlust;
#SUBTITLE:(HARI KARI Remix);
#ARTIST:The Quick Brown Fox;
#TITLETRANSLIT:;
#SUBTITLETRANSLIT:;
#ARTISTTRANSLIT:;
#CREDIT:Fraxtil;
#BANNER:wanderlust-bn.png;
#BACKGROUND:wanderlust-bg.png;
#LYRICSPATH:;
#CDTITLE:../fraxtil.png;
#MUSIC:Wanderlust (HARI KARI Remix).ogg;
#OFFSET:0.009;
#SAMPLESTART:42.240;
#SAMPLELENGTH:17.280;
#SELECTABLE:YES;
#BPMS:0.000=250.000;
#STOPS:;
#BGCHANGES:;
// cache tags:
#FIRSTBEAT:12.000;
#LASTBEAT:623.750;
#SONGFILENAME:Songs/SPEEEDCOOOORE 4/Wanderlust (HARI KARI Remix) - [Fraxtil]/Wanderlust (HARI KARI Remix).sm;
#HASMUSIC:1;
#HASBANNER:1;
#MUSICLENGTH:149.760;
// end cache tags

//---------------dance-single - Fraxtil----------------
#NOTES:
     dance-single:
     Fraxtil:
     Challenge:
     15:
     1.000,1.000,0.307,0.327,0.765,950.000,46.000,49.000,146.000,0.000:

0000
0000
0000
0000
,
0000
0000
0000
0000
,
0000
0000
0000
0000
,
000M
0000
0000
0000
0000
0000
0000
0000
0M00
0000
0000
0000
0000
0000
0000
0000
0000
0000
0000
0000
0000
0000
0000
0000
00M0
0000
0000
0000
0000
0000
0000
0000
0000
0000
0000
0000
M000
0000
0000
000M
0000
0000
M000
0000
0000
000M
0000
0000
,
00M0
0M00
00M0
0M00
0000
M000
0000
0000
000M
0000
000M
0000
0M00
0000
0000
00M0
,
0000
0000
M000
0000
000M
0000
000M
0000
000M
0000
00M0
0MM0
00M0
00M0
00M0
000M
,
0000
0000
0000
00M0
0000
0000
M000
0000
0000
0000
0M00
0M0M
0000
0000
00M0
0000
,
0000
0M00
0000
0000
M000
M000
M00M
0000
0000
0000
00M0
0000
0000
0000
M000
0000
,
0000
000M
0000
0000
0000
0000
0M00
00M0
0M00
00M0
0M00
00M0
M000
0000
000M
000M
,
0000
0000
0000
0000
0000
0000
0000
0000
0000
MM00
0000
0000
00MM
0000
0000
MM00
0000
0000
MM00
0000
0000
MM00
0000
0000
0M0M
0000
0000
0000
0000
0000
M0M0
0000
0M0M
0000
M0M0
0000
000M
0000
00M0
0000
000M
0000
000M
0000
000M
0000
000M
0000
,
000M
0000
2000
0000
0000
0000
0000
0000
0000
0000
0000
3020
,
0000
0000
0000
0000
0000
0000
0000
0030
,
0101
0000
0000
0000
0200
0000
0000
0300
,
0020
0000
0000
0030
2000
0000
0000
3000
,
0001
0000
0010
0000
0400
0000
2300
0000
0000
3000
0000
0000
0002
0000
0000
0003
,
0000
0000
0000
0000
,
4000
0000
3001
0100
0010
0000
1000
0000
0200
0000
0000
0000
0000
0000
0300
0000
,
0020
0000
0000
0030
0002
1000
0000
0003
,
4000
0000
3001
0000
0010
0100
1000
0000
0001
0000
0000
0000
2000
0000
0000
3000
,
0000
0000
0020
0000
0000
0030
0000
0000
0000
0000
0000
0000
0100
0000
0200
0000
,
0301
0000
0000
0000
1000
0000
1000
0000
0100
0010
0100
0010
0001
0000
0000
0000
,
2000
0000
0000
3000
0020
0000
0000
0030
,
0100
0000
0001
1000
0100
0000
0010
0000
0001
0000
0000
0000
MM00
0000
0000
0000
,
2000
0000
3000
0000
,
0020
0M00
0000
0000
0000
0000
0230
0000
,
0000
0000
0000
0000
030M
000M
00M0
0M00
,
M000
000M
M000
0000
0M0M
0000
00M0
0000
00M0
0000
0M0M
0000
M000
0000
00M0
00M0
,
0M00
0000
M00M
0000
00M0
0000
0M0M
0000
M000
0M00
M00M
0000
00M0
0000
MMMM
0000
,
0000
0000
1001
0000
1100
0000
0100
0010
,
0001
0000
1000
0000
0001
0001
0100
0100
,
0010
0000
0000
0000
0000
0000
0000
0000
1000
0000
0000
0000
0000
0000
0000
0000
0022
0000
0000
0000
0000
0000
0000
0033
2200
0000
0000
0000
0000
0000
0000
3300
,
0001
0000
0000
0000
0010
0000
0000
0000
0100
1000
0001
0000
0200
0000
0000
0000
,
0310
0000
1000
1000
0001
0000
0010
0000
,
0100
0000
0000
0000
0010
0000
0000
0000
0001
0000
0001
0000
1000
0010
1000
0010
,
0100
0000
0001
0001
1000
0000
0100
0000
,
0010
0000
0010
0000
0100
0000
0000
0000
1000
0000
0000
0000
0001
0100
0001
0100
,
0010
0000
0000
1000
0010
0100
0001
0000
,
1000
0000
0000
0000
0001
0000
0010
0000
0100
0000
0000
0000
1000
0001
1000
0001
,
0100
0010
1000
0001
0010
0000
0100
0000
,
0010
0000
0001
0000
1000
1000
0010
0000
,
0100
0010
0100
0001
1000
0001
0010
0100
1000
0000
0000
0000
0001
0000
0000
0000
,
0100
0010
1000
0000
0001
0000
1000
0100
,
0010
0000
0010
0000
0001
0000
0000
0000
1000
0001
1000
0001
0200
0000
0320
0000
,
1030
0000
0100
1000
0001
0000
0400
0000
,
0310
1000
0001
0000
0001
0000
0010
0100
,
0000
0000
0010
0000
0001
0000
1000
0000
0010
0100
0001
0100
0010
0000
1000
0000
,
0001
0010
0100
0000
0100
0000
1000
0001
,
0200
0000
0000
0000
0310
0000
1000
0000
0001
0010
0100
0010
0001
0000
1000
0000
,
0010
0100
0001
0100
0010
0000
0000
0000
0010
0000
0000
0000
1000
0000
0001
0000
,
0000
0000
1000
0000
0100
0000
0010
0000
0001
0000
0001
0000
1000
0010
0100
0010
,
1000
0001
1000
0001
0010
0100
1000
0001
0100
0010
0100
0010
1000
0010
0100
0001
,
4000
0000
0000
0000
0000
0000
0000
0000
3400
0000
0340
0000
0031
1000
0001
1000
,
0010
0100
0001
0000
0001
0000
0010
0100
,
0000
0000
0010
0000
0001
0000
1000
0000
0010
0100
0001
0100
0010
0000
1000
0000
,
0001
0010
0100
0000
0100
0000
0010
0001
,
2000
0000
0000
0000
3010
0000
0100
0000
0001
0100
0010
0100
0001
0000
1000
0000
,
0100
0010
0001
0010
0100
0000
0000
0000
0100
0000
0000
0000
1000
0000
0001
0000
,
0000
0000
0100
0000
0010
0000
1000
0000
0100
0000
0100
0000
1000
0001
0100
0001
,
1000
0010
1000
0010
0100
0001
1000
0001
0010
0100
0010
0100
1000
0100
0010
0001
,
4000
0000
3000
0000
4000
0000
3000
0000
0001
0000
1000
0010
0200
0000
0000
0000
,
M300
000M
1001
0000
0011
0000
0010
0100
,
1000
0000
0001
0000
0100
0100
0010
0010
,
1000
0000
0000
0000
0000
0000
0000
0000
0100
0000
0000
0000
0000
0000
0000
0000
2020
0000
0000
0000
0000
0000
0000
3030
0202
0000
0000
0000
0000
0000
0000
0303
,
1000
0000
0001
0000
0100
0100
0010
0000
,
000M
M000
0100
0100
0001
0000
1000
0000
,
0100
0000
0000
0000
0010
0000
0000
0000
0001
0000
0001
0000
1000
0010
1000
0010
,
0100
0000
0001
0001
1000
0000
0100
0000
,
0010
0000
0010
0000
0100
0000
0000
0000
1000
0000
0001
0100
0001
0100
0010
0000
,
1000
0000
0000
1010
0000
0000
1001
0000
,
0001
0010
0001
0100
0000
0100
0010
0000
,
1010
0000
0000
1001
0000
0000
0001
0010
,
0100
0000
1000
0001
1000
0000
0010
0000
0M00
0000
0M00
0000
000M
0000
0000
0000
,
0100
0001
0100
0010
1000
0001
0010
0100
1000
0000
0000
0000
0001
0000
0000
0000
,
0100
0010
1000
0000
0100
0000
0010
0100
,
1000
0000
1000
0000
0001
0000
0000
0000
0100
0010
0100
0010
2000
0000
3002
0000
,
1003
0000
0000
0000
10M1
00M0
0M00
0000
,
0001
0000
0000
0100
0010
0100
0001
0000
,
1000
0100
0020
0000
0031
1000
0001
0100
,
0010
1000
0010
1000
0001
0100
0001
0100
0040
0000
0000
0000
1030
0000
0001
0000
,
0020
0000
0130
0000
2000
0000
0000
3000
,
1002
0000
0000
0000
0000
0000
0003
0000
0101
0000
0000
0000
0100
0010
1000
0000
,
0001
0010
0001
0010
0100
1000
0100
1000
0001
0000
0100
0000
0010
1000
0001
0100
,
0001
0000
1000
0000
0100
0000
0000
0000
0010
0000
0001
0000
1000
0010
0100
0000
,
0001
0000
M000
0000
0000
0000
0000
0000
1000
0000
0001
1000
0001
0000
1000
0000
,
0010
0100
0001
0010
0100
1000
0000
0001
,
0100
0001
0020
0000
0130
1000
0010
1000
,
0100
1000
0100
1000
0001
0010
0001
0010
0400
0000
0000
0000
1300
0000
0001
0000
,
0100
0000
0010
0000
0100
0000
0001
1000
0100
0010
0001
1000
0001
0010
0100
1000
,
0001
0000
0000
0000
0001
0000
0100
0000
0010
0000
1000
0000
0001
1000
0001
0000
,
0010
0100
0010
0100
1000
0001
1000
0001
0100
0000
0010
0000
0100
0001
1000
0010
,
1000
0000
0001
0000
0010
0000
0100
0000
1000
0001
0100
0010
1000
0010
0100
0001
,
1000
0000
0000
0000
,
00M0
0M00
1000
0001
1001
0000
1000
0100
,
0000
0000
0010
0000
0100
0000
1000
0000
0001
0100
0010
0100
0001
0000
1000
0000
,
0100
0010
0001
0000
0001
0000
1000
0010
,
0200
0000
0000
0000
0301
0000
0010
0000
0100
1000
0001
1000
0010
0000
0100
0000
,
0001
0100
0001
1000
0100
0000
0000
0000
0100
0000
0000
0000
0010
0000
0001
0000
,
0000
0000
1000
0000
0010
0000
0100
0000
0001
0000
0001
0000
1000
0100
0010
0100
,
1000
0001
1000
0001
0100
0010
1000
0001
0010
0100
0010
0100
1000
0100
0010
0001
,
4000
0000
0000
0000
0000
0000
0000
0000
3040
0000
0430
0000
0301
1000
0001
1000
,
0100
0010
0001
0000
0001
0000
1000
0010
,
0000
0000
0100
0000
0010
0000
1000
0000
0001
0010
0100
0010
0001
0000
1000
0000
,
0010
0100
0001
0000
0001
0000
0100
0010
,
2000
0000
0000
0000
3001
0000
0010
0000
0100
1000
0001
1000
0010
0000
0100
0000
,
0010
1000
0001
1000
0001
0000
0000
0000
0001
0000
0000
0000
1000
0000
0100
0000
,
0000
0000
0010
0000
0001
0000
1000
0000
0010
0000
0010
0000
0100
0010
1000
0010
,
0100
0001
0100
0001
1000
0010
0100
0001
1000
0100
1000
0100
0010
0001
1000
0100
,
0010
0000
0000
0000
000M
000M
M000
0000
,
1M01
0M00
0M00
0M00
0001
0000
0000
0000
0101
0000
0000
0000
0100
0000
0010
0000
,
1000
0000
0001
0000
0010
0100
0010
0001
,
1000
0000
0000
0000
0000
0000
0000
0000
0010
0000
0000
0000
0000
0000
0000
0000
2200
0000
0000
0000
0000
0000
0000
3300
0022
0000
0000
0000
0000
0000
0000
0033
,
1000
0000
0001
0000
0010
0010
0100
0000
,
M000
000M
0010
0001
1000
0000
0010
0000
,
0100
0000
0000
0000
0010
0000
0000
0000
1000
0000
0001
0000
0010
0100
0010
0100
,
1000
0000
0010
1000
0001
0000
0010
0000
,
0100
0000
0100
0000
1000
0000
0000
0000
0001
0000
1000
0001
1000
0001
1000
0000
,
0010
0000
0000
1010
0000
0000
1001
0000
,
0001
0010
0001
0100
0000
0100
0010
0000
,
1010
0000
0000
1001
0000
0000
0001
0010
,
0000
0000
0000
0000
M000
M000
0M00
0000
,
0001
1000
0010
0100
0001
1000
0100
1000
0001
0000
0000
0000
0100
0000
0000
0000
,
0010
0010
1000
0000
0100
0000
0010
0001
,
1000
0000
1000
0000
0001
0000
0000
0000
0100
0001
1000
0001
0010
0000
0100
0000
,
1000
0000
0001
1000
0010
0000
0400
0000
,
0300
000M
0110
0000
1001
0000
0001
0010
,
0100
0000
1000
0000
0001
0100
0010
0100
,
0001
0000
0000
0000
0000
0000
0000
0000
0010
0000
0000
0000
0000
0000
0000
0000
0202
0000
0000
0000
0000
0000
0000
0303
2020
0000
0000
0000
0000
0000
0000
3030
,
0001
0000
0000
0000
1000
0000
0000
0000
0010
1000
0010
0000
0100
0000
0000
0000
,
0001
0000
0010
0100
1000
0000
0001
0000
,
0100
0000
0000
0000
0010
0000
0000
0000
0100
0000
0001
0000
1000
0100
1000
0100
,
0010
0000
0001
0100
0010
0000
0100
0000
,
0001
0001
1000
0000
0100
0000
0040
0000
,
0031
0000
1000
1000
0010
0100
0001
0000
,
0010
0000
0000
0000
0001
0000
0001
0000
1000
0000
0000
0000
0010
0100
0010
1000
,
0001
0010
0100
1000
0001
0000
0100
0000
,
0010
0000
1000
0000
0100
0100
1000
0000
,
0001
0100
0010
1000
0001
1000
0100
0010
0001
0000
0000
0000
1000
0000
0000
0000
,
0010
0100
0001
0000
0010
0000
0001
0100
,
0010
0000
0010
0000
1000
0000
0000
0000
0001
1000
0100
1000
0001
0000
0100
0000
,
0010
0000
0000
0000
1M10
0M00
000M
0000
,
1000
0M00
1001
0000
0001
0010
0100
0000
,
1000
0000
0000
0000
0001
1000
0001
1000
0010
0000
0100
0000
0001
0000
1000
0000
,
0100
0010
0100
1000
0004
0000
0103
0000
0010
0000
1000
0000
0001
0000
0000
0000
,
0040
0000
0130
0000
0040
0000
0130
0000
1000
0000
0000
0000
0001
0100
0010
0100
,
0001
1000
0100
0010
0001
0000
1000
0010
,
0100
0001
0100
0001
1000
0000
0100
1000
0001
0000
0000
0000
0040
0000
0000
0000
,
0031
1000
0010
0100
0001
0000
0010
0000
,
0001
0000
0100
0000
0010
1000
0001
1000
0010
0000
0100
0000
0001
1000
0100
0010
,
0001
0000
0010
0100
1000
0000
0001
0100
0010
0000
1000
0000
0001
0010
0100
0010
,
0001
0000
1000
0010
0100
0000
0001
0000
1000
0100
1000
0100
0010
0001
0010
0001
,
1000
0000
0010
0000
1000
0000
0100
0000
0040
0000
0031
0000
0100
0000
0010
1000
,
0010
0000
0000
0000
0100
0000
0000
0000
0001
1000
0100
0010
0001
0010
0100
1000
,
0001
0100
0001
1000
0010
0100
0001
1000
0001
0000
0000
0000
0010
0000
0000
0000
,
0400
0000
0000
0000
1300
0001
1000
0001
0100
0000
0010
0000
1000
0000
0010
0100
,
0001
0100
0010
1000
0001
0010
0100
1000
0001
1000
0100
0010
0001
0000
1000
0000
,
0001
0000
0000
0000
0M00
0000
00M0
0000
0000
0000
M000
0000
000M
000M
000M
000M
;
