#TITLE:Constitutional Masturbation;
#SUBTITLE:;
#ARTIST:Job For A Cowboy;
#TITLETRANSLIT:;
#SUBTITLETRANSLIT:;
#ARTISTTRANSLIT:;
#CREDIT:MURDER.V01DKeng07;
#BANNER:Masturbate-bn.png;
#BACKGROUND:Masturbate-bg.png;
#LYRICSPATH:;
#CDTITLE:Murder-cd-title.png;
#MUSIC:Constitutional Masturbation.ogg;
#OFFSET:1.447;
#SAMPLESTART:193.380;
#SAMPLELENGTH:11.740;
#SELECTABLE:YES;
#BPMS:0.000=151.000;
#STOPS:;
#BGCHANGES:0.000=Masturbate-bg.png=1.000=0=0=1,
99999=-nosongbg-=1.000=0=0=0 // don't automatically add -songbackground-
;
// cache tags:
#FIRSTBEAT:4.000;
#LASTBEAT:539.667;
#SONGFILENAME:Songs/SSSC Pack 2/Constitutional Masturbation - [VO1D]/Constitutional Masturbation.sm;
#HASMUSIC:1;
#HASBANNER:1;
#MUSICLENGTH:216.006;
// end cache tags

//---------------dance-single - V01DKeng07----------------
#NOTES:
     dance-single:
     V01DKeng07:
     Challenge:
     15:
     1.000,1.000,0.282,0.440,1.000,1844.000,61.000,95.000,68.000,0.000:

0000
0000
0000
0000
,
0001
0010
0100
1000
0001
0010
0100
1000
0001
1000
0001
1000
0010
1000
0010
1000
0010
0100
0010
0100
0010
0100
0001
0100
,
0001
1000
0001
1000
0001
1000
0001
0010
0100
1000
0001
0010
0100
1000
0001
1000
0001
0100
0010
1000
0010
0100
0001
1000
,
0001
0100
0001
1000
0010
1000
0010
0100
0001
0100
0010
1000
0001
1000
0100
0010
0001
1000
0100
0010
0001
1000
0100
0010
,
0001
0100
0010
2000
0000
3001
0010
0001
0100
0010
1000
0001
,
0010
0100
1000
0001
1000
0001
0100
0001
1000
0010
1000
0001
1000
0100
0010
0001
1000
0001
0010
0100
1000
0001
0100
0001
,
0100
0010
1000
0010
1000
0001
1000
0100
0010
0001
1000
0100
0010
0100
1000
0001
0100
0001
0100
0010
1000
0010
1000
0001
,
1000
0100
0010
0001
0010
0100
1000
0001
0100
0001
1000
0010
1000
0100
1000
0010
0100
0001
1000
0001
0010
0001
0010
0001
,
1000
0001
0100
0001
0100
0010
1000
0001
1000
0001
1000
0100
0010
0000
0001
0000
1000
0000
0001
0000
0100
0000
0010
0000
,
1000
0000
0001
0000
0010
0000
0001
0010
0001
0020
0000
0000
0031
0000
1000
0000
0010
0000
0100
0010
0100
0020
0000
0000
,
1030
0000
0001
0000
1000
0000
0100
1000
0100
2000
0000
0000
3001
0000
0100
0000
0010
0000
0100
0001
0100
0002
0000
0000
,
1003
0000
0001
0000
0010
0000
0100
1000
0100
2000
0000
0000
3001
0000
0100
0000
0010
0000
1000
0010
1000
0020
0000
0000
,
0130
0000
0001
0000
1000
0000
0001
0010
0001
0020
0000
0000
M031
0000
1000
0000
0001
0000
M100
0010
0100
0020
0000
0000
,
1030
0000
0001
0000
1000
0000
0100
0010
0100
0020
0000
0000
0031
0000
1000
0000
0001
0000
0100
0001
0100
0002
0000
0000
,
1003
0000
0001
0000
0010
0000
0100
1000
0100
2000
0000
0000
3001
0000
0100
0000
0010
0000
0100
0010
1000
0020
0000
0000
,
1030
0000
0001
0000
1000
0000
0001
1000
0001
2000
0000
0000
3001
0000
0010
0000
0100
0000
1000
0001
1000
0002
0000
0000
,
0103
0000
0010
0000
1000
0000
0010
0100
0001
0200
0000
0000
0310
1000
0001
1000
0001
1000
0100
0010
0001
1000
0001
1000
,
0100
0010
0001
2000
0000
3010
0100
0000
0101
0000
0001
1000
,
0100
0010
0100
1000
0010
0001
0010
1000
0001
0010
0100
1000
,
0001
0010
0001
0200
0000
0310
1000
0000
0011
0000
0010
0001
,
1000
0001
1000
0001
1000
0100
0010
0001
1000
0100
0010
0001
1000
0001
0100
0001
0100
0010
1000
0010
0100
0001
1000
0001
,
1000
0001
0010
0200
0000
1300
0001
0000
1010
0000
0010
1000
,
0001
0010
0100
1000
0100
0010
0001
0100
1000
0100
0001
1000
,
0001
0010
0100
2000
0000
3010
0100
0001
1000
0100
0010
0001
,
1000
0001
0100
0010
1000
0001
0100
0010
1000
0001
1000
0001
1000
0100
0010
0001
1000
0001
1000
0000
0010
0000
0100
0000
,
0001
1000
0001
1000
0001
0010
0011
0001
1000
0001
1000
0001
,
0101
0100
0010
1000
0010
1000
1001
0001
1000
0100
1000
0100
,
1100
1000
0001
0100
0010
1000
0001
0010
1000
0010
0001
0100
,
0010
0000
0000
1000
0001
1000
0001
0010
0001
0010
0100
1000
0001
0000
0100
0000
0010
0000
1000
0000
0001
0000
0010
0000
,
0011
0001
1000
0010
0100
0001
0101
1000
0001
1000
0100
0010
,
0011
0001
0010
0100
1000
0001
1001
1000
0010
0100
0001
0100
,
0110
0000
0010
1000
0001
1000
1100
0001
0100
0010
1000
0001
,
1001
0000
0000
1000
0100
0010
0001
0000
0100
0010
1000
0001
0100
0000
0010
0000
1000
0000
0001
0000
0010
0000
0001
0000
,
0100
0000
0010
0000
1000
0000
000M
0000
0000
M000
0000
0000
0M00
0000
0000
00M0
0000
0000
0001
0000
0010
0000
0100
0000
,
1000
0000
1001
0000
0010
0100
0001
1000
0100
0020
0000
0031
,
1000
0010
0100
0001
0000
1000
0100
0001
0100
1000
0001
0100
,
0010
0000
0000
0000
1010
0000
0000
0000
1001
0000
1000
0000
0001
0000
0010
0000
0001
0000
1000
0010
0100
0001
0100
0010
,
1000
0001
0010
0100
1000
0001
0100
0000
0101
0000
0010
1000
,
0001
0000
1100
0000
0101
0001
0100
0010
1000
0001
0010
0001
,
0100
0010
1000
0000
0001
0010
0100
0000
1100
0000
1000
0001
,
0100
0000
0000
0000
0110
0000
0000
0000
1001
0000
1000
0000
0001
0010
0100
1000
0100
0010
0001
0000
1000
0000
0010
0000
,
0100
0000
0000
0000
0001
0000
0010
0001
0010
0100
1000
0100
0010
0001
1000
0001
0100
0010
1000
0010
0100
0001
1000
0001
,
1000
0100
0010
0001
1000
0100
0010
0001
1000
0001
0100
0001
0100
0010
1000
0010
1000
0001
1000
0001
0010
0100
1000
0001
,
0100
0010
1000
0010
0100
0001
1000
0001
1000
0010
0100
0001
1000
0100
0010
0001
1000
0100
0010
0001
1000
0001
0100
0010
,
0100
0000
0000
0000
0001
0000
1000
0100
0010
0001
0010
0100
1000
0000
0001
0000
0100
0000
0010
0100
0001
0100
0010
1000
,
0001
0000
0010
0000
0001
0000
0100
0010
1000
0001
1000
0001
0100
0000
0001
0000
1000
0000
0100
0010
0001
1000
0001
0000
,
0100
0010
1000
0010
0100
0001
1000
0001
1000
0100
0010
0001
1000
0100
0010
0001
1000
0100
0010
0001
1000
0001
0100
0010
,
1000
0010
0100
0001
0100
0010
1000
0001
0100
0010
1000
0001
1000
0100
0010
0001
1000
0100
0010
0100
1000
0100
0010
0001
,
1000
0001
1000
0001
0100
0010
0100
0000
0001
0000
1000
0000
0001
0010
0100
1000
0100
0010
0001
0000
0100
0000
0010
0000
,
201M
0001
32M0
0320
,
M230
0000
0000
2300
0000
0000
302M
0000
0000
0130
0001
1000
,
1M02
0000
0010
0000
0103
0010
201M
0000
0000
0100
0000
0000
,
0M01
0000
0000
0000
0000
0000
3010
0000
0000
0000
1000
0001
0M10
0000
0100
0000
1000
0000
0100
0000
0010
0000
0001
0000
,
M200
0000
0000
0000
0000
0000
0010
0000
0000
0310
1000
0001
2M00
0000
0000
0000
0000
0000
3002
0000
0000
0000
0000
0000
,
M023
0000
0000
0000
0000
0000
0032
0000
0000
0000
0000
0000
02M3
0000
0000
0000
0000
0000
0310
0000
1000
0001
1000
0001
,
0M10
0000
0000
0001
1000
0001
0100
0010
1000
0001
1000
0100
002M
0000
0000
0000
0000
0000
0230
0000
0000
0000
0000
0000
,
130M
0100
0010
0001
1000
0100
0010
0001
1000
0001
0100
0010
1000
0010
0100
0001
1000
0001
0100
0010
1000
0001
1000
0001
,
0020
0000
0000
0000
0000
0000
0001
0000
0000
0031
1000
0001
0200
0000
0000
0000
0000
0000
0320
0000
0000
0000
0000
0000
,
0032
0000
0000
0023
0000
0000
0230
0000
0000
0301
1000
0100
,
0010
0000
0000
0000
0011
0000
0000
0000
0001
1000
0001
0100
0020
0000
0000
0000
0000
0000
1000
0000
0000
0000
0000
0000
,
0001
0000
0000
0000
0000
0000
0130
0000
0000
0000
0001
1000
0100
0000
0010
0000
0100
0000
1000
0000
0001
0000
0100
0000
,
0120
0000
0000
0000
0000
0000
1000
0000
0000
0130
0001
1000
0002
0000
0000
0000
0000
0000
0023
0000
0000
0000
0000
0000
,
2030
0000
0000
3020
0000
0000
0032
0000
0000
1003
0010
0100
,
0101
0001
1000
0001
0010
0100
2000
0000
0000
3020
0000
0000
,
0130
0000
0001
1000
0001
1000
0100
0010
0001
0010
0100
1000
0001
0100
0010
1000
0001
1000
0100
0010
0001
1000
0100
0010
,
0002
0000
0000
0000
,
0000
0000
0000
0000
0000
0000
0103
0010
1000
1001
0001
0010
,
0012
0000
0000
0000
,
1003
0000
0001
0100
0010
1000
1010
0010
0100
0002
0000
0013
,
0200
2300
3002
0203
,
0320
0000
0000
2030
0000
0000
3100
0010
0001
0011
0010
0001
,
1000
0010
0100
0001
0100
0010
1000
0001
1000
0100
0010
0001
,
1000
0000
0001
0000
0100
0000
0010
0000
1000
0000
0001
0000
0010
0100
1000
0001
0010
0100
1000
0001
0100
0010
1000
0010
,
0100
0000
0101
0000
MMMM
0000
1001
0000
1100
0000
MMMM
0000
,
0011
0000
1001
0000
MMMM
0000
0110
0010
1010
0000
MMMM
0000
,
1001
0000
1000
0000
0001
0000
0010
0100
1000
0100
0010
0001
1000
0000
0001
0000
0100
0000
0010
0100
0001
0100
0010
1000
,
0001
0000
1000
0000
0100
0000
0010
0001
0010
0100
1000
0001
0100
0000
0010
0000
1000
0000
0001
0000
0010
0000
0001
0000
,
1000
0100
0010
0001
0010
0100
1000
0100
0010
0100
1000
0100
0010
0001
1000
0001
0100
0010
1000
0010
0100
0001
0100
0010
,
1000
0010
0100
0001
1000
0001
0010
0001
0010
0100
1000
0100
1000
0001
0100
0001
0100
0010
1000
0010
1000
0001
1000
0100
,
0010
0001
0010
0100
1000
0100
1000
0010
0100
0010
0100
0001
0100
0001
1000
0010
0100
0001
0010
0100
1000
0001
0010
0100
,
1000
0001
1000
0001
0100
0010
1000
0010
1000
0010
0100
0001
0100
0001
1000
0001
1000
0100
0010
0001
1000
0001
0100
0010
,
1000
0001
0010
0100
1000
0001
0010
0100
1000
0100
0010
0001
1000
0100
0010
0001
1000
0001
0100
0010
1000
0010
0100
0001
,
1000
0001
0010
0001
1000
0100
1000
0010
1000
0001
0100
0010
1000
0001
1000
0100
0010
0001
1000
0001
0100
0001
0100
0010
,
1000
0010
1000
0001
1000
0100
0010
0100
1000
0100
0010
0001
1000
0001
0100
0010
1000
0001
1000
0100
0010
0001
1000
0001
,
0100
0010
1000
0010
0100
0001
0100
0000
0001
0000
1000
0000
0001
0010
0100
1000
0100
0010
0001
0000
1000
0000
0001
0000
,
0100
0010
1000
0010
0100
0001
1000
0001
0010
0100
1000
0001
0100
0000
0010
0000
1000
0000
0001
0100
0010
1000
0010
0100
,
0001
0010
0100
1000
0100
0010
0001
0000
0000
1000
0010
0100
0001
0000
1000
0000
0001
0000
0010
0000
0001
0000
1000
0000
,
0020
0000
0000
0000
0130
0001
1000
0000
0001
0000
0010
0000
0001
0000
0100
0000
0010
0000
1000
0000
0100
0000
0010
0000
,
0100
0000
1000
0000
0001
0000
0100
0000
1000
0000
0100
0000
0001
0010
0100
1000
0100
0010
0001
1000
0001
0100
0010
1000
,
0010
0100
0001
1000
0100
0010
0001
0010
0100
1000
0001
0100
0010
0000
1000
0000
0001
0000
1000
0000
0001
0000
0010
0000
,
0100
1000
0100
0010
0001
1000
0001
0100
0010
1000
0001
1000
0100
0000
0010
0000
0001
0000
1000
0000
0010
0000
0100
0000
,
0002
0000
0000
0000
0103
0010
1000
0000
0010
0000
0100
0000
0001
0000
1000
0000
0001
0000
0010
0000
0001
0000
1000
0000
,
0010
0000
0100
0000
0001
0000
1000
0000
0100
0000
0010
0000
0100
1000
0001
0100
0010
1000
0001
0010
0001
0010
0001
0010
,
0001
1000
0001
0100
0010
1000
0010
0100
0010
0001
0010
1000
,
0001
1000
0100
0010
0100
0001
0100
1000
0010
0100
0001
1000
,
0100
0010
0001
1000
0001
0100
0010
0000
0100
0000
0001
0000
1000
0000
0001
0000
0010
0000
0001
0000
0100
0000
0010
0000
,
1000
0100
0010
0001
0010
0100
1000
0000
0001
0000
0100
0000
0010
0100
0001
0100
0010
1000
0001
0000
1000
0000
0100
0000
,
0010
0000
0001
0000
0010
0000
0100
0000
1000
0000
0001
0000
0100
0010
1000
0010
0100
0001
0100
0001
1000
0001
1000
0001
,
0010
0100
1000
0001
0010
0100
1000
0001
1000
0001
0100
0010
1000
0010
0100
0001
1000
0100
0010
0001
1000
0100
0010
0001
,
2000
0000
3010
0100
0001
1000
0001
0010
0001
0100
0010
1000
,
0001
0010
0100
1000
0001
0100
0010
1000
0001
1000
0100
1000
,
10M2
1000
0M23
0230
,
032M
0000
0000
0032
0000
0000
M203
0000
0000
0310
1000
0001
,
20M1
0000
0100
0000
3010
0100
M102
0000
0000
0010
0000
0000
,
10M0
0000
0000
0000
0000
0000
0103
0000
0000
0000
0001
1000
01M0
0000
0010
0000
0001
0000
0010
0000
0100
0000
1000
0000
,
002M
0000
0000
0000
0000
0000
0100
0000
0000
0130
0001
1000
00M2
0000
0000
0000
0000
0000
2003
0000
0000
0000
0000
0000
,
320M
0000
0000
0000
0000
0000
2300
0000
0000
0000
0000
0000
3M20
0000
0000
0000
0000
0000
0130
0000
0001
1000
0001
1000
,
01M0
0000
0000
1000
0001
1000
0010
0100
0001
1000
0001
0010
M200
0000
0000
0000
0000
0000
0320
0000
0000
0000
0000
0000
,
M031
0010
0100
1000
0001
0010
0100
1000
0001
1000
0010
0100
0001
0100
0010
1000
0001
1000
0010
0100
0001
1000
0001
1000
,
0200
0000
0000
0000
0000
0000
1000
0000
0000
1300
0001
1000
0020
0000
0000
0000
0000
0000
0230
0000
0000
0000
0000
0000
,
2300
0000
0000
3200
0000
0000
0320
0000
0000
1030
0001
0010
,
0100
0000
0000
0000
1100
0000
0000
0000
1000
0001
1000
0010
0200
0000
0000
0000
0000
0000
0001
0000
0000
0000
0000
0000
,
1000
0000
0000
0000
0000
0000
0310
0000
0000
0000
1000
0001
0010
0000
0100
0000
0010
0000
0001
0000
1000
0000
0010
0000
,
0210
0000
0000
0000
0000
0000
0001
0000
0000
0310
1000
0001
2000
0000
0000
0000
0000
0000
3200
0000
0000
0000
0000
0000
,
0302
0000
0000
0203
0000
0000
2300
0000
0000
3001
0100
0010
,
1010
1000
0001
1000
0100
0010
0002
0000
0000
0203
0000
0000
,
0310
0000
1000
0001
1000
0001
0010
0100
1000
0100
0010
0001
1000
0010
0100
0001
1000
0001
0010
0100
1000
0001
0010
0100
,
1000
0001
0100
0010
1000
0001
1M01
0000
0000
0000
0000
0000
,
M011
0000
0000
0000
0000
1000
10M1
0000
0000
0000
0000
0010
,
1M00
0001
0000
0011
0000
1000
10M1
0000
0000
0000
0000
0000
,
101M
0000
0000
0000
0000
0000
0000
0000
0000
0000
0010
0000
100M
0000
0000
0000
0000
0000
0000
0000
0000
0001
0010
0100
,
1000
0000
0001
0000
1000
0000
0100
0000
1000
0000
0001
0000
0100
0000
0010
0000
1000
0000
0001
0010
0100
1000
0100
0010
,
0001
0000
1M10
0000
,
0M11
0000
0000
0000
0000
0001
M101
0000
0000
0000
0000
0000
,
1M10
0000
0000
0000
0000
0000
110M
0100
0010
0001
1000
0001
,
0100
0010
1000
0001
1000
0000
0100
0000
0010
0001
1000
0001
0100
0010
1000
0010
0100
0001
1000
0001
0010
0100
1000
0001
,
0010
0100
1000
0001
1000
0001
0100
0010
1000
0010
1000
0001
1000
0100
0010
0001
1000
0100
0010
0001
1000
0001
1000
0001
,
0100
0010
1000
0010
1000
0001
1000
0001
1000
0100
0010
0001
1000
0100
0010
0100
1000
0001
0100
0010
1000
0010
0100
0001
,
1000
0001
1000
0001
0010
0100
1000
0001
0010
0100
1000
0001
1000
0001
1000
0010
1000
0010
0100
0001
0100
0010
1000
0010
,
1000
0001
1000
0100
0010
0100
1000
0001
1000
0001
0100
0010
1000
0001
0010
0001
1000
0100
1000
0010
0100
0001
1000
0100
,
0010
0001
0010
0100
1000
0001
0100
0010
1000
0001
1000
0100
0010
0001
1000
0100
0010
0001
1000
0100
0010
0001
1000
0001
,
0100
0010
1000
0010
0100
0001
1000
0001
1000
0100
0010
0001
1000
0100
0010
0001
1000
0001
1000
0001
0100
0010
1000
0010
,
0100
0001
0100
0010
1000
0001
1000
0001
0010
0001
0010
0100
1000
0100
1000
0001
1000
0010
0100
0001
1000
0001
1000
0100
,
0010
0001
1000
0001
0100
0010
0100
0000
0000
0000
1001
0000
0000
0000
0000
0000
0000
0000
0M00
0000
0000
0000
0000
0000
,
00M0
0000
0000
M000
0000
0000
000M
0000
0000
1001
0000
0011
;
