#TITLE:Schlagwerk;
#SUBTITLE:(Murder Equipment remix);
#ARTIST:Y-Itoh v.s. Rando;
#TITLETRANSLIT:;
#SUBTITLETRANSLIT:;
#ARTISTTRANSLIT:;
#CREDIT:Darkmage;
#BANNER:schlagwerkmurderequipmentremix-bn.png;
#BACKGROUND:schlagwerkmurderequipmentremix-bg.png;
#LYRICSPATH:;
#CDTITLE:!darkmagetitle2.png;
#MUSIC:Schlagwerk ME.ogg;
#OFFSET:7.640;
#SAMPLESTART:49.425;
#SAMPLELENGTH:15.680;
#SELECTABLE:YES;
#BPMS:0.000=122.000;
#STOPS:;
#BGCHANGES:0.000=schlagwerkmurderequipmentremix-bg.png=1.000=0=0=1,
99999=-nosongbg-=1.000=0=0=0 // don't automatically add -songbackground-
;
// cache tags:
#FIRSTBEAT:16.000;
#LASTBEAT:562.500;
#SONGFILENAME:Songs/Archmage and Dark0wl Hammer of Thor UltraHyperMegaPack/Schlagwerk Murder Equipment/Schlagwerk ME.sm;
#HASMUSIC:1;
#HASBANNER:1;
#MUSICLENGTH:105.000;
// end cache tags

//---------------dance-single - Darkmage----------------
#NOTES:
     dance-single:
     Darkmage:
     Challenge:
     13:
     1.000,1.000,1.000,0.790,1.000,1360.000,323.000,83.000,44.000,9.000:
0000
0000
0000
0000
,
0000
0000
0000
0000
,
0000
0000
0000
0000
,
0000
0000
0000
0000
,
1000
0000
0001
0000
1000
0000
0001
1000
0001
0000
1000
0000
0000
0000
0001
0000
0101
0000
0000
0000
0000
0000
0110
0000
0000
0000
0000
0000
1010
0000
0000
0000
,
0100
0100
0010
1000
0001
0000
0010
0100
0000
0010
0100
1000
0010
0100
0001
0100
,
0010
0010
1000
0001
0010
0000
0100
1000
0000
0001
1000
0010
0100
0010
1000
0001
,
0010
0010
0100
1000
0001
0000
0100
0010
0000
1000
0001
0010
0001
0100
0010
1000
,
0100
0100
1000
0010
0100
0000
0001
0010
0000
0001
0010
0100
1000
0010
0100
0001
,
0100
0100
0010
1000
0001
0000
0010
0100
0000
0010
0100
1000
0010
0100
0010
1000
,
0001
0001
0100
0010
1000
0000
0001
0010
0000
0100
1000
0010
0100
0010
1000
0001
,
0100
0100
0010
1000
0001
0000
0010
0100
0000
0010
0001
1000
0010
1000
0001
0100
,
0010
0010
1000
0001
0010
0000
0100
0010
0000
0100
1000
0001
0100
0010
0100
0001
,
1000
1000
0010
0100
0001
0000
0010
0100
0000
0010
0001
0100
0010
1000
0010
0100
,
0001
0001
0100
0010
1000
0000
0001
0010
0000
0100
0010
0001
1000
0010
0100
0010
,
1000
1000
0100
0010
0100
0000
1000
0010
0000
0100
0001
0010
0100
0010
0001
1000
,
0010
0010
0100
0001
0010
0000
0100
0010
0000
0001
0010
0100
1000
0001
0010
0001
,
1000
1000
0010
0100
0010
0000
1000
0010
0000
0100
0010
0100
0001
0010
0100
0010
,
0100
0100
1000
0010
0100
0000
0001
0010
0000
0100
1000
0001
0100
0001
1000
0010
,
0100
0100
0010
1000
0001
0000
0010
0100
0000
0010
0001
1000
0010
0100
0010
1000
,
0101
0000
0101
0000
0110
0000
0110
0000
1000
0100
0010
0001
1000
0100
0010
0001
1001
0000
0000
0000
0000
0000
1100
0000
0000
0000
0000
0000
0011
0000
0000
0000
,
1001
0000
0000
0010
0101
0000
0110
0000
1010
0100
0000
0001
1100
0000
1010
0000
,
1001
0000
0000
0010
1100
0000
0011
0000
1010
0001
0000
1000
0110
0000
0101
0000
,
1001
0000
0000
0010
0101
0000
0110
0000
1010
0100
0000
1000
0011
0000
0110
0000
,
1100
0000
0000
0010
1100
0000
1010
0000
0110
1000
0000
0001
0110
0000
0101
0000
,
1010
0000
0000
0100
0011
0000
1100
0000
0101
0010
0000
1000
0110
0000
0011
0000
,
1001
0000
0000
0100
1010
0000
0101
0000
0011
0100
0000
1000
0110
0000
1001
0000
,
0101
0000
0000
0100
0011
0000
1100
0000
1010
0100
0000
0001
0110
0000
1010
0000
,
1001
0000
0000
0000
0000
0000
0000
0000
0000
0010
0000
0000
0101
0000
0000
0000
0000
0000
1000
0000
0100
0000
1000
0000
0100
0000
0000
1000
0000
0000
0100
0000
0000
0010
0000
0000
0000
0000
0000
0001
0000
0000
0000
0000
0000
1000
0000
0000
,
1001
0000
0000
0100
1010
0000
0110
0000
0101
0010
0000
0001
1100
0000
0110
0000
,
0011
0000
0000
0100
1010
0000
0110
0000
0101
0010
0000
0100
1010
0000
0101
0000
,
1001
0000
0000
0100
1010
0000
0101
0000
0011
1000
0000
0010
1100
0000
1010
0000
,
0110
0000
0000
0100
0011
0000
0110
0000
1100
0010
0000
0100
0011
0000
1010
0000
,
1001
0000
0000
0100
1010
0000
0110
0000
0101
0010
0000
1000
0110
0000
0101
0000
,
0110
0000
0000
0010
1100
0000
0110
0000
1010
0100
0000
0001
0110
0000
0101
0000
,
0110
0000
0000
0010
0101
0000
0110
0000
1010
0100
0000
0010
1001
0000
0110
0000
,
1000
0000
0100
0000
0010
0000
0001
0000
1000
0100
1000
0100
0010
0001
0010
0001
1001
0000
0000
0000
0000
0000
0101
0000
0000
0000
0000
0000
1010
0000
0000
0000
,
1001
0100
0000
0010
1000
0000
0001
0000
1000
0100
0000
0010
0001
0000
1000
0000
,
0001
1000
0000
0010
0100
0000
0001
0000
0100
0010
0000
0100
1000
0000
0010
0000
,
0001
0100
0000
0010
1000
0000
0100
0000
0010
0100
0000
0001
0010
0000
0100
0000
,
0001
1000
0000
0100
0010
0000
0001
0000
0100
0010
0000
0001
0100
0000
0010
0000
,
1000
0100
0000
0001
0010
0000
1000
0000
0010
0100
0000
1000
0010
0000
0100
0000
,
0010
0001
0000
1000
0010
0000
0100
0000
0001
0100
0000
0010
1000
0000
0001
0000
,
0010
0100
0000
1000
0100
0000
0010
0000
0001
1000
0000
0100
0010
0000
0001
0000
,
1000
0100
0000
0010
0001
0000
1000
0000
0010
0100
0000
0001
0010
0000
0100
0000
,
1000
0010
0000
1000
0100
0000
0010
0000
0100
1000
0000
0010
0100
0000
0001
0000
,
0010
0100
0000
0001
0010
0000
0100
0000
0001
0010
0000
0001
1000
0000
0010
0000
,
0100
0010
0000
1000
0001
0000
0100
0000
0010
1000
0000
0100
0010
0000
0100
0000
,
1000
0100
0000
0001
0100
0000
0010
0000
0100
0010
0000
1000
0010
0000
0001
0000
,
0100
0001
0000
1000
0001
0000
0010
0000
0100
0010
0000
0001
0010
0000
0100
0000
,
1000
0010
0000
0001
0010
0000
1000
0000
0100
0010
0000
0100
1000
0000
0010
0000
,
0001
0100
0000
1000
0100
0000
0001
0000
0010
0100
0000
0010
0001
0000
0100
0000
,
0010
0000
1000
0000
0000
0000
0001
0000
0100
0000
0000
0000
0010
0000
0000
0000
1000
0000
0100
0000
0000
0000
0010
0000
0001
0000
0000
0000
0100
0010
0100
0010
,
1001
0000
MMMM
0000
0000
MMMM
0000
M11M
,
1M11
0000
MMMM
0000
0000
MMMM
0000
M11M
,
11M1
0000
MMMM
0000
0000
MMMM
0000
M11M
,
1111
0000
MMMM
0000
0000
MMMM
0000
1MM1
,
M11M
0100
0000
0010
1000
0000
0001
0010
0001
0100
0000
0010
1000
0000
0101
0000
,
1010
0010
0000
0100
0001
0000
0010
0100
1000
0010
0000
0100
0001
0000
0110
0000
,
1100
1000
0000
0001
0010
0000
0100
1000
0010
0100
0000
0001
0010
0000
0011
0000
,
1100
0000
1000
0000
0100
0000
0010
0000
0001
0000
0000
0000
1000
0000
0010
0000
0000
0000
0100
0000
0010
0000
0100
0000
0010
0100
0010
0100
0010
0000
0000
0000
,
1001
0100
0000
0010
0101
0000
0110
0000
1010
0100
0000
0010
0101
0000
0110
0000
,
1100
0001
0000
1000
0110
0000
1100
0000
0011
0100
0000
0010
1100
0000
1001
0000
,
0011
0100
0000
0010
1100
0000
0110
0000
0011
1000
0000
0100
1010
0000
0101
0000
,
0110
0001
0000
0010
1100
0000
0011
0000
1010
0100
0000
0001
1100
0000
0011
0000
,
0110
1000
0000
0001
0110
0000
1100
0000
0011
0100
0000
0001
0110
0000
1100
0000
,
1010
0100
0000
0010
1100
0000
0011
0000
1010
0001
0000
0010
1100
0000
0101
0000
,
0110
0001
0000
0010
1100
0000
0101
0000
1010
0100
0000
0001
1100
0000
0011
0000
,
1000
0000
0000
0001
0000
0000
1000
0000
0100
0000
1000
0000
0100
0000
0000
1000
0000
0000
0001
0000
0100
0000
0001
0000
0100
0000
0000
0010
0000
0000
1000
0000
0100
0000
0010
0000
0001
0000
0000
0010
0000
0000
0100
0000
0000
1000
0000
0000
,
1001
0000
0000
0010
0101
0000
1010
0000
1100
0001
0000
0010
1001
0000
0110
0000
,
0101
0000
0000
0010
1100
0000
0011
0000
1010
0100
0000
0010
1001
0000
0101
0000
,
0110
0000
0000
1000
0101
0000
0110
0000
1010
0100
0000
0001
0110
0000
1010
0000
,
0011
0000
0000
1000
0101
0000
1010
0000
0011
0100
0000
1000
0110
0000
0101
0000
,
0011
0000
0000
1000
0110
0000
0011
0000
1100
0010
0000
1000
0110
0000
1010
0000
,
0101
0000
0000
0010
1100
0000
0011
0000
1100
0010
0000
1000
0101
0000
1010
0000
,
1001
0000
0000
0010
0101
0000
0110
0000
1010
0100
0000
0010
1100
0000
0011
0000
,
0101
0000
0000
0000
0000
0000
0000
0000
0000
0010
0000
0000
0101
0000
0000
0000
0000
0000
0010
0000
0100
0000
0010
0000
0100
0000
0000
1010
0000
0000
0000
0000
0000
0101
0000
0000
0000
0000
0000
1100
0000
0000
0000
0000
0000
0011
0000
0000
,
1001
0000
0000
0100
1010
0000
0101
0000
0011
0100
0000
1000
0110
0000
1010
0000
,
0101
0000
0000
0010
0101
0000
0110
0000
1010
0100
0000
0010
1100
0000
1010
0000
,
0110
0000
0000
1000
0110
0000
0101
0000
1010
0001
0000
0100
1010
0000
0110
0000
,
1100
0000
0000
0001
0110
0000
1010
0000
0110
1000
0000
0100
0011
0000
1100
0000
,
1010
0000
0000
0010
0101
0000
1010
0000
1100
0010
0000
1000
0011
0000
0101
0000
,
1001
0000
0000
0100
1001
0000
1010
0000
0101
0010
0000
0100
1010
0000
0101
0000
,
1100
0000
0000
0001
0110
0000
1010
0000
0110
0001
0000
0100
1010
0000
0101
0000
,
1000
0000
1000
0000
0001
0000
0001
0000
0100
0010
0100
0010
1000
0000
1000
0000
0001
0000
0001
0000
1000
0100
1000
0100
1000
0000
0000
0000
0010
0000
0000
0000
,
2001
0001
0001
0001
0001
0001
0001
3001
,
0102
0100
0100
0103
0120
0100
0100
0130
,
2010
0010
0010
0010
0010
0010
0010
0010
,
0010
0010
0010
0010
0010
0010
0010
3010
,
0012
0010
0010
0010
0010
0010
0010
0013
,
1002
1000
1000
1003
0102
0100
0100
0103
,
0210
0010
0010
0010
0010
0010
0010
0010
,
0010
0010
0010
0010
0010
0010
0010
0310
,
1020
1000
1000
1000
1000
1000
1000
1030
,
0201
0001
0001
0301
2010
0010
0010
3010
,
0102
0100
0100
0100
0100
0100
0100
0100
,
0100
0100
0100
0100
0100
0100
0100
0103
,
0120
0100
0100
0100
0100
0100
0100
0130
,
2100
0100
0100
3100
0201
0001
0001
0301
,
2001
0001
0001
0001
0001
0001
0001
3001
,
1000
0000
0000
1000
0000
0000
0001
0000
0100
0000
0001
0000
0100
0000
0000
0010
0000
0000
0000
0000
0000
0100
0000
0000
1010
0000
0000
0000
0000
0000
0000
0000
0000
1100
0000
0000
0000
0000
0000
0000
0000
0000
0011
0000
0000
0000
0000
0000
,
1000
0100
1000
0000
0001
0000
1000
0100
1000
0000
0001
0000
1000
0100
1000
0000
,
0001
0010
0001
0000
1000
0000
0001
0010
0001
0000
1000
0000
0001
0010
0001
0000
,
0100
0010
0100
0000
0001
0000
0100
0010
0100
0000
0001
0000
0100
0010
0100
0000
,
0010
1000
0010
0000
0100
0000
0010
1000
0010
0000
0100
0000
0010
1000
0010
0000
,
1000
0010
1000
0000
0001
0000
1000
0010
1000
0000
0001
0000
1000
0010
1000
0000
,
0001
0100
0001
0000
1000
0000
0001
0100
0001
0000
1000
0000
0001
0100
0001
0000
,
1000
0001
1000
0000
0010
0000
1000
0001
1000
0000
0010
0000
1000
0001
1000
0000
,
0001
1000
0001
0000
0100
0000
0001
1000
0001
0000
0100
0000
0001
1000
0001
0000
,
1000
1000
0100
0010
0001
0000
1000
0010
0000
0100
0001
0010
0100
1000
0010
0100
,
0001
0001
0100
0010
1000
0000
0001
0010
0000
0100
0010
0001
0100
0010
1000
0001
,
0010
0010
0100
1000
0010
0000
0100
0001
0000
0100
0010
1000
0010
0100
0001
1000
,
0100
0100
1000
0010
0100
0000
0001
0010
0000
0100
1000
0010
0100
0001
0100
0010
,
1000
1000
0010
0100
0001
0000
0010
0100
0000
0010
0001
1000
0010
0100
0010
1000
,
0001
0001
0100
0010
1000
0000
0001
0010
0000
0100
0010
0100
1000
0010
0100
0001
,
1000
1000
0100
1000
0010
0000
0100
0001
0000
0100
0010
1000
0001
0010
0001
0100
,
1010
0000
0000
0000
0100
0000
0001
0000
0100
0000
0010
0000
0100
0000
0010
0000
1000
0010
1000
0010
1000
0000
0010
0000
0000
0000
0000
0000
0000
0000
0000
0000
,
1001
0000
0020
0000
0230
0000
0000
2300
,
3200
0320
2030
3002
0023
0000
0230
2300
,
3101
0000
0200
0000
0320
0000
0000
2030
,
3002
0023
0230
2300
3002
0000
0203
0000
,
1310
0000
0002
0000
0023
0000
0000
0230
,
2300
3002
0203
0320
2030
0000
3002
0023
,
1130
0000
2000
0000
3020
0000
0000
0230
,
0302
0000
0000
0000
0000
0000
0023
0000
0000
0000
0000
0000
0230
0000
0000
0000
0000
0000
1300
0000
0100
0000
1000
0000
0100
0000
0000
1100
0000
0000
0000
0000
0000
0011
0000
0000
0000
0000
0000
1001
0000
0000
0000
0000
0000
0101
0000
0000
,
1001
0000
0201
0000
0320
0000
0000
2030
,
3002
0023
2030
3020
0032
0000
2003
3020
,
0131
0000
1020
0000
2030
0000
0000
3002
,
0023
0032
0203
0320
2030
0000
3002
0000
,
0113
0000
1200
0000
0320
0000
0000
2030
,
3002
0203
2300
3200
0320
0000
2030
3002
,
1013
0000
2100
0000
3200
0000
0000
0320
,
0031
0000
1000
0000
0001
0000
1000
0000
0001
1000
0001
1000
0001
1000
0001
1000
0101
0000
0000
0000
0000
0000
1010
0000
0000
0000
0000
0000
0101
0000
0000
0000
,
0000
1010
0100
1000
0101
0000
0000
0011
0001
0010
1100
0000
0000
0000
0000
0000
,
0000
1010
0001
0100
0011
0000
0000
0101
0001
0100
1010
0000
0000
0000
0101
0000
,
0000
1100
0010
0001
1010
0000
0000
1100
0100
1000
0011
0000
0000
0000
0000
0000
,
0000
0000
0101
0000
0010
0000
1000
0000
0110
0000
0000
0000
0000
0000
1001
0000
1000
0000
0010
0000
0101
0000
0000
0000
0100
0010
0100
0010
0100
0010
0100
0010
,
0000
1010
0001
1000
0011
0000
0000
0110
0010
0100
1010
0000
0000
0000
0000
0000
,
0000
1100
0001
1000
0011
0000
0000
0101
0100
0001
1010
0000
0000
0000
1001
0000
,
0000
0000
1100
0000
0010
0000
0001
0000
0110
0000
0000
0000
0000
0000
0101
0000
1000
0000
0100
0010
0001
1000
0010
0100
0011
0000
0000
0000
1100
0000
0000
0000
,
0000
0101
0010
1000
0011
0000
0000
1100
0101
0011
1010
0000
0000
0000
0000
0000
;
