#TITLE:Mario 64 "Alternate Route" remix;
#SUBTITLE:;
#ARTIST:Konami;
#TITLETRANSLIT:;
#SUBTITLETRANSLIT:;
#ARTISTTRANSLIT:;
#CREDIT:;
#BANNER:mario64.jpg;
#BACKGROUND:mario64ds-bg.jpg;
#LYRICSPATH:;
#CDTITLE:N8 ball.JPG;
#MUSIC:Super_Mario_64_The_Alternate_Route_OC_ReMix.mp3;
#OFFSET:-0.001;
#SAMPLESTART:54.690;
#SAMPLELENGTH:15.300;
#SELECTABLE:YES;
#BPMS:0.000=81.000,80.000=324.000,84.000=162.000,466.000=323.999,482.000=162.000;
#STOPS:210.000=3.000
;
#BGCHANGES:;
// cache tags:
#FIRSTBEAT:4.000;
#LASTBEAT:617.000;
#SONGFILENAME:Songs/Tales of Genji/Mario 64/Mario64 Alternate route remix.sm;
#HASMUSIC:1;
#HASBANNER:1;
#MUSICLENGTH:260.048;
// end cache tags

//---------------dance-single - N8----------------
#NOTES:
     dance-single:
     N8:
     Hard:
     8:
     0.445,0.593,0.342,0.315,0.260,639.000,89.000,82.000,0.000,14.000:
0000
0000
0000
0000
,
0020
0000
0000
0000
,
2030
0000
0000
0000
,
3200
0000
0000
0000
,
0320
0000
0000
0000
,
0032
0000
0000
0000
,
0203
0000
0000
0000
,
2300
0000
0000
0000
,
3200
0000
0000
0000
,
0320
0000
0000
0000
,
0032
0000
0000
0000
,
0103
0000
0000
0000
0000
0000
0000
0000
0000
0000
0000
0000
0000
0000
0000
1000
,
0100
0000
0100
0000
,
0100
0000
0100
0000
,
0100
0000
0100
0000
,
0100
0000
0100
0000
,
1000
0000
0000
0000
0000
0000
0010
1000
0001
0100
0010
0000
0000
0000
0000
0000
,
0000
0000
1000
0000
0000
1000
0100
0010
0001
0000
0000
0000
0000
0000
0000
0000
,
0000
0000
1000
0000
0000
0000
1000
0100
0010
0100
1000
0000
0000
0000
1000
0100
,
0010
0000
0000
0010
0000
0000
0000
0001
0010
0000
0000
0000
0000
0000
0000
0000
,
0200
0000
0002
0000
,
0300
0000
0010
0100
1000
0100
0013
0000
,
0000
0000
0000
2000
,
0000
0001
0100
0010
3001
0000
0000
0000
,
0000
0000
0000
0002
,
0000
0000
0100
0010
1000
0100
0013
0000
,
0000
0000
0100
1000
0020
0000
0000
0230
,
0000
0000
0000
0301
0010
0000
0000
0000
,
0000
0000
0020
0000
,
0000
0000
0100
1000
0100
0001
0130
0000
,
0000
0000
0000
1100
,
0000
1000
0100
0010
0001
0000
0000
0000
,
0000
0000
0000
0002
,
0000
0000
1000
0100
1000
0100
1003
0000
,
0000
0000
1000
0100
0010
0000
0000
0010
,
0000
0000
0000
0010
0100
0000
0000
0000
,
0000
0000
1100
0020
,
0000
0000
0001
0100
0001
0100
0031
0000
,
0000
0000
0000
0100
0010
0000
0000
0000
,
0000
0000
0000
0110
0000
1100
0000
0000
,
0000
0000
1000
0000
,
0000
0000
1000
0010
0100
0010
0001
0000
,
0000
0000
2000
0000
,
0000
0000
0000
0000
,
0000
0000
0000
0000
0000
0000
0000
0000
3011
0000
0000
0000
0010
0100
0000
0100
,
0010
0000
0011
0000
0001
0010
0000
0000
1100
0000
0000
0000
1000
0000
0000
1000
,
0000
0000
1100
0000
0100
0010
0000
0000
0011
0000
0000
0000
0001
0000
0000
0100
,
0000
0100
0000
0000
0010
1000
0000
0000
1100
0000
0000
0000
1010
0000
0100
0000
,
0000
0000
0101
0000
0010
0000
1100
0000
2200
0000
0000
0000
3301
0000
0000
0010
,
0000
0000
0100
0000
0001
0010
0000
0000
1100
0000
0000
0000
0010
0000
0000
0010
,
0000
0000
0010
0000
0100
1000
0000
0000
1100
0000
0000
0000
0001
0000
0000
0010
,
0000
0010
0000
0000
0010
0100
0000
0000
1100
0000
0000
0010
0100
0000
0010
0100
,
0000
0000
0000
0000
0000
0000
1000
0100
1000
0000
0000
0000
1000
0000
0000
0000
0000
0000
0100
0000
0000
0000
0000
0000
0001
0000
0000
0000
0000
0000
0000
0000
0000
0000
0000
0000
1000
0000
0000
0000
0000
0000
0000
0000
0000
1000
0000
0000
,
0000
0000
0010
0000
1000
0100
0000
0000
1100
0000
0000
0000
1000
0000
0000
1000
,
0000
0000
1000
0000
0001
0010
0000
0000
0110
0000
0000
0000
1000
0000
0000
0010
,
0000
0010
0000
0000
0010
0100
0000
0000
1100
0000
0000
0000
1000
0000
0110
0000
,
0000
0000
1000
0000
1100
0000
0010
0001
0010
0000
0000
0000
0110
0000
0000
0100
,
0000
0100
0000
0000
0100
0010
0000
0000
1000
0000
0000
0000
1000
0000
0000
0100
,
1000
0000
0010
0000
1000
0100
0000
0000
0011
0000
0000
0000
0100
0000
0000
0001
,
0000
0010
0000
0000
0010
1000
0000
0000
1001
0000
0000
0000
1001
0000
0000
0000
,
1001
1001
0200
0000
,
0000
0000
0310
0001
0010
0100
1000
0100
,
0010
0000
0001
0000
0100
0010
0000
0000
0001
0000
0000
0000
0010
0000
0000
0100
,
0000
1000
0000
0000
0100
1000
0000
0000
0011
0000
0000
0000
0001
0000
1010
0000
,
0000
0000
0010
0000
1100
0000
0010
0100
0010
0000
0000
0000
1000
0000
0000
0001
,
0000
0000
0100
0000
0100
1000
0000
0000
0101
0000
0000
0000
1000
0000
0000
1000
,
0000
0000
1000
0000
1000
0100
1000
0000
0101
0000
0000
0000
0010
0000
0000
0010
,
0000
0010
0000
0000
0010
0001
0010
0000
0011
0000
0000
0010
0100
0000
0100
0010
,
0000
0000
0000
0000
0000
0000
0010
0100
0010
0000
0000
0000
1000
0000
0000
0000
0000
0000
0100
0000
0000
0000
0000
0000
0010
0000
0000
0000
0000
0000
0000
0000
0000
0000
0000
0000
1000
0000
0000
0000
0000
0000
0000
0000
0000
0100
0000
0000
,
0010
0000
0001
0000
0010
0100
0000
0000
0011
0000
0000
0000
0010
0000
0010
0100
,
0000
0000
0100
0000
0010
1000
0000
0000
1100
0000
0000
0000
1000
0000
1000
0100
,
0000
0100
0000
0000
0001
0100
0000
0000
0101
0000
0000
0000
1010
0000
0101
0000
,
0000
0000
1010
0000
0101
0000
1000
0100
1000
0000
0000
0000
0100
0000
0000
0100
,
0000
0000
0100
0000
1000
0100
0000
0000
0011
0000
0000
0000
1000
0000
0000
0100
,
0000
0000
0100
0000
0010
0100
0000
0000
0101
0000
0000
0000
0100
0000
0000
0100
,
0000
0100
0010
0000
0010
0100
0000
0000
0100
0010
0100
0010
0100
0010
0100
0010
,
0100
0010
0100
0010
0100
0010
0100
0010
0200
0000
0000
0000
0000
0000
0000
0000
,
0000
2000
0000
0000
0000
0000
0300
0000
,
0000
0000
0000
0000
,
0000
0000
0000
0000
,
0000
0000
0000
0000
,
0000
0000
0000
0000
0000
0000
3000
0001
,
0000
0001
0000
0000
0001
0000
0000
0000
0001
0000
0000
0001
0000
0000
0001
0000
,
0000
0001
0000
0000
0000
0000
0000
0000
0001
0000
0000
0001
0000
0000
0001
0000
,
0000
0001
0000
0000
0001
0000
0000
0000
0100
0000
0000
0000
0000
0000
0000
0000
,
0100
0000
1000
0100
0010
0001
0010
0100
,
0010
0001
0010
1000
0100
0001
0100
2000
,
0100
0010
0100
0010
0001
0010
0100
0010
,
0001
0100
0010
0100
0010
0001
0000
0000
,
0000
0000
0000
0000
0000
0000
0000
0000
0001
0000
0000
0010
3000
0000
1000
0000
,
0000
0100
0000
0000
0001
0000
0000
0000
1000
0000
0000
0100
0000
0000
0010
0000
,
0000
0100
0000
0000
0000
0000
0000
0000
0100
0000
0000
0001
0000
0000
0100
0000
,
0000
1000
0000
0000
0100
0000
0000
0000
2200
0000
3300
0100
1000
0000
1000
0000
,
0000
0000
0010
0000
0010
0001
0000
0000
0011
0000
0000
0010
0000
0000
0010
0000
,
0000
0000
1100
0000
0100
1000
0000
0000
1100
0000
0000
1100
0000
0000
1100
0000
,
0000
0000
0110
0000
0010
0100
0000
0000
0110
0000
0000
0110
0000
0000
0110
0000
,
0000
0000
1000
0000
1000
0100
0000
0000
0100
0000
0000
0001
0000
0000
0100
0000
,
0000
0000
0001
0000
0001
0010
0000
0000
0100
0000
0000
1000
0000
0000
0100
0000
,
0000
0000
0010
0000
0100
0010
0000
0000
1001
0000
0000
1001
0000
0000
1001
0000
,
0000
0000
1000
0000
0001
1000
0000
0000
0110
0000
0000
0110
0000
0000
0110
0000
,
0000
0000
0001
0000
1000
0100
0000
0000
0001
0000
0000
0000
0000
0000
0000
0000
,
1000
0000
0001
0100
1000
0100
0001
0100
,
1000
0100
0001
0100
1000
0100
0001
0100
,
1000
0100
0001
0100
1000
0100
0001
0000
,
0000
0000
1000
0000
1000
0100
0000
0000
1100
0000
0000
1100
0000
0000
1100
0000
,
0000
0000
0010
0000
0001
0010
0000
0000
0011
0000
0000
0011
0000
0000
0011
0000
,
0000
0000
1000
0000
1001
1000
0000
0000
1001
0000
0000
1001
0000
0000
1001
0000
,
0000
0000
0001
0000
1000
0100
0000
0000
0001
0000
0000
0100
0000
0000
1000
0000
,
0000
0000
0000
0000
1000
1000
0000
0000
,
0000
0000
0001
0100
0010
1000
0100
0000
,
0000
0000
0000
0000
0101
0101
0002
0000
,
0000
0010
0010
0100
0203
0000
0000
0000
,
0000
0000
0000
1000
0010
0301
0020
0000
,
0000
0000
1000
0100
1000
0100
2030
0000
,
0000
0000
0000
0010
3001
0010
0000
1000
,
0100
1000
0000
0100
0010
0100
0010
0000
,
0010
0000
0010
1000
0020
0000
0000
0000
,
0000
0000
0000
0000
,
0000
0000
0000
0000
,
0000
0000
0000
0000
,
0000
0030
1100
0011
,
0000
0000
0001
0010
1000
0010
0002
0000
,
0000
0000
0000
2003
,
0000
0010
0100
0001
3200
0000
0000
0000
,
0000
0000
0300
0002
,
0000
0000
0100
0010
0100
1000
0203
0000
,
0000
0000
2300
3200
0320
0000
0000
0032
,
0000
0000
0000
2003
0200
0000
0000
0000
,
0000
0000
0000
3300
0220
0000
0000
0000
,
0000
0000
2330
3002
0203
0320
2030
0000
,
0000
0000
0000
3200
,
0000
0001
0010
0001
0320
0000
0000
0000
,
0000
0000
0000
0032
,
0000
0000
0020
0230
2300
3200
0323
0000
,
0000
0000
2030
3200
0320
0030
0000
0202
,
0000
0000
0303
2200
3322
0000
0000
0000
,
0033
0000
0000
2100
,
0000
0000
0010
0001
0010
0100
3002
0000
,
0000
0000
0000
1003
0200
0000
0000
0000
,
0000
0300
0000
0210
0000
0312
0000
0003
,
0000
0000
0110
0000
,
0000
0000
0021
0132
1203
2310
3120
0030
,
0000
0000
0220
0000
,
0000
0000
0000
0000
,
0000
0000
0000
0000
0000
0000
0000
0000
1331
0000
0000
0000
1000
0000
0000
1000
,
0000
0000
1000
0000
1000
1000
0000
0000
1000
0000
0000
0000
0100
0000
0000
0100
,
0000
0000
0100
0000
0100
0100
0000
0000
0100
0000
0000
0000
0001
0000
0000
0001
,
0000
0001
0001
0000
0001
0001
0000
0000
0001
0000
0000
0000
0010
0000
0010
0000
,
0000
0000
0010
0000
0010
0000
0010
0010
0010
0000
0000
0000
0010
0000
0000
0000
,
0010
0010
0010
0010
,
0010
0000
0010
0000
0010
0010
0010
0010
,
0010
0000
0010
0000
0010
0000
0010
0000
0010
0100
0000
0100
1000
0000
1000
0100
,
0010
0000
0001
0000
0000
0000
0001
0000
0100
0000
0001
0000
1000
0010
0001
0000
0220
0000
0000
0000
0000
0000
0000
0000
0000
0000
0000
0000
0000
0000
0000
0000
,
0000
0000
0000
0000
,
0000
0330
0000
0000
;
