#TITLE:Once-In-A-Lifetime Encounter;
#SUBTITLE:;
#ARTIST:FRN-G;
#TITLETRANSLIT:;
#SUBTITLETRANSLIT:;
#ARTISTTRANSLIT:;
#CREDIT:Owem;
#BANNER:../banner.png;
#BACKGROUND:../bg.png;
#LYRICSPATH:;
#CDTITLE:../cdtitleowem.png;
#MUSIC:FRN-G - Once-In-A-Lifetime Encounter.ogg;
#OFFSET:-0.476;
#SAMPLESTART:62.143;
#SAMPLELENGTH:29.999;
#SELECTABLE:YES;
#DISPLAYBPM:180.000:210.000;
#BPMS:0.000=90.000,36.000=95.002,39.000=90.000,43.000=63.627,47.000=180.000,253.000=200.000,328.000=210.000,375.000=140.000,439.000=210.000,535.000=190.000,755.000=210.000,760.000=190.000,762.000=210.000,767.000=190.000,769.000=210.000,774.000=190.000,776.000=210.000,781.000=190.000,783.000=174.740,807.000=205.000,812.000=180.000,814.000=200.000,819.000=170.000,821.000=190.000,826.000=160.000,828.000=190.000,829.000=187.500,830.000=180.000,833.000=150.000,835.000=180.000,836.000=177.500,837.000=170.000,840.000=145.000,842.000=170.000,843.000=163.000,847.000=135.000,849.000=155.000,854.000=128.000,856.000=145.000,861.000=125.000,862.000=130.000,863.000=127.500,868.000=52.000,869.000=52.001,870.000=52.000,871.000=52.001,872.000=52.000,873.000=52.200,874.000=52.201,875.000=52.200,876.000=52.201,878.000=52.200,879.000=52.100,884.000=208.400,940.000=104.200,952.000=208.400,1080.000=215.000,1084.000=220.000,1088.000=250.000,1096.000=260.000,1098.000=270.000,1101.000=280.000,1104.000=290.000,1107.000=300.000,1112.000=320.000,1117.000=330.000,1121.000=340.000,1123.000=350.000,1126.000=360.000,1199.000=180.000,1251.000=209.754,1255.000=210.000,1412.000=200.000,1414.000=195.000,1415.000=179.000,1418.000=164.000,1421.000=150.000,1423.000=138.000,1425.000=128.000,1430.000=100.000;
#STOPS:;
#BGCHANGES:;
// cache tags:
#FIRSTBEAT:0.000;
#LASTBEAT:1431.000;
#SONGFILENAME:Songs/Owem's Simfiles 08 - 1.2/Once-In-A-Lifetime Encounter - [Owem] v1.0.2/Once-In-A-Lifetime Encounter.sm;
#HASMUSIC:1;
#HASBANNER:1;
#MUSICLENGTH:477.910;
// end cache tags

//---------------dance-single - 17+ (Owem)----------------
#NOTES:
     dance-single:
     17+ (Owem):
     Challenge:
     17:
     1.000,1.000,0.442,0.349,1.000,3555.000,211.000,167.000,124.000,0.000:
1000
0010
1000
0001
0100
0000
0000
0000
0000
0000
0000
0000
0000
0000
0000
0000
0000
0000
0000
0000
0000
0000
0000
0000
0000
0000
0000
0000
0000
0000
0000
0000
,
0001
0010
0100
1000
0001
1000
0010
0000
0100
0000
0001
0000
0000
0000
0000
0000
0000
0000
0000
0000
0000
0000
0000
0000
0000
0000
0000
0000
0000
0000
0000
0000
,
1001
1000
0010
0100
,
0101
0000
0000
0000
,
1001
1000
0010
0100
,
0101
0000
0000
0000
,
0011
0001
1000
0010
0110
0100
0101
0000
,
0000
0000
0000
0000
0000
0000
0000
0000
0001
0010
0100
1000
0010
1000
0001
0100
,
0110
0010
1000
0001
0100
0000
0000
0000
0000
0000
0000
0000
0000
0000
0000
0000
,
0010
1000
0001
1000
0000
0000
1010
0000
,
0110
0100
0001
1000
0100
0010
0000
0000
,
0000
00M0
0MM0
M0M0
00M0
00M0
00M0
MMMM
0000
0000
0000
0000
0000
0000
0000
0000
0000
0000
0000
0000
0000
0000
0000
0000
0001
0000
0000
0000
0010
0000
0000
0000
,
0100
1000
0001
0100
0010
1000
0001
0010
,
0100
1000
0001
0100
0010
1000
0001
0010
,
0100
1000
0010
1000
0010
0100
0001
1000
,
0100
0000
0010
0000
0001
0000
0100
0000
0001
0000
1000
0000
0100
0010
0001
1000
,
0100
1000
0010
0100
0001
1000
0100
1000
0001
0100
0001
0010
0100
1000
0001
0010
,
0001
0100
0010
1000
0001
0100
0001
1000
0100
0010
0001
1000
0010
0100
0001
0100
,
0010
1000
0001
0010
0001
1000
0100
1000
0001
1000
0010
0100
0001
1000
0100
1000
,
0001
0100
0001
0010
0100
1000
0010
1000
0001
0100
0010
0100
0001
1000
0100
0010
,
0100
1000
0001
0010
0001
1000
0100
0010
0001
1000
0100
1000
0001
1000
0010
0100
,
0001
1000
0010
1000
0001
0100
0001
0010
0100
1000
0001
0010
0001
1000
0100
1000
,
0001
1000
0010
0100
0001
0100
0010
1000
0100
1000
0001
0010
0100
1000
0001
1000
,
0010
0100
0001
1000
0100
0010
0001
0010
0001
1000
0010
0100
0001
1000
0100
1000
,
0001
0100
0001
0100
0010
1000
0100
1000
0001
0010
0001
1000
0100
1000
0001
1000
,
0010
0100
0001
0100
0010
1000
0100
1000
0001
0010
0100
1000
0001
1000
0100
0010
,
0001
1000
0100
1000
0001
0100
0001
1000
0010
0100
0001
0100
0010
1000
0001
0100
,
0001
0010
0100
1000
0001
0010
0001
1000
0100
1000
0001
1000
0010
0100
0001
1000
,
0100
1000
0001
1000
0100
0010
0100
1000
0001
0010
0001
1000
0001
0100
0010
1000
,
0001
0100
0001
0010
0100
1000
0001
0010
0001
1000
0100
1000
0001
1000
0010
0100
,
0001
0010
0001
1000
0100
1000
0001
1000
0010
0100
0001
1000
0001
0010
0100
1000
,
0001
0010
0001
1000
0100
1000
0001
1000
0010
0100
0001
1000
0100
0000
0000
0000
,
0000
0000
0000
0000
0000
0000
0000
0000
0000
0000
0000
0000
0MMM
M00M
000M
000M
,
0MM0
M000
M000
M000
MMMM
0000
0000
0000
0000
0000
0000
0000
0010
0001
0000
0201
,
0000
0000
0000
0300
0110
0000
1010
0000
1001
0000
0101
0000
2002
0000
3003
2200
,
0000
3300
0110
0000
0010
0001
1000
0001
0100
0010
1000
0100
2000
0000
3000
2020
,
0000
3030
0220
0000
0330
0100
0002
0000
0003
2002
0000
3003
2020
0000
3030
0010
,
0200
0000
0300
0202
0000
0303
2002
0000
3003
1000
0200
0000
0300
0220
0000
0330
,
0012
0000
1003
0010
0100
0001
1000
0010
1000
0001
0010
0100
1000
0000
1020
0000
,
0000
0000
0000
0030
0110
0000
0101
0000
1001
0000
1100
0000
0220
0000
0330
0022
,
0000
0033
1001
0000
1010
0000
0010
0100
0001
1000
0100
0010
0001
1000
0020
0000
,
0030
0220
0000
0330
0202
0000
0303
2002
0000
3003
1100
0000
1010
0000
0010
1000
,
0001
1000
0100
0010
0002
0000
0003
0202
0000
0303
0110
0000
1010
0000
1000
0001
,
1000
0010
0100
0001
0100
0010
2000
0000
3000
2002
0000
3003
0022
0000
0033
0220
,
0000
0330
1100
0000
1001
0000
0001
0010
0100
1000
0001
1000
0010
0100
0001
1000
,
0010
1000
0100
0010
0001
1000
0100
1000
0001
0010
0100
1000
0010
0100
0001
1000
,
0000
0100
0010
0001
1000
0000
1010
0000
0110
0000
0100
0001
1000
0001
0000
0010
,
0100
1000
0001
0000
0101
0000
0110
0000
0010
1000
0001
1000
0100
0000
0010
0000
,
0001
1000
1010
0010
0100
0001
1001
1000
,
0010
0100
0010
0100
0001
0000
1000
0000
0100
0000
0010
0000
0001
1000
0001
0100
,
0010
1000
0100
1000
0000
1010
0000
0010
0100
0000
0001
1000
0001
0010
0100
1000
,
0010
0110
0100
0001
1000
0100
0010
0001
,
1000
0000
0000
0010
0000
0100
0000
0001
0000
1000
0000
0001
0000
0010
0000
0100
0000
1000
0000
0010
0000
0100
0000
0001
,
0000
0000
1000
0000
0000
0000
1020
0000
0000
0000
0000
0000
0000
0000
0000
0000
0000
0000
0130
0000
0000
0001
0000
0000
1000
0000
0000
0100
0000
0000
0010
0000
0000
0000
0000
0000
0000
0000
0000
0011
0000
0000
0000
0000
0000
0000
0000
0000
,
1001
0000
1000
0000
0010
0000
0100
0000
0001
0000
1000
0100
0010
0000
0001
0100
,
0010
1000
0002
0000
0000
0000
1003
0100
1000
0010
0100
0000
0000
0101
0000
0000
,
1001
0000
1000
0000
0100
0000
0010
0000
0000
0011
0000
0000
1001
0000
1000
0000
,
0100
0000
0010
0000
0001
0000
0100
0010
1000
0000
0001
0010
0100
0000
1100
0000
,
0000
1010
0000
0000
0110
0000
0100
0000
0001
0000
0000
0101
0000
0000
0110
0000
,
0010
0000
1000
0000
0001
0000
0000
1001
0000
0000
1100
0000
0100
0000
0010
0000
,
0000
0011
0000
0000
1001
0000
1000
0000
0100
0000
0010
0000
0000
0011
0000
0000
,
0101
0000
0100
0000
0010
0000
0000
1010
0000
0000
1001
0000
0001
0000
1000
0000
,
0100
0000
0000
0110
0000
0000
0011
0000
0001
0000
1000
0000
0000
1010
0000
0000
,
0110
0000
0100
0000
0001
0000
1000
0100
0010
0001
1000
0001
0100
0010
1000
0001
,
0100
0001
0010
0100
1000
0001
0010
0001
0100
0010
1000
0001
0100
0010
0100
0001
,
1000
0100
1000
0001
1000
0010
0100
0001
0100
0010
1000
0001
1000
0100
0010
0001
,
1000
0100
1000
0001
0100
0001
0010
0100
1000
0001
1000
0010
0100
0001
0100
0010
,
1000
0100
1000
0001
1000
0100
0010
0100
1000
0001
0010
0001
1000
0001
0100
0010
,
1000
0001
0100
0010
0100
0001
1000
0100
0010
0001
1000
0100
1000
0010
0100
0001
,
0100
0010
1000
0001
0100
0001
1000
0001
0010
0100
1000
0001
0010
0001
0100
0010
,
1000
0001
0100
0010
0100
0001
1000
0100
0010
0001
1000
0100
1000
0001
1000
0010
,
0100
0001
0100
0010
1000
0001
0010
0001
1000
0001
0100
0010
0100
0001
1000
0100
,
0010
0100
1000
0001
0010
0001
1000
0100
1000
0001
1000
0010
0100
0001
1000
0100
,
1000
0001
0010
0100
1000
0001
1000
0010
0100
0000
0001
1000
0100
0000
0010
0001
,
1000
0001
0100
0010
0100
0001
1000
0100
0010
0000
0001
0010
0100
0000
1000
0010
,
1000
0001
0100
0010
1000
0001
0100
0001
0010
0000
0100
1000
0100
0000
0010
0001
,
1000
0001
0100
0010
0100
0001
1000
0100
0010
0000
0022
0000
0033
2002
0000
3003
,
1010
0000
0220
0000
0330
0202
0000
0303
1001
0000
1000
0010
0100
0000
0001
0100
,
0010
0000
1000
0001
1000
0100
0010
0001
1000
0100
1000
0010
0100
0000
0001
1000
,
0001
0000
0010
0100
1000
0001
1000
0010
0100
0001
1000
0100
0010
0000
0001
0010
,
0100
0000
1000
0010
1000
0001
0100
0010
0100
0001
1000
0100
0010
0000
0022
0000
,
0033
2002
0000
3003
1010
0000
0220
0000
0330
0202
0000
0303
0001
1000
0010
0100
,
0001
1000
0010
1000
0100
0010
0001
1000
0100
1000
0001
0010
0001
0100
0010
1000
,
0001
0100
0010
0100
0001
1000
0010
1000
0100
0010
0001
1000
0100
1000
0001
0010
,
0001
0100
0010
1000
0001
0100
0010
0100
0001
1000
0100
1000
0001
1000
0100
0010
,
0100
1000
0001
0010
0001
1000
0001
0100
0010
1000
0001
0100
0001
0010
0100
1000
,
0001
0010
0001
1000
0100
1000
0001
1000
0010
0100
0001
0100
0010
1000
0100
1000
,
0001
0010
0001
1000
0001
0100
0010
0100
0001
1000
0100
1000
0010
0100
0001
1000
,
0001
0010
0100
1000
0100
0010
0001
1000
0100
1000
0001
0100
0010
1000
0001
0100
,
0001
0010
0100
1000
0001
0010
0001
1000
0010
0100
0001
1000
0100
1000
0010
0100
,
0001
0000
1000
0100
0010
0000
0002
0000
0000
0000
1003
0010
0100
0000
0001
1000
,
0100
0000
0010
0001
1000
0000
0020
0000
0000
0000
0130
0001
0100
0000
0010
1000
,
0001
0000
2000
0000
0000
0000
3100
0010
0001
0000
1000
0001
0100
0000
0010
1000
,
0010
0200
0000
0000
0000
0000
0301
0000
,
0000
0000
0000
0000
,
0000
0000
0000
0000
,
0000
0000
0000
0000
,
0000
0000
0000
0000
,
0000
0000
0000
0000
,
0MM0
M00M
000M
000M
0MMM
000M
000M
M00M
0MM0
0000
0000
0000
0000
0000
0000
0000
,
0000
0000
0000
0000
,
0000
0000
0000
0000
0000
0000
1000
0100
,
0010
0000
0000
0001
0000
0000
1000
0000
0000
0010
0200
0000
0000
0000
0302
0000
0000
0000
1003
0000
0000
0010
0000
0000
,
0100
0000
0000
0001
0000
0000
1000
0000
0000
0100
0020
0000
0000
0000
0032
0000
0000
0000
0103
0000
0000
0010
0000
0000
,
1000
0000
0000
0001
0000
0000
0010
0000
0000
0100
2000
0000
0000
0000
3020
0000
0000
0000
0130
0000
0000
0001
0000
0000
,
1000
0000
0000
0001
0000
0000
0100
0000
0000
0010
2000
0000
0000
0000
3200
0000
0000
0000
0310
0000
0000
0001
0000
0000
,
1000
0000
0000
0001
0000
0000
1000
0000
0000
0010
0200
0000
0000
0000
0302
0000
0000
0000
1003
0000
0000
0100
0000
0000
,
1000
0000
0000
0010
0000
0000
0100
0000
0000
0001
2000
0000
0000
0000
3200
0000
0000
0000
0310
0000
0000
0001
0000
0000
,
1000
0000
0000
0010
0000
0000
0100
0000
0000
0001
0020
0000
0000
0000
0230
0000
0000
0000
1300
0000
0000
0010
0000
0000
,
0100
0000
0000
0000
0000
0000
0001
0000
0000
0000
0000
0000
0100
0000
0000
0000
0000
0000
0010
0000
2000
0000
0000
0000
0000
0000
0000
0000
3002
0000
0000
0000
0000
0000
0000
0000
1003
0000
0000
0100
0000
0000
0010
0000
0000
0001
0000
0000
,
0100
0001
1000
0010
0100
0001
0100
0010
1000
0001
1000
0100
0010
0100
1000
0001
,
0010
0001
1000
0001
0100
0010
0100
0001
1000
0100
0010
0001
1000
0100
1000
0001
,
0010
0001
0100
0010
1000
0001
0100
0001
0010
0100
1000
0001
1000
0100
0010
0100
,
1000
0001
0100
0001
1000
0001
0100
0010
0100
0001
1000
0100
0010
0001
1000
0100
,
1000
0001
0010
0001
0100
0001
1000
0010
1000
0100
0010
0001
1000
0001
0100
0010
,
0100
0001
1000
0100
0010
0001
1000
0100
1000
0001
0010
0001
0100
0010
1000
0001
,
0100
0001
1000
0100
1000
0010
0100
0001
1000
0001
0010
0100
1000
0001
0010
0001
,
0100
0010
1000
0001
1000
0100
0010
0001
1000
0100
1000
0001
0100
0010
1000
0001
,
0010
0100
1000
0001
0010
0001
0100
0001
1000
0100
0010
0100
1000
0001
1000
0001
,
0100
0010
0100
0001
1000
0100
0010
0001
1000
0100
1000
0001
0010
0001
0100
0010
,
1000
0001
0100
0010
0100
0001
1000
0100
0010
0001
1000
0001
0100
0010
1000
0001
,
0010
0001
1000
0100
0010
0001
1000
0100
1000
0001
0100
0010
1000
0001
0010
0001
,
0100
0010
1000
0001
0100
0001
0010
0100
1000
0001
0010
0001
0100
0010
1000
0001
,
0100
0001
1000
0100
0010
0001
1000
0100
1000
0001
0010
0001
0100
0010
1000
0001
,
0100
0010
0100
0001
1000
0100
0010
0100
1000
0001
0010
0001
0100
0010
1000
0001
,
0100
0001
1000
0100
0010
0001
1000
0100
1000
0001
0010
0001
0100
0010
1000
0001
,
0010
0001
1000
0100
1000
0010
0100
0001
1000
0100
0010
0001
1000
0100
1000
0001
,
0010
0001
0100
0010
1000
0001
1000
0100
0010
0001
1000
0100
1000
0001
1000
0010
,
0100
0001
0100
0010
1000
0001
0100
0001
0010
0100
1000
0001
0010
0001
1000
0100
,
1000
0001
1000
0010
0100
0001
0100
0010
1000
0001
0100
0001
0010
0100
1000
0100
,
0010
0001
1000
0100
1000
0001
1000
0010
0100
0001
0100
0010
1000
0001
0100
0001
,
0010
0100
1000
0001
0010
0001
1000
0100
1000
0001
0100
0001
1000
0010
0100
0001
,
1000
0100
1000
0001
0100
0001
0010
0100
1000
0001
1000
0010
0100
0001
0100
0010
,
1000
0100
1000
0001
0010
0001
1000
0100
0010
0001
1000
0010
0100
0001
1000
0100
,
0010
0000
0001
0100
0000
0010
1000
0000
0001
1000
0100
0010
0001
1000
0100
1000
,
0010
0100
0001
1000
0001
0010
0100
1000
0001
0010
0001
0100
0010
1000
0001
0100
,
0001
1000
0100
1000
0010
1000
0001
0100
0010
0100
0001
1000
0100
0010
0001
1000
,
0100
1000
0001
0010
0001
0100
0010
1000
0001
0100
0001
1000
0100
0000
0010
0000
,
0001
0000
1000
0000
0001
0000
0100
0000
0010
1000
0001
0100
0010
0100
0001
1000
,
0100
0010
0001
1000
0100
1000
0001
0100
0010
0100
0001
1000
0100
1000
0010
0100
,
0001
0000
0000
0000
0000
0000
0000
0000
0000
0000
1000
0000
0000
0000
0000
0000
0000
0000
0000
0001
0000
0000
0000
0000
0000
0000
0000
0000
0000
0010
0000
0000
0000
0000
0000
0000
0000
0000
0100
0000
0000
0000
0000
0000
0000
0000
0000
0000
1000
0000
0000
0000
0000
0000
0000
0000
0000
0000
0001
0000
0000
0000
0000
0000
0000
0000
0000
0010
0000
0000
0000
0000
0000
0000
0000
0000
0000
0001
0000
0000
0000
0000
0000
0000
0000
0000
0100
0000
0000
0000
0000
0000
0000
0000
0000
0000
0010
0000
0000
0000
0000
0000
0000
0000
0000
0000
1000
0000
0000
0000
0000
0000
0000
0000
0000
0001
0000
0000
0000
0000
0000
0000
0000
0000
0000
0100
0000
0000
0000
0000
0000
0000
0000
0000
0001
0000
0000
0000
0000
0000
0000
0000
0000
0000
1000
0000
0000
0000
0000
0000
0000
0000
0000
0000
0000
0000
0000
0000
0000
0000
0000
0000
0000
0000
0000
0000
0000
0000
0010
0000
0000
0000
0000
0000
0000
0000
0000
0000
0000
0000
0100
0000
0000
0000
0000
0000
0000
0000
0000
0000
0000
0000
,
0001
0000
0000
0000
0000
0000
1000
0000
0000
0100
0000
0000
0010
0000
0000
0000
0001
0000
0000
0000
1000
0000
0000
0000
0010
0000
0000
0000
1000
0000
0000
0000
0001
0000
0000
0000
0010
0000
0000
0100
0000
0000
1000
0000
0000
0001
0000
0000
,
1000
0010
0100
0001
1000
0100
1000
0001
0010
0001
0100
0010
1000
0001
0100
0001
,
1000
0010
0100
0001
1000
0100
1000
0001
0010
0100
1000
0001
1000
0010
0100
0001
,
1000
0100
1000
0001
0010
0100
1000
0001
0100
0000
0010
0000
1000
0000
0001
0000
,
1000
0000
0000
0010
0000
0000
1010
0000
0000
0000
0110
0000
0000
0000
0101
0000
0000
0000
2002
0000
0000
0000
0000
0000
,
3003
2020
0000
3030
2002
0000
0000
0000
,
0000
0003
0000
0000
3010
0000
0100
0000
,
0001
1000
0001
0010
0100
1000
0001
1000
0100
0010
0001
1000
0020
0000
0000
0000
,
0130
0000
0001
0000
1000
0000
1000
0000
0100
0000
0000
0000
0010
0001
1000
0000
,
0001
0000
0000
0100
0010
0000
1000
0000
1001
0000
0000
0000
0011
0000
0000
0000
,
0110
0000
0100
0000
0000
0000
0100
0000
1100
0000
0000
0000
1001
0000
0001
0100
,
0010
0000
0000
0000
1000
0000
0100
0000
0010
0001
0010
0001
1000
0000
0000
0000
,
1010
0000
0000
0000
0010
0000
0100
0000
0101
0000
0000
0000
0001
1000
0001
0000
,
0010
0000
0000
0100
1000
0000
0010
0000
1010
0000
0000
0000
0110
0000
0000
0000
,
0101
0000
0001
0000
0000
0000
0001
0000
1001
0000
0000
0000
1000
0000
0100
0010
,
0001
0000
0000
0000
1000
0100
0010
0001
1000
0001
0100
0010
0100
0000
0000
0000
,
0001
0000
0100
0000
0110
0000
0010
0000
1010
0000
0000
0000
1000
0001
1000
0000
,
0100
0000
0000
0010
0001
0000
1000
0000
1001
0000
0000
0000
0101
0000
0000
0000
,
0110
0000
0100
0000
0010
0000
1000
0000
1001
0000
0000
0000
0001
0000
0010
0100
,
1000
0000
0000
0000
0010
0000
0010
0000
0100
0001
0100
0010
1000
0000
0000
0000
,
1001
0000
0000
0000
0011
0000
0001
0000
2001
0000
0000
0000
3010
0100
0001
0000
,
0100
0000
0000
0010
1000
0000
0100
0000
1100
0000
0000
0000
1010
0000
0000
0000
,
0010
0000
0000
0000
0100
0000
0001
0000
0101
0000
0000
0000
0100
0000
0010
1000
,
0001
0000
1000
0100
0010
0001
0010
0100
1000
0001
1000
0010
0100
0001
1000
0100
,
0010
0000
0001
0100
0010
0000
0000
1010
0000
1001
0000
0001
1000
0001
0010
0000
,
0100
0000
0000
1000
0100
0000
0010
0000
0001
1000
0001
0100
0010
0000
1000
0010
,
0100
0000
0001
0100
0000
0000
0110
0000
0010
0000
0000
1000
0001
0000
0100
0010
,
0100
0001
1000
0000
0100
0000
0010
0000
0001
0000
1000
0000
0010
0100
0001
1000
,
0100
0010
0001
1000
0100
1000
0010
1000
0001
0100
0010
0100
0001
1000
0010
0000
,
0100
0000
0000
0001
1000
0000
0100
0000
0010
0000
0001
0000
2001
0000
0000
0000
,
3010
0000
0200
0000
0000
0000
0301
0000
2001
0000
0000
0000
3100
0000
0010
0001
,
2000
0000
0000
0000
3010
0100
0001
1000
0001
0010
0100
1000
0010
0000
0100
0000
,
0001
0000
1000
0000
0100
0000
0010
0000
0001
0000
1000
0000
0010
0100
0001
0100
,
0001
1000
0100
0010
0001
1000
0100
1000
0010
1000
0001
0100
0010
1000
0001
0100
,
0001
0010
0100
1000
0100
0010
0001
1000
0100
1000
0001
0100
0010
1000
0001
0010
,
0001
1000
0010
1000
0001
0100
0010
0100
0001
1000
0100
0010
0001
0000
1000
0000
,
0010
0000
0100
0001
0100
0000
0010
0000
2000
0000
3001
0010
0100
0000
0000
1000
,
0010
0000
0000
0100
0001
1000
0001
0010
0100
1000
0000
0010
1000
0000
0002
0000
,
1003
0100
0010
0001
1000
0010
0000
0100
0001
1000
0001
0100
0010
0000
1000
0100
,
1000
0000
0000
0000
0000
0000
0010
0000
0000
0100
0000
0000
0002
0000
0000
0000
0000
0000
0000
0000
0000
0000
0000
0000
2003
0000
0000
0000
0000
0000
0000
0000
0000
0000
0000
0000
3100
0000
0000
0000
0010
0000
0000
0000
0001
0000
0000
0000
,
1000
0001
0100
0010
1000
0001
0100
0001
0010
0100
1000
0001
,
0010
0001
1000
0100
1000
0001
1000
0010
0100
0001
1000
0100
,
1000
0000
0000
0000
0001
0000
0000
0000
0010
0000
0000
0000
0001
0000
0000
0000
1000
0000
0000
0000
0100
0000
0000
0000
0010
0000
0000
0000
0001
0000
0000
0000
1000
0000
0000
0000
0010
0000
0000
0100
0000
0000
0001
0000
0000
1000
0000
0000
,
0100
0000
0000
1000
0000
0000
0001
0000
0000
0010
0000
0000
0100
0000
0000
0000
1000
0000
0000
0000
0001
0000
0000
0000
1000
0000
0000
0000
0010
0000
0000
0000
0100
0000
0000
0000
0001
0000
0000
0000
1000
0000
0000
0000
0100
0000
0000
0000
,
1000
0001
0010
0100
1000
0001
1000
0100
0010
0001
1000
0010
,
1000
0001
1000
0010
0100
0001
0100
0010
1000
0100
1000
0001
,
0100
0000
0000
0000
0001
0000
0000
0000
0010
0000
0000
0000
0100
0000
0000
0000
1000
0000
0000
0000
0001
0000
0000
0000
0010
0000
0000
0000
0001
0000
0000
0000
0100
0000
0000
0000
0010
0000
0000
1000
0000
0000
0001
0000
0000
1000
0000
0000
,
0100
0010
0001
1000
0100
1000
0001
0100
0010
1000
0010
0100
0002
0000
0000
0003
,
1001
1100
0110
0011
,
1001
1001
0000
1010
0110
0000
0101
0000
,
1001
0000
1100
0000
0110
0000
0011
0011
,
0000
1001
1010
0000
0110
0000
0101
0000
,
1001
0000
1100
0000
0110
0110
0000
0011
,
1001
1010
0110
0101
,
1001
0000
0000
0000
1100
0000
0110
0000
0000
0000
0011
0000
1000
0100
0010
0001
,
1000
0010
0100
0001
1000
0100
1000
0001
0010
0001
0100
0010
1000
0001
0100
0001
,
0010
0100
1000
0001
0010
0001
1000
0100
1000
0001
1000
0010
0100
0001
1000
0100
,
1000
0001
0010
0001
1000
0100
0010
0001
1000
0100
1000
0001
0010
0001
0100
0010
,
1000
0001
0100
0001
1000
0100
0010
0001
1000
0100
1000
0010
0100
0001
0100
0010
,
1000
0001
0100
0001
0010
0100
1000
0001
0010
0001
1000
0010
1000
0001
0100
0001
,
0010
0100
1000
0001
1000
0010
0100
0001
1000
0100
1000
0010
0100
0000
0000
0000
,
0001
1000
0001
1000
,
1000
0000
0000
0000
0100
0000
0000
0000
0000
0000
0000
0100
0000
0000
0000
0000
0010
0000
0000
0000
0000
0000
0000
0000
0001
0000
0000
0000
0000
0000
0000
0000
,
1000
0000
0010
0000
0100
0000
0001
0001
,
0000
0000
0000
1000
0000
0000
0000
0000
0010
0000
0000
0000
0000
0000
0000
0000
0100
0000
0000
0000
0000
0000
0000
0000
0010
0000
0000
0000
0000
0000
0000
0000
,
1000
0000
0000
0000
0000
0000
0000
0000
0001
0000
0000
0000
0000
0000
0000
0000
0010
0000
0000
0000
0010
0000
0000
0000
0000
0000
0000
0100
0000
0000
0000
0000
,
1000
0010
1000
0001
,
0010
0000
0000
0000
0000
0000
0000
0000
0100
0000
0000
0000
1000
0000
0000
0000
0000
0000
0000
0010
0000
0000
0000
0000
0100
0000
0000
0000
0000
0000
0000
0000
,
0001
1000
0001
0010
,
0100
0000
0000
0000
1000
0000
0000
0000
0000
0000
0000
0010
0000
0000
0000
0000
0100
0000
0000
0000
0000
0000
0000
0000
0001
0000
0000
0000
0000
0000
0000
0000
,
1000
0000
0100
0000
0010
0000
0001
0001
,
0000
0000
0000
1000
0000
0000
0000
0000
0010
0000
0000
0000
0000
0000
0000
0000
0100
0000
0000
0000
0000
0000
0000
0000
0001
0000
0000
0000
0000
0000
0000
0000
,
1000
0000
0000
0000
0000
0000
0000
0000
0100
0000
0000
0000
0000
0000
0000
0000
0010
0000
0000
0000
0001
0000
0000
0000
0000
0000
0000
1000
0000
0000
0000
0000
,
1000
0100
0010
0001
,
1000
0000
0001
0100
0000
0010
0000
0000
,
M00M
M00M
M00M
M00M
M00M
MMMM
000M
000M
000M
000M
000M
0000
0000
0000
0000
0000
0000
0000
0000
0000
0000
0000
0000
0000
,
2000
0000
0200
3000
0020
0300
0002
0030
,
2000
0003
0020
3000
0000
0000
0000
0000
,
0200
0030
0002
0300
2000
0003
0002
0000
,
0000
0000
0000
0000
0000
0000
0000
0000
0000
0000
0000
0000
0000
0000
0000
0000
0000
0000
0000
0000
0000
0000
0000
0000
0000
0000
0000
0000
0000
0000
0000
3000
,
1003
0000
0100
0000
0010
0000
0001
0000
0000
0000
0000
0000
0100
0000
0000
0110
0000
0000
0000
0000
0000
0000
0000
0000
,
0010
0000
1000
0000
0010
0000
1000
0000
0000
0001
0000
0000
1001
0000
0000
0000
0000
0000
1000
0000
0000
0000
0000
0000
,
0100
0010
0001
1000
0001
0100
0010
0100
0001
1000
0010
1000
0001
1000
0100
0010
,
0001
1000
0010
0000
,
1000
0100
0010
0001
1000
0001
0100
0010
,
1000
0000
0001
0000
0010
0000
0100
0000
1000
0000
0001
0000
,
1000
0000
0010
0000
0100
0101
0000
0001
,
1000
0100
0010
0000
,
0000
0000
0000
0000
MMMM
M000
M000
M000
MMMM
000M
000M
M00M
0MM0
0000
0000
0000
,
0000
0000
0000
0000
0000
0000
0001
0100
0010
1000
0001
1000
,
0100
0010
0001
1000
0100
1000
0010
0100
,
0001
0000
0000
1000
0000
0000
0100
0000
0000
1000
0000
0000
0010
0000
0100
0000
0001
0000
1000
0000
0100
0000
1000
0000
,
0010
0010
0000
0000
0000
0000
0000
0000
,
0100
0000
0000
0001
0000
0000
1000
0000
0000
0100
0000
0000
0010
0000
0001
0000
1000
0000
0001
0000
0100
0000
0010
0000
,
1000
0000
0100
0010
0001
1000
0000
0000
,
0001
0100
0010
1000
0000
0000
0100
1000
,
0010
0100
0010
1000
0001
0000
0000
0000
,
2M01
0000
0000
0000
,
0000
0000
0000
0000
,
3010
0100
0001
1000
0100
0010
0002
0000
,
1003
0010
0200
0000
0301
1000
0100
1000
,
0010
0100
0002
0000
0103
0010
2000
0000
,
3100
0010
0001
1000
0001
0100
0010
1000
,
0001
1000
0100
0010
0001
1000
0100
1000
,
0001
0010
0001
0100
0010
1000
0001
0010
,
0100
1100
0000
1000
0001
0100
0120
0000
,
1030
0001
1000
0000
1010
0010
0100
0001
,
1000
1100
0200
0000
0310
0001
0201
0000
,
0310
1000
0001
0010
0100
1000
0010
0100
,
0001
1000
0100
1000
0010
0100
0001
1000
,
0100
1000
0001
0100
0001
0010
0100
1000
,
0001
1000
0010
0100
0001
1000
0100
0010
,
0001
1000
0100
1000
0001
1000
0010
0100
,
0001
0100
0010
1000
0100
1000
0001
0010
,
0100
0000
1100
0000
0000
0000
1010
0000
0010
0000
0100
0000
0001
1000
0001
1000
,
0100
0010
0011
0000
0001
0100
0010
1000
,
0001
1000
1100
0000
0100
0010
0001
0000
,
1000
0100
0010
0001
1000
0100
1000
0001
0100
0010
1000
0001
0100
0001
0010
0100
,
1000
0001
0100
0010
0100
0001
1000
0010
1000
0001
0100
0001
1000
0010
0100
0001
,
1000
0000
1100
0000
0000
0000
0110
0000
0010
0000
0001
0000
1000
0010
1000
0001
,
0100
0010
1000
0000
0001
0100
0010
1000
,
0001
1000
1100
0000
0110
0010
0001
0000
,
1000
0000
1010
0000
0000
0000
0010
0000
0100
0000
0001
0000
1000
0100
1000
0010
,
0100
0001
1000
0100
0010
0000
0000
0000
0001
0000
0100
0000
0010
0000
1000
0000
,
0001
1000
1010
0000
1001
0001
0100
0000
,
0010
0000
0000
0000
,
0000
0000
0000
0000
,
0MM0
0000
M00M
M000
M000
M000
MMM0
M00M
M00M
M00M
M00M
0MM0
0000
0000
0000
0000
,
0000
0000
0000
0000
,
1000
0100
0010
0001
1000
0000
0010
0100
,
0001
0000
1000
0000
0100
0000
0010
0000
0001
1000
0001
0100
0010
1000
0001
0010
,
0100
1000
0010
1000
0001
0010
0100
1000
,
0010
0100
0001
1000
0100
0010
0001
1000
,
0001
0000
0010
0000
0100
0000
1000
0000
0010
1000
0001
0100
0020
0000
0030
0000
,
0000
0000
1000
0100
0010
0001
1000
0010
,
1000
0001
0010
0100
2000
3000
0010
0100
,
0001
0000
0000
1000
0000
0000
0100
0000
0000
1000
0000
0000
0010
0000
0100
0000
0001
0000
1000
0000
0100
0000
1000
0000
,
0010
0100
0001
1000
0100
0010
0001
1000
,
0100
1000
0010
0100
0001
0100
0010
1000
,
0001
0000
0000
1000
0000
0000
0100
0000
0000
0010
0000
0000
0001
0000
1000
0000
0001
0000
0100
0000
0000
0000
0000
0000
,
0000
0000
0000
0010
1000
0001
1000
0100
,
0010
0000
0000
0001
0000
0000
1000
0100
1000
0010
0100
0001
,
1000
0010
1000
0001
0100
0010
0100
0001
1000
0100
0010
0001
,
0100
0000
0000
0000
0010
1000
0001
1000
,
0100
0000
0000
0000
0010
0000
0000
0000
0001
0000
0000
0000
1000
0000
0000
0010
0000
0000
0100
0000
0001
0000
1000
0000
,
0100
0000
1000
0000
0010
0000
0100
0000
0001
0000
1000
0000
0100
0000
0000
0010
0000
0000
0001
0000
0000
1000
0000
0000
,
0010
0100
0010
1000
0001
0010
0001
1000
,
0010
0000
0100
0000
0001
0000
1000
0000
0000
0001
0000
0000
0010
0000
0000
0000
0000
0000
0110
0000
0000
0000
0000
0000
,
0100
1000
0001
1000
0010
0000
0100
0001
,
1000
0000
0010
0000
0100
0000
0000
0000
0001
0000
1000
0100
1000
0000
0010
0000
,
0100
0000
0000
0001
0000
0000
1000
0000
0100
0000
0010
0000
0001
0000
1000
0000
0001
0000
0100
0000
0010
0000
1000
0000
,
0100
1000
0010
0100
0001
1000
0001
1000
,
0100
0010
0001
1000
0010
1000
0001
0010
,
0100
1000
0001
1000
0010
1000
0001
0100
,
0010
0100
0001
1000
0100
1000
0010
0100
,
0001
1000
0001
0010
0100
1000
0001
1000
,
0010
0100
0001
1000
0000
0000
0100
0010
,
0001
1000
0001
0100
0010
1000
0001
0100
,
0001
0000
1000
0000
0100
0000
0010
0000
0001
0000
1000
0000
0010
0100
0001
2000
,
0000
0000
3100
0010
0001
1000
0001
0000
0100
0000
0010
1000
0001
1000
0100
0010
,
0001
1000
0010
0200
0000
0000
0301
1000
0001
1000
0100
0000
0010
0000
0001
1000
,
0100
1000
0010
0100
0001
0100
0010
1000
0001
1000
0100
1000
0001
0010
0001
1000
,
0001
0100
0010
1000
0001
0100
0001
0010
0100
1000
0001
0010
0001
1000
0100
1000
,
0001
0100
0010
0100
0001
1000
0100
0020
0000
0000
0031
1000
0100
1000
0010
0000
,
0100
0000
0001
1000
0010
1000
0001
0100
0010
1000
0001
2000
0000
0000
3100
0010
,
0001
1000
0001
0000
0100
0000
0010
1000
0001
1000
0100
0010
0002
0000
1003
0000
,
0010
0000
0110
0000
0100
0000
0001
0000
1000
0100
0020
0000
0031
1000
0001
0010
,
0200
0000
1300
0000
0010
0000
0100
0001
1000
0100
0010
0001
1000
0100
1000
0001
,
0010
0001
0100
0010
1000
0001
0100
0010
0100
0001
1000
0100
0010
0001
1000
0100
,
1000
0001
0010
0001
0100
0010
1000
0001
0100
0001
1000
0100
0010
0001
1000
0100
,
1000
0001
0010
0001
0100
0010
1000
0001
0100
0010
0100
0001
1000
0010
1000
0001
,
0100
0000
0000
0000
0000
0000
0000
0000
0000
0000
0000
0000
0001
0000
0000
0000
0000
0000
0000
0000
0000
0000
0000
0000
1000
0000
0000
0000
0000
0000
0000
0000
0000
0000
0000
0000
0100
0000
0000
0000
0000
0000
0000
0000
0000
0000
0000
0000
0010
0000
0000
0000
0000
0000
0000
0000
0000
0000
0000
0000
0100
0000
0000
0000
0000
0000
0000
0000
0000
0000
0000
0000
1000
0000
0000
0000
0000
0000
0000
0000
0000
0000
0000
0000
0001
0000
0000
0000
0000
0000
0000
0000
0000
0000
0000
0000
0010
0000
0000
0000
0000
0000
0000
0000
0000
0000
0000
0000
0001
0000
0000
0000
0000
0000
0000
0000
0000
0000
0000
0000
1000
0000
0000
0000
0000
0000
0000
0000
0000
0000
0000
0000
0010
0000
0000
0000
0000
0000
0000
0000
0000
0000
0000
0000
0200
0000
0000
0000
0000
0000
0000
0000
0000
0000
0000
0000
0000
0000
0000
0000
0000
0000
0000
0000
0000
0000
0000
0000
0000
0000
0000
0000
0000
0000
0000
0000
0000
0000
0000
0000
0000
0000
0000
0000
0000
0000
0000
0000
0000
0000
0000
0300
,
0200
0000
0000
0000
0000
0000
0000
0000
0000
0000
0000
0000
0000
0000
0000
0000
0000
0000
0000
0000
0000
0000
0000
0000
0000
0000
0000
0000
0000
0000
0000
0000
0000
0000
0000
0000
0000
0000
0000
0000
0000
0000
0000
0000
0000
0000
0000
0300
0200
0000
0000
0000
0000
0000
0000
0000
0000
0000
0000
0000
0000
0000
0000
0000
0000
0000
0000
0000
0000
0000
0000
0000
0000
0000
0000
0000
0000
0000
0000
0000
0000
0000
0000
0000
0000
0000
0000
0000
0000
0000
0000
0000
0000
0000
0000
0300
0200
0000
0000
0000
0000
0000
0000
0000
0000
0000
0000
0000
0000
0000
0000
0000
0000
0000
0000
0000
0000
0000
0000
0000
0000
0000
0000
0000
0000
0000
0000
0000
0000
0000
0000
0000
0000
0000
0000
0000
0000
0000
0000
0000
0000
0000
0000
0000
0301
0000
0000
0000
0000
0000
0000
0000
0000
0000
0000
0000
1000
0000
0000
0000
0000
0000
0000
0000
0000
0000
0000
0000
0010
0000
0000
0000
0000
0000
0000
0000
0000
0000
0000
0000
1000
0000
0000
0000
0000
0000
0000
0000
0000
0000
0000
0000
,
0100
0010
0001
1000
0100
1000
0001
0100
0010
0100
0001
1000
0100
0000
0010
0000
,
0001
0000
1000
0010
0100
0000
0001
1000
0001
0010
0100
1000
0001
0100
0010
1000
,
0001
1000
0100
0000
0110
0000
0010
0000
0001
1000
0001
0010
0100
0000
1000
0010
,
0100
0001
0100
0000
0010
1000
0100
1000
0001
0010
0001
0000
1001
0000
1000
0000
,
0100
0000
0010
0001
1000
0000
0001
1000
0010
0100
0001
0000
1000
0100
0010
0001
,
1000
0010
0100
0000
0101
0000
0001
0000
1000
0000
0100
0010
0001
0000
1000
0001
,
1000
0100
0010
0000
0001
1000
0001
0100
0010
1000
0001
0000
1001
0000
1000
0000
,
0100
0000
0010
0001
0010
0000
0100
1000
0001
1000
0010
0000
0100
0001
1000
0100
,
1000
0001
0010
0000
0110
0000
0100
0000
1000
0000
0001
0100
0001
0000
1000
0100
,
0010
0001
1000
0010
0100
0001
1000
0100
1000
0001
0010
0000
0110
0000
0100
0000
,
1000
0000
0001
0100
0010
0000
1000
0001
1000
0100
0010
0000
0001
0100
0010
1000
,
0001
1000
0010
0000
0110
0000
0100
0000
0001
0000
1000
0100
0010
0000
0001
1000
,
0001
0100
0010
0000
1000
0100
0010
0001
1000
0001
0100
0000
0010
1000
0001
0000
,
1000
0000
0100
0000
0010
0000
0000
0001
0000
0000
1000
0010
1000
0001
0100
0000
,
0000
0000
0010
1000
0001
1000
0100
0000
0000
0000
0010
0001
1000
0001
0100
0010
,
1000
0100
1000
0001
0010
0001
1000
0100
0010
0001
0200
0000
0000
0000
0000
0300
,
0220
0000
0000
0000
0000
0330
2020
0000
0000
0000
0000
3030
2002
0000
0000
0000
,
0000
0000
0000
3003
0000
0000
0001
0000
0000
0000
0000
0000
0100
0000
0000
0000
0000
0000
0010
0000
0000
0000
0000
0000
1000
0000
0000
0000
0000
0000
0000
0000
1010
0000
0000
0000
0000
0000
0000
0000
0110
0000
0000
0000
0000
0000
0000
0000
,
0202
0000
0000
0000
0000
0303
2002
0000
0000
0000
0000
3003
1000
0100
0010
0001
,
1000
0000
0000
0001
0000
0000
0100
0000
0000
0010
0000
0000
0100
0000
0000
0001
0000
0000
1000
0000
0000
0100
0000
0000
0010
0000
0000
0000
0000
0000
0001
0000
0000
0100
0000
0000
0010
0000
0000
0000
0000
0000
1000
0000
0001
0000
1000
0000
,
0001
0000
0000
0100
0000
0000
0010
0000
0000
1000
0000
0001
0000
1000
0000
0100
0000
0000
0010
0000
0000
0001
0000
0000
1000
0000
0000
0010
0000
0100
0000
0001
0000
0000
0000
0000
1000
0000
0010
0000
0100
0000
0001
0000
1000
0000
0100
0000
,
0010
0000
0000
0001
0000
0000
1000
0000
0000
0001
0000
0000
0100
0000
0000
0010
0000
0000
0100
0000
0000
0001
0000
0000
1000
0000
0000
0000
0000
0000
0100
0000
0000
0010
0000
0000
0001
0000
0000
0000
0000
0000
1000
0000
0010
0000
1000
0000
,
0010
0000
0000
0100
0000
0000
0001
0000
0000
1000
0000
0001
0000
0100
0000
0010
0000
0000
1000
0000
0001
0000
1000
0000
0100
0000
0000
0010
0000
0001
0000
1000
0000
0001
0000
0000
0100
0000
0000
0010
0000
0000
1000
0000
0000
0001
0000
0000
,
1000
0000
0000
0100
0000
0000
0010
0000
0000
0001
0000
0000
0100
0000
0000
0010
0000
0000
1000
0000
0000
0001
0000
0000
1000
0000
0000
0000
0000
0000
0100
0000
0000
0010
0000
0000
0001
0000
0000
0000
0000
0000
1000
0000
0010
0000
1000
0000
,
0100
0000
0000
0000
0000
0000
0000
0000
0000
0000
0000
0000
0010
0000
0000
0000
0000
0000
0000
0000
0000
0000
0000
0000
0001
0000
0000
0000
0000
0000
0000
0000
0000
0000
0000
0000
1000
0000
0000
0000
0000
0000
0000
0000
0000
0010
0000
0000
0000
0000
0000
0000
0000
0000
0100
0000
0000
0000
0000
0000
0000
0000
0000
0001
0000
0000
0000
0000
0000
0000
0000
0000
0100
0000
0000
0000
0000
0000
0000
0000
0000
0000
0000
0000
0010
0000
0000
0000
0000
0000
0000
0000
0000
0000
0000
0000
1000
0000
0000
0000
0000
0000
0000
0000
0000
0000
0000
0000
0001
0000
0000
0000
0000
0000
0000
0000
0100
0000
0000
0000
0000
0000
0000
0000
0010
0000
0000
0000
0000
0000
0000
0000
1000
0000
0000
0000
0000
0000
0000
0000
0000
0000
0000
0000
0010
0000
0000
0000
0000
0000
0000
0000
0100
0000
0000
0000
0000
0000
0000
0000
0001
0000
0000
0000
0000
0000
0000
0000
1000
0000
0000
0000
0000
0000
0000
0000
0001
0000
0000
0000
0000
0000
0000
0000
0010
0000
0000
0000
0000
0000
0000
0000
,
0100
0000
1000
0000
0010
0000
0100
0000
0000
0001
0000
0000
1000
0000
0000
0100
0000
0000
0010
0000
0000
0001
0000
0000
0100
0000
0000
0000
0000
0000
0010
0000
0000
1000
0000
0000
0001
0000
0000
0000
0000
0000
0100
0000
0010
0000
0100
0000
,
0001
0000
0000
0000
1000
0000
0000
0000
0100
0000
0000
0000
0010
0000
0000
0001
0000
0000
1000
0000
0000
0010
0000
0000
0100
0000
0000
0001
0000
0000
1000
0000
0000
0100
0000
0000
1000
0000
0000
0010
0000
0000
0100
0000
0000
0001
0000
0000
1000
0000
0000
0000
0000
0000
0000
0000
0100
0000
0000
0000
0000
0000
0000
0000
,
0010
0000
0000
0000
0000
0000
0001
0000
0000
0000
0000
0000
1000
0000
0000
0010
0000
0000
1000
0000
0000
0001
0000
0000
0010
0000
0000
0100
0000
0000
1000
0000
0000
0001
0000
0000
0100
0000
0010
0000
0100
0000
0001
0000
0000
1000
0000
0000
,
0100
0000
0010
0000
0001
0000
1000
0000
0001
0000
0100
0000
0010
0000
0000
1000
0000
0000
0001
0000
1000
0000
0100
0000
0010
0000
0000
0000
0001
0000
0100
0000
0010
0000
0000
0000
1000
0000
0001
0000
0010
0000
0100
0000
1000
0000
0010
0000
,
1000
0000
0000
0000
0000
0000
0000
0000
0001
0000
0000
0000
0000
0000
0000
0000
0100
0000
0000
0000
0000
0000
0000
0000
0010
0000
0000
0000
0000
0000
0000
0000
1000
0000
0000
0000
0000
0000
0000
0000
0001
0000
0000
0000
0000
0000
0000
0000
0010
0000
0000
0000
0000
0000
0000
0000
0000
0000
0000
0000
0100
0000
0000
0000
0000
0000
0000
0000
0000
0000
0000
0000
1000
0000
0000
0000
0000
0000
0000
0000
0010
0000
0000
0000
0000
0000
0000
0000
1000
0000
0000
0000
0000
0000
0000
0000
0001
0000
0000
0000
0000
0000
0000
0000
0000
0000
0000
0000
0000
0000
0000
0000
0100
0000
0000
0000
0000
0000
0000
0000
0010
0000
0000
0000
0000
0000
0000
0000
1000
0000
0000
0000
0000
0000
0000
0000
0001
0000
0000
0000
0000
0000
0000
0000
1000
0000
0000
0000
0000
0000
0000
0000
0000
0000
0000
0000
0100
0000
0000
0000
0000
0000
0000
0000
0000
0000
0000
0000
1000
0000
0000
0000
0000
0000
0000
0000
0000
0000
0000
0000
0010
0000
0000
0000
0000
0000
0000
0000
0000
0100
0000
0000
,
0000
0000
0000
0000
0000
0000
0001
0000
0000
0000
0000
0000
0000
0000
0000
1000
0000
0000
0000
0000
0000
0000
0000
0000
0100
0000
0000
0000
0000
0000
0000
0000
0000
0000
0000
0000
0010
0000
0000
0000
0000
0000
0000
0000
0000
0000
0000
0000
0001
0000
0000
0000
0000
0000
0000
0000
0000
0000
0000
0000
1000
0000
0000
0000
0000
0000
0000
0000
0000
0000
0000
0000
0100
0000
0000
0000
0000
0000
0000
0000
0000
0000
0000
0000
1000
0000
0000
0000
0000
0000
0000
0000
0000
0000
0000
0000
0010
0000
0000
0000
0000
0000
0000
0000
0100
0000
0000
0000
0000
0000
0000
0000
0001
0000
0000
0000
0000
0000
0000
0000
0100
0000
0000
0000
0000
0000
0000
0000
0010
0000
0000
0000
0000
0000
0000
0000
1000
0000
0000
0000
0000
0000
0000
0000
0001
0000
0000
0000
0000
0000
0000
0000
0000
0000
0000
0000
0000
0000
0000
0000
0000
0000
0000
0000
0000
0000
0000
0000
0010
0000
0000
0000
0000
0000
0000
0000
0000
0000
0000
0000
0000
0000
0000
0000
0000
0000
0000
0000
0000
0000
0000
0000
,
0100
0000
0000
0000
0000
0000
1000
0000
0010
0000
1000
0000
0001
0000
0000
0010
0000
0000
0100
0000
0000
1000
0000
0000
0001
0000
0000
0100
0000
0000
0010
0000
0000
1000
0000
0000
0100
0000
0000
1000
0000
0000
0001
0000
0000
0010
0000
0000
,
0001
1000
0100
1000
0001
0100
0010
1000
0001
0100
0001
0010
0100
1000
0001
1000
,
0010
0000
0000
0100
0000
0000
0001
0000
0000
0100
0000
0000
0010
0000
0000
1000
0000
0000
0100
0000
0000
1000
0000
0000
0001
0000
0000
0010
0000
0000
0100
0000
0000
1000
0000
0000
0010
0000
0000
0000
0100
0000
0000
0000
0001
0000
0000
0000
,
1000
0000
0000
0000
0100
0000
0000
0000
1000
0000
0000
0000
0001
0000
0000
0000
0010
0000
0000
0000
0001
0000
0000
0000
1000
0000
0000
0000
0100
0000
0000
0000
0010
0000
0000
0000
0001
0000
0000
1000
0000
0000
0001
0000
0000
0100
0000
0000
,
0010
0000
0000
0000
1010
0000
0000
1001
0000
0000
0101
0000
0101
0000
0001
0000
,
1000
0000
0100
0000
0010
0000
0000
0011
0000
0000
1001
0000
1010
0000
0010
0000
,
0100
0000
0001
0000
1000
0100
1000
0010
0100
0000
0001
1000
0001
0010
0100
0000
,
1000
0000
0000
0001
0000
0000
1000
0000
0000
0000
0000
0000
0100
0000
0000
0000
0010
0000
0000
0000
0001
0000
0000
0000
1000
0000
0000
0000
0001
0000
0000
0000
0100
0000
0000
0000
M22M
0000
0000
0000
0000
0000
0330
0000
0000
0000
0000
0000
,
M2M2
0303
2M2M
3030
2MM2
3003
M2M2
0000
,
0303
MM22
0000
0033
M22M
0000
0330
22MM
,
0000
3300
M22M
0000
0000
0330
M2M2
0000
,
0000
0303
2MM2
0000
0000
3003
M22M
0000
,
0000
0300
0000
0000
0000
0000
0030
0000
;
