#TITLE:XenomaX;
#SUBTITLE:;
#ARTIST:DM Ashura;
#TITLETRANSLIT:;
#SUBTITLETRANSLIT:;
#ARTISTTRANSLIT:;
#CREDIT:;
#BANNER:xenomax.PNG;
#BACKGROUND:XenomaX-bg.png;
#LYRICSPATH:;
#CDTITLE:;
#MUSIC:XenomaX - DM Ashura feat. Omega & Mr. T.mp3;
#OFFSET:-5.520;
#SAMPLESTART:17.000;
#SAMPLELENGTH:11.380;
#SELECTABLE:YES;
#BPMS:0.000=175.000,14.000=87.500,15.000=175.000,111.000=170.000,142.000=175.000;
#STOPS:;
#BGCHANGES:;
// cache tags:
#FIRSTBEAT:0.000;
#LASTBEAT:274.000;
#SONGFILENAME:Songs/newbie/XenomaX/xenomax.sm;
#HASMUSIC:1;
#HASBANNER:1;
#MUSICLENGTH:102.927;
// end cache tags

//---------------dance-single - ----------------
#NOTES:
     dance-single:
     :
     Hard:
     7:
     0.748,0.732,0.262,0.204,0.515,491.000,27.000,21.000,0.000,0.000:
0100
0110
1000
1001
,
0010
1010
0001
0101
,
0001
1000
0100
0001
0010
0100
0001
1000
,
2002
0000
0000
3003
,
0110
0000
0001
0100
0001
0100
1000
0001
,
0100
0001
1000
0001
0100
1000
0001
0010
,
0001
1000
0100
0001
0100
0001
1000
0001
,
0100
0001
0010
1000
0001
0100
0001
1000
,
0100
0001
1000
0100
0001
1000
0100
0100
,
0001
1000
0100
0001
0010
0001
1000
0100
,
1000
0001
0100
0001
0010
0001
0110
1001
,
0000
0000
0110
0000
0000
0000
1000
0000
0001
0000
0100
0000
1001
0100
0000
0001
,
0100
0000
0010
0000
1000
0000
0001
0000
0010
0001
1000
0000
0001
0000
0000
0010
,
0000
1000
0000
0000
0001
0000
0000
1000
0000
0100
0000
0000
0001
0000
0100
0000
,
0001
1000
0100
1000
0001
0010
0001
0000
,
0110
0000
0000
0000
1001
0000
0000
0000
0110
0000
0000
0000
1001
0010
0000
0000
,
0001
1000
0100
0000
0010
0000
0100
1000
0000
0000
0001
0000
0100
0000
0000
1000
,
0000
0001
0000
0000
0100
0000
0000
0001
0000
1000
0000
0000
0100
0000
0001
0000
,
1000
0010
1000
0001
0100
0010
0110
0010
,
1000
0000
0001
0100
0000
0001
0010
0000
1000
0001
1000
0001
1000
0000
0000
0100
,
0000
0000
0001
1000
0010
0000
0000
1000
0000
0000
0001
0000
1000
0000
0000
0100
,
0000
0001
0000
0000
1000
0000
0000
0001
0000
0010
0000
0000
1000
0000
0001
0000
,
0100
0010
0001
1000
0001
1000
1100
0000
,
0011
0000
0000
0000
1100
0000
0000
0000
0011
0000
0000
0000
1000
0100
0000
0000
,
0100
0001
1000
0000
0001
0000
0000
1000
0000
0000
0100
0000
0001
0000
0000
0010
,
0000
0100
0000
0000
1000
0000
0000
0001
0000
0010
0000
0000
0100
0000
0010
0000
,
1000
0001
0010
0001
1000
0100
1001
0100
,
1000
0000
0000
0001
0000
0000
1000
0000
0000
0010
0000
0000
0001
0000
0000
0100
0000
0000
1001
0000
0000
0000
0100
0000
,
0000
0000
0001
0000
2000
0000
0000
0000
0000
0000
0000
0000
0001
3000
0000
0000
0010
0000
0200
0000
0000
0000
0000
0000
,
0010
0000
0000
0301
0000
0020
0000
0000
0000
0000
0000
0000
0030
0000
0000
1000
0001
2000
0000
0000
0000
0100
0000
0000
,
0000
0000
0001
0000
0100
0000
3000
0000
0000
0020
0000
0000
0030
0000
0100
2000
0000
0000
0000
0000
0001
0000
0000
0000
,
3001
0000
0000
0200
0000
0000
0000
0000
0000
0300
1000
0000
0000
0000
0100
0002
0000
0000
0000
0000
1000
0000
0000
0000
,
0010
0100
0010
0003
0000
0000
0000
0000
0200
0000
0000
0000
0300
0010
0000
0002
0000
0000
0000
0000
0000
0003
0000
1000
,
0000
2000
0000
0000
3000
0000
0000
0220
0000
0000
0000
0000
,
0000
0000
0330
0000
2000
0000
0000
0002
0000
0000
0000
0000
,
0000
0000
0000
0000
3003
0010
1000
0001
,
0100
0001
1000
0100
0001
1000
0001
0100
,
0001
1000
0100
0001
1000
0010
0001
1000
,
0100
0001
0100
0001
1000
0001
0010
1000
,
0001
0100
0001
0000
0100
0001
1000
0001
,
0100
0010
1000
0001
0100
0001
0010
0001
,
1000
0001
0100
1000
0001
0100
0001
1000
,
0010
0001
1000
0001
0100
0010
0001
1000
,
0001
0000
0100
0000
0001
0000
0000
0000
0100
0010
0000
0010
0100
0000
1000
0000
,
0001
0010
0000
0010
0001
0000
0100
0000
1000
0000
0001
0000
1000
0000
0001
0000
,
1000
0000
0001
0000
1000
0000
0001
0000
0010
1000
0000
1000
0010
0000
0100
0000
,
0100
0001
0000
0001
0100
0020
0000
0030
0100
0000
0010
0000
0100
0000
0010
0000
,
0100
0000
0010
0000
0100
0000
0001
0000
1000
0001
0000
0001
1000
0000
0100
0000
,
0010
0100
0000
0100
0010
0000
0100
0000
0001
0000
0010
0000
0001
0000
0010
0000
,
0001
0000
0010
0000
0001
0000
1000
0000
0100
0010
0000
0100
1000
0000
0001
0000
,
0010
0100
0000
0001
1000
0000
0100
0000
0020
0000
0000
0000
0000
0000
0000
0000
,
0000
0000
0000
0000
0000
0000
0000
0000
1030
0100
0000
0000
0001
0000
0100
0000
,
0010
0001
0000
0000
0100
0000
0001
0000
0010
0100
0000
0001
1000
0000
0100
0000
,
0001
0010
0000
0000
0001
0000
1000
0000
0010
0000
0001
0000
0100
0000
1000
0000
,
0001
0100
0001
1000
0101
0010
1000
1000
,
0010
0000
0010
0000
0100
0000
0100
0000
0010
0001
0000
0000
1000
0000
0001
0000
,
0010
0100
0000
0000
0001
0000
0100
0000
0010
0100
0000
0001
0010
0000
1000
0000
,
0001
0000
0000
0000
0000
0000
0000
0000
0000
1000
0000
0000
0000
0000
0000
0100
0000
0000
0000
0000
0000
0000
0000
0000
1000
0000
0000
0000
0000
0000
0000
0000
0001
0000
0000
0000
0000
0000
0000
0100
0000
0000
0000
0000
0000
0000
0000
0000
,
0010
0000
0000
0000
0000
0000
0000
0000
0000
0001
0000
0000
0000
0000
0000
0000
0100
0000
0000
0000
0000
0000
0000
0000
1010
0000
0000
0000
0000
0000
0100
0000
0000
0000
0000
0000
0001
0000
0000
0000
0000
0000
0010
0000
0000
0000
0000
0000
,
0001
1000
0001
1000
1001
0000
0110
0100
,
0010
0000
0000
0100
0000
0000
0001
0000
1000
0100
0000
0000
0001
0000
1000
0000
,
0010
0000
0000
0100
0000
0000
1000
0000
0001
0010
0000
0000
0100
0000
0001
0000
,
1000
0000
0000
0010
0000
0000
0100
0000
0001
0010
0000
0000
1000
0000
0001
0000
,
0010
0000
0000
0001
0000
0000
0100
0000
1000
0000
0010
0000
0001
0000
0001
1000
,
0001
0000
0100
0010
1000
0000
1000
0000
0001
0000
0001
0000
0010
0000
0100
0010
,
1000
0000
0100
0000
0010
0000
0001
0000
0100
0000
0001
0000
0100
0000
0010
0100
,
0010
0000
1000
0000
0001
0000
0100
0000
0010
0100
0010
0100
0010
0100
0010
0100
,
0010
0100
0010
0100
0010
0100
0010
0100
2002
0000
0000
0000
0000
0000
0000
0000
,
0000
0000
3003
0000
;

//---------------dance-single - ----------------
#NOTES:
     dance-single:
     :
     Challenge:
     9:
     1.000,1.000,1.000,0.253,1.000,605.000,105.000,26.000,0.000,0.000:
0110
0000
1000
0000
1001
0000
0100
0000
1100
0001
0010
0000
0011
0000
1100
0000
,
0101
0000
1000
0000
0110
0000
1000
0000
0101
0010
1000
0000
0010
0000
0001
0000
,
0110
1010
0101
0110
1010
1001
0110
1001
,
1000
0000
0001
0000
1000
0000
0001
0000
1000
0000
0001
0000
1000
0000
0001
0000
1000
0001
1000
0001
1000
0001
1000
0001
1100
0000
0000
0000
0000
0000
0000
0000
,
0011
0000
1000
0100
1000
0000
0001
0100
0000
1000
0010
0000
0010
0100
0010
0000
,
1000
0000
0001
0000
1000
0000
0010
0100
0000
0001
0010
0000
1000
0100
1000
0000
,
0001
0000
0100
0000
0010
0000
1000
0100
0000
0100
1000
0000
0001
0010
0001
0000
,
1000
0000
0001
0000
0100
0000
0100
0010
0000
0010
0100
0000
1000
0001
1000
0000
,
0010
0000
0001
0000
0100
0000
1000
0100
0000
0100
1000
0000
0100
0010
0100
0000
,
0001
0000
0100
0000
0010
0000
0001
0100
0000
0100
0001
0000
0010
0000
1000
0000
,
0100
0001
0010
0100
0001
1000
0110
1100
,
0000
0000
0110
0000
0000
0000
1100
0000
0011
0000
0110
0000
1001
0000
0010
0100
,
0000
0001
1000
0000
0010
0000
1000
0100
0000
0010
1000
0000
0100
0000
1000
0001
,
0000
0100
0010
0000
1000
0000
0010
0100
0000
0001
1000
0000
1100
0000
0100
0011
,
1000
0000
0110
0000
1100
0000
1000
0101
0010
0000
0110
0000
1001
0000
0110
0100
,
0010
0000
1000
0010
1000
0000
0100
0010
0100
0000
1000
0000
0110
0000
1000
0001
,
0000
0000
0010
1000
0001
0000
0010
0100
0000
1000
0010
0000
1000
0000
0100
0001
,
0000
0100
0001
0000
1000
0000
0100
0001
0000
0100
0010
0000
1100
0000
0100
0011
,
1000
0000
0110
0000
1010
0000
0010
0101
1000
0000
1010
0000
1001
0000
0100
0000
,
0001
0000
0100
0010
0000
1000
0100
0000
1000
0001
1000
0001
1100
0000
0010
0100
,
0000
1000
0001
0000
1000
0000
0100
0001
0000
1000
0100
0000
0010
0000
0100
1000
,
0000
0001
1000
0000
0100
0000
0001
0010
0000
1000
0010
0000
0110
0000
0001
1100
,
0100
0000
0011
0000
0110
0000
1000
1001
0000
0000
0011
0000
0110
0000
0100
0010
,
1000
0000
0100
0001
0100
0000
0010
1000
0010
0000
1000
0000
0001
0000
1000
0100
,
0000
0010
0001
0000
1000
0000
0100
0001
0000
0010
0100
0000
0010
0000
0100
1000
,
0000
0001
0010
0000
0100
0000
1000
0010
0000
1000
0001
0000
0001
0000
0000
0110
,
0000
1010
0000
0000
0011
0000
0000
1100
0000
0110
0000
0000
1001
0000
0100
0000
,
1000
0000
0000
0001
0000
0000
1000
0000
0000
0000
0000
0000
0010
0000
0000
0100
0000
0000
0010
0000
0000
0001
0000
0000
0010
0000
0000
0001
0000
0000
1000
0000
0000
0100
0000
0000
2200
0000
0000
0000
0000
0000
3300
0000
0010
0000
0000
0000
,
0000
0000
0100
0000
0000
0000
0001
0000
0000
0000
0000
0000
0220
0000
0000
0000
0000
0000
0000
0000
0000
0330
0000
0000
1000
0000
0000
0000
0000
0000
0000
0000
0010
0000
0000
0000
2002
0000
0000
0000
0000
0000
3003
0000
0010
0000
0000
0000
,
0100
0000
0000
0000
1000
0000
0220
0000
0000
0330
0000
0010
0000
0000
0000
1000
0100
2000
0000
0000
0000
0000
0000
0010
,
0000
0000
3000
0100
0000
0001
0000
0000
0000
0000
0000
0200
0000
0000
0301
0000
0100
0002
0000
1000
0000
0000
0100
0000
,
0000
0000
0103
0000
0000
0000
0000
0000
0010
0001
2000
0000
0000
0000
0000
0000
0000
0000
0000
0000
0100
0000
0000
0000
3000
0000
0000
0000
0000
0000
0000
0000
0102
0000
0000
0000
0000
0000
0000
0000
0100
0000
0000
0000
0000
0000
1000
0000
,
0000
0103
0000
0010
0000
0000
0000
0000
0000
0200
0000
0000
0300
0001
0000
0020
0000
0000
0000
1000
0000
0030
0000
0000
,
0000
0100
2000
0000
0000
0000
0000
0000
3100
0000
0000
0000
0010
0000
0000
0002
0000
0000
0000
0000
0000
1003
0000
0000
,
0000
0001
0000
0000
0100
0000
0000
0000
0000
0000
0000
0000
0000
0000
0000
0000
2000
0000
0000
0000
0000
0000
0000
0000
0000
0000
0002
0000
0000
0000
0000
0000
0000
0000
0000
0000
0000
0000
0000
0000
0000
0000
0000
0000
0000
0000
0000
0000
,
0000
0000
0000
0000
3003
0000
0000
0000
1000
0100
0001
0000
0100
1000
0001
0000
,
1000
0010
0001
0000
0100
1000
0010
0000
0001
0100
1000
0000
1000
0100
1000
0000
,
0001
0010
0001
0000
0100
0010
0100
0000
1000
0001
1000
0000
0100
0010
0100
0000
,
0001
1000
0001
0000
0100
0010
0100
0000
0001
0010
0001
0000
1000
0100
1000
0000
,
0100
0010
0100
0000
0001
0010
0001
1000
0100
0010
0100
0000
1000
0100
1000
0000
,
0001
0010
0001
0000
0100
0010
0100
0000
1000
0001
1000
0000
1000
0010
1000
0000
,
0001
0100
0001
0000
1000
0001
1000
0000
0200
0000
0001
0000
0010
0000
0001
0000
,
0010
0301
0002
0000
2000
0000
0000
0000
,
0000
0000
0000
0000
0000
0000
0000
0000
3003
0100
0010
0000
0100
0001
0000
0100
,
0000
0010
0100
0000
1000
0100
0000
0001
1000
0100
0001
0000
1000
0100
0001
0000
,
1000
0100
0001
0000
1000
0000
0100
0000
0010
0001
0000
1000
0100
0000
0010
0000
,
0001
0100
0000
0010
1000
0000
0010
0000
0001
0010
0100
0000
0001
0010
0100
0000
,
0001
0010
0100
0000
0001
0000
1000
0000
0100
0010
0000
0010
0100
0000
1000
0000
,
0001
0100
0000
0100
0001
0000
1000
0000
0010
0001
1000
0000
0010
0001
1000
0000
,
0010
0001
1000
0000
0010
0000
0001
0000
0010
1000
0000
1000
0010
0000
0001
0000
,
0100
0001
0000
0001
0100
0000
0010
0000
2002
0000
0000
0000
0000
0000
0000
0000
,
0000
0000
0000
0000
0000
0000
0000
0000
3003
0010
0000
1000
0000
0100
0000
0000
,
0000
1000
0000
0001
1000
0000
0001
0000
0100
0000
0000
1000
0000
0100
0000
0000
,
1000
0000
0000
0000
0000
0000
0000
0100
0000
0000
0001
0000
0000
0000
0000
0000
1100
0000
0000
0000
0000
0000
0110
0000
0000
0000
0000
0000
0011
0000
0000
0000
,
1010
0000
0000
0000
0000
0000
0110
0000
0000
0000
0000
0000
1100
0000
0000
0000
0101
0000
0000
0000
1000
0000
0000
0000
0000
0000
0000
0000
0010
0000
0000
0001
,
0000
0100
0000
0000
1000
0000
0000
0000
0001
0000
1000
0000
0001
0000
1000
0000
0001
0000
0000
0000
0000
0000
1000
0000
0000
0000
0001
0000
0000
0000
0000
0000
,
0010
0000
0000
0000
0000
0000
0100
0000
0000
0000
0000
0000
0001
0000
0000
0000
0000
0000
1000
0000
0000
0000
0000
0001
0000
0000
0010
0000
0000
0000
0000
0000
,
1000
0000
0000
0001
0000
0100
0000
0000
1100
0000
0000
0011
0000
1010
0000
0000
,
0110
0000
0000
1001
0000
0110
0000
0000
1001
0000
0100
0000
0001
0000
0100
0000
,
0001
0100
0001
0100
0001
0100
0001
0100
0001
0000
0000
0100
0000
0000
0010
0000
,
1000
0000
0000
0001
0000
0000
0100
0000
0001
0100
0000
0000
1000
0000
0101
0000
,
0110
0000
0000
1010
0000
0000
1010
0000
0101
0010
0000
0000
1000
0000
0001
0000
,
0010
0000
0000
0100
0000
0000
0001
0000
1000
0100
0000
0010
0000
0000
1100
0000
,
0011
0000
0000
0110
0000
0000
0011
0000
1010
0100
0000
0000
1001
0000
0100
0000
,
0001
0000
0000
0010
0000
0000
1000
0000
0100
0001
0000
0000
1000
0000
1010
0000
,
0101
0000
0000
0110
0000
0000
1010
0000
1001
0000
0110
0000
0101
0000
1010
0000
,
0101
0000
0110
0000
1001
0000
0110
0000
0011
0100
1010
0100
0010
0100
0011
0100
,
0010
0100
0011
0100
1010
0100
0011
0100
2002
0000
0000
0000
0000
0000
0000
0000
,
0000
0000
3003
0000
;

//---------------dance-single - ----------------
#NOTES:
     dance-single:
     :
     Medium:
     5:
     0.562,0.599,0.359,0.233,0.083,344.000,37.000,24.000,0.000,0.000:
0010
1000
0001
0100
,
0001
1000
0001
0100
,
1000
0100
0001
0100
1000
0010
0001
0010
,
2002
0000
0000
3003
,
1000
0000
0000
0000
0001
0000
0000
0100
0000
0000
0010
0000
1000
0000
0000
0000
,
0001
0000
0100
0000
0010
0000
0000
0001
0000
0000
1000
0000
0100
0000
0000
0000
,
0001
0000
1000
0000
0100
0000
0000
1000
0000
0000
0010
0000
0001
0000
0000
0000
,
0100
0000
0010
0000
0001
0000
0000
1000
0000
0000
0001
0000
1000
0000
0100
0000
,
0001
0100
0010
0001
1000
0100
1000
0001
,
1000
0001
0100
0010
0100
0010
1001
0000
,
1100
0000
1001
0000
0011
0000
0100
0010
,
0001
1000
0001
0100
0010
1000
1001
0000
,
0010
0100
0001
0000
1000
0100
0001
0000
,
1000
0001
0100
0000
1000
0001
0100
0010
,
0100
0001
0010
0001
1000
0001
0110
0000
,
1001
0110
1001
1000
,
0001
0100
0001
0000
1000
0010
1000
0000
,
0100
0010
0100
0000
1000
0100
1000
0100
,
0010
0001
0010
0001
1000
0001
1100
0000
,
0101
0110
1001
1000
,
0100
0001
1000
0000
0100
0001
0010
0000
,
1000
0001
1000
0000
0100
0010
0100
1000
,
0001
0010
0001
1000
0100
0000
1100
0000
,
0011
1100
0011
1000
,
0100
0010
0100
0000
0001
0010
0001
0000
,
1000
0100
1000
0000
0100
0010
0100
0010
,
0001
1000
0001
1000
0010
0001
0110
0000
,
1001
0110
1001
2000
,
3000
0200
0300
0002
,
0003
0000
0000
0000
0000
0000
2000
0000
0000
0000
0000
0000
3000
0000
0100
0010
0100
0000
0000
0000
0000
0000
0000
0000
,
0000
0000
0000
0000
0000
0000
0000
0000
0000
0002
0000
0000
0000
0003
0000
2000
0000
0000
0000
0000
0000
3000
0000
0000
,
0000
0000
0000
0200
0000
0000
0000
0000
0300
0000
0000
0000
0000
0000
0000
0020
0000
0000
0000
0000
0000
0000
0000
0000
,
0030
0000
0000
0000
0000
0000
0000
0000
0000
0002
0000
0000
0003
0000
0000
2000
0000
0000
0000
0000
3000
0000
0000
0000
,
0000
0200
0000
0300
0000
0002
0000
0003
,
0000
0000
0000
0000
2000
0000
0000
0002
0000
0000
0000
0000
,
0000
0000
0000
0000
3003
0100
0010
0100
,
1000
0001
1000
0001
0010
1000
0010
1000
,
0001
0100
0001
0100
1000
0001
1000
0001
,
0100
0010
0100
0010
1000
0001
1000
0001
,
0100
0010
0100
0010
1000
0000
0001
0000
,
0100
0001
1000
0001
,
0100
0010
2200
0000
,
0000
3300
2000
0000
0002
0000
0000
0000
,
0000
0000
0000
0000
3003
0000
0000
0000
1000
0000
0000
0001
0000
0000
0100
0000
,
0010
0000
0000
1000
0000
0000
0001
0000
0100
0000
0000
0000
0010
0000
0000
0000
,
0001
0000
0000
0000
1000
0000
0000
0000
0100
0000
0000
0010
0000
0000
1000
0000
,
0100
0000
0000
0001
0000
0000
1000
0000
0100
0000
0000
0000
0001
0000
0000
0000
,
0010
0000
0000
0000
1000
0000
0000
0000
0100
0000
0000
0010
0000
0000
0001
0000
,
1000
0000
0000
0100
0000
0000
0001
0000
0010
0000
0000
0000
0100
0000
0000
0000
,
0010
0000
0000
0000
0001
0000
0000
0000
1000
0000
0000
0001
0000
0000
0100
0000
,
0010
0000
0000
0001
0000
0000
1000
0000
2002
0000
0000
0000
0000
0000
0000
0000
,
0000
0000
0000
0000
0000
0000
0000
0000
3003
0000
0000
0100
0000
0000
1000
0000
,
0100
0000
0001
1000
0001
0000
0100
0010
,
0100
0000
1000
0100
1000
0001
0100
0010
,
0100
1000
0100
1000
1001
0000
0110
0000
,
1001
0000
0110
0000
1000
0000
0100
0001
,
0100
0000
1000
0100
1000
0000
0100
0001
,
0100
0000
0010
0100
0010
1000
1000
0001
,
0001
0010
0010
1000
1000
0001
0100
1000
,
0010
1000
0001
1000
1001
0000
0110
0000
,
0000
0000
0000
0000
0000
0000
0000
1000
,
0001
0000
0100
0010
1001
0000
0110
0000
,
0000
0000
0000
0000
0000
0000
0000
0100
,
0010
0000
1000
0010
1010
0000
1001
0000
,
0000
0000
0000
0000
0000
0000
0000
0010
,
0001
0000
0100
1000
0011
0100
1100
0001
,
1000
0001
0100
0010
1000
0100
0001
0100
,
1000
0010
0001
0010
2002
0000
0000
0000
,
0000
0000
3003
0000
;

//---------------dance-single - ----------------
#NOTES:
     dance-single:
     :
     Easy:
     3:
     0.275,0.366,0.146,0.175,0.000,165.000,15.000,18.000,0.000,0.000:
1000
0000
0001
0000
,
0100
0000
0010
0000
,
1000
0001
0100
0010
,
2002
0000
0000
3003
,
0100
0000
0010
0100
0010
0000
0001
0000
,
1000
0000
0100
0001
0100
0000
0010
0000
,
1000
0000
0001
0010
0001
0000
1000
0000
,
0100
0000
1000
0001
1000
0000
0010
0000
,
0100
0000
1000
0010
1000
0000
0100
0000
,
0001
0000
0100
0010
0100
0000
1000
0000
,
0000
0001
0000
0010
,
0001
1000
0100
1001
,
0000
1000
0000
0100
,
0000
1000
0000
0100
,
0100
0001
1000
0001
,
0010
0001
0010
1000
,
0000
0001
0000
0100
,
0000
1000
0000
0100
,
0010
1000
0100
0001
,
1000
0100
0010
0001
,
0000
0100
0000
1000
,
0000
0010
0000
1000
,
0001
0010
1000
1001
,
0000
0110
0000
1000
,
0000
0100
0000
1000
,
0000
0001
0000
0010
,
1000
0001
0100
1010
,
0000
0000
0000
0200
,
0000
0000
0000
0302
,
0000
0000
0000
2003
,
0000
0000
0000
0000
,
0000
0000
0000
0000
0000
3200
0000
0000
,
0000
0000
0000
0000
0000
0302
0000
0000
,
0000
0000
0000
0000
0000
0203
0000
0000
,
0000
0000
0020
0000
,
0000
0000
0330
1000
,
0001
1000
0010
1000
,
0001
0100
0010
0001
,
0100
1000
0001
0100
,
0010
1000
0001
0000
,
0100
0000
1000
0000
,
0010
0000
0002
0000
,
0000
0003
0200
0000
0020
0000
0000
0000
,
0000
0000
0330
0000
,
0100
0000
0100
0010
,
0100
0010
1000
0000
,
0010
0000
1000
0001
,
1000
0001
0100
0000
,
1000
0000
0100
0001
,
0100
0001
1000
0000
,
0010
0000
2002
0000
,
0000
0000
3003
0000
,
0100
0000
0001
0000
,
1000
0000
0100
0001
,
0100
0001
0100
0000
,
0000
0000
0010
0000
,
1000
0000
0001
0000
,
0100
0000
1000
0010
,
1000
0010
1000
0000
,
0000
0000
1001
0000
,
0000
0000
0000
0000
,
0110
0000
1010
0000
,
0000
0000
0000
0000
,
0101
0000
1001
0000
,
0000
0000
0000
0000
,
0110
0000
1100
0100
,
0001
1000
2002
0000
,
0000
0000
0000
3003
2002
0000
0000
0000
,
0000
0000
3003
0000
;
