#TITLE:Snowman;
#SUBTITLE:;
#ARTIST:Brookes Brothers;
#TITLETRANSLIT:;
#SUBTITLETRANSLIT:;
#ARTISTTRANSLIT:;
#CREDIT:Fraxtil;
#BANNER:../Zeppelin_bn.png;
#BACKGROUND:../bg_Zeppelin.png;
#LYRICSPATH:;
#CDTITLE:../cdtitle_ZAiA.png;
#MUSIC:Brookes Brothers - Snowman.ogg;
#OFFSET:0.009;
#SAMPLESTART:89.649;
#SAMPLELENGTH:22.273;
#SELECTABLE:YES;
#BPMS:0.000=174.000;
#STOPS:;
#BGCHANGES:;
// cache tags:
#FIRSTBEAT:4.000;
#LASTBEAT:860.000;
#SONGFILENAME:Songs/Cirque du Zeppelin/Snowman - [Zaia]/Snowman.sm;
#HASMUSIC:1;
#HASBANNER:1;
#MUSICLENGTH:299.310;
// end cache tags

//---------------dance-single - 16-16/68/68----------------
#NOTES:
     dance-single:
     16-16/68/68:
     Challenge:
     16:
     1.000,1.000,0.000,0.127,1.000,2917.000,0.000,38.000,0.000,0.000:
0000
0000
0000
0000
,
1000
0010
0100
0001
1000
0001
0010
0001
1000
0100
1000
0001
0100
0010
1000
0100
,
1000
0001
0100
0010
1000
0001
0010
0001
1000
0100
1000
0001
0100
0010
1000
0100
,
1000
0001
0100
0010
1000
0001
0010
0001
1000
0100
1000
0001
0100
0010
1000
0100
,
1000
0001
0100
0010
1000
0001
0010
0001
1000
0100
1000
0001
0100
0010
1000
0001
,
1000
0100
0010
0001
1000
0001
0100
0001
1000
0010
1000
0001
0010
0100
1000
0010
,
1000
0001
0010
0100
1000
0001
0100
0001
1000
0010
1000
0001
0010
0100
1000
0010
,
1000
0001
1000
0100
0010
0001
1000
0010
1000
0001
0100
0001
1000
0100
0010
0001
,
0100
0001
1000
0010
0100
0001
1000
0100
1000
0001
0010
0001
1000
0010
0100
0001
,
1000
0100
0010
0001
1000
0001
0100
0001
1000
0010
1000
0001
0010
0100
1000
0010
,
1000
0001
0010
0100
1000
0001
0100
0001
1000
0010
1000
0001
0010
0100
1000
0010
,
1000
0001
0010
0100
1000
0001
0100
0001
1000
0010
1000
0001
0010
0100
1000
0010
,
1000
0001
0010
0100
1000
0001
0100
0001
1000
0010
1000
0001
0010
0100
1000
0001
,
1000
0010
0100
0001
1000
0001
0010
0001
1000
0100
1000
0001
0100
0010
1000
0100
,
1000
0001
0100
0010
1000
0001
0010
0001
1000
0100
1000
0001
0100
0010
1000
0100
,
1000
0001
1000
0010
0100
0001
1000
0100
1000
0001
0010
0001
1000
0010
0100
0001
,
0010
0001
1000
0100
0010
0001
1000
0010
1000
0001
0100
0001
2000
0000
0000
0000
,
3001
0010
0100
1000
0001
1000
0010
1000
0001
0100
0001
1000
0100
0010
0001
0100
,
0001
1000
0100
0010
0001
1000
0010
1000
0001
0100
0001
1000
0100
0010
0001
0100
,
0001
1000
0100
0010
0001
1000
0010
1000
0001
0100
0001
1000
0100
0010
0001
0100
,
0001
1000
0100
0010
0001
1000
0010
1000
0001
0100
0001
1000
0100
0010
0001
1000
,
0001
0100
0010
1000
0001
1000
0100
1000
0001
0010
0001
1000
0010
0100
0001
0010
,
0001
1000
0010
0100
0001
1000
0100
1000
0001
0010
0001
1000
0010
0100
0001
0010
,
0001
1000
0001
0100
0010
1000
0001
0010
0001
1000
0100
1000
0001
0100
0010
1000
,
0100
1000
0001
0010
0100
1000
0001
0100
0001
1000
0010
1000
0001
0010
0100
1000
,
0001
0100
0010
1000
0001
1000
0100
1000
0001
0010
0001
1000
0010
0100
0001
0010
,
0001
1000
0010
0100
0001
1000
0100
1000
0001
0010
0001
1000
0010
0100
0001
0010
,
0001
1000
0010
0100
0001
1000
0100
1000
0001
0010
0001
1000
0010
0100
0001
0010
,
0001
1000
0010
0100
0001
1000
0100
1000
0001
0010
0001
1000
0010
0100
0001
1000
,
0001
0010
0100
1000
0001
1000
0010
1000
0001
0100
0001
1000
0100
0010
0001
0100
,
0001
1000
0100
0010
0001
1000
0010
1000
0001
0100
0001
1000
0100
0010
0001
0100
,
0001
1000
0001
0010
0100
1000
0001
0100
0001
1000
0010
1000
0001
0010
0100
1000
,
0010
1000
0001
0100
0010
1000
0001
0010
0001
1000
0100
1000
0002
0000
0000
0000
,
0103
0000
0000
0000
0010
0000
0000
1000
0000
0000
0001
0000
0000
0010
0000
0000
,
0100
0000
0000
0000
1000
0000
0000
0001
0000
0000
0100
0000
0000
0010
0000
0000
,
1000
0000
0000
0000
0100
0000
0000
0010
0000
0000
0100
0000
0000
1000
0000
0000
,
0001
0000
0000
0000
0100
0000
0000
0010
0000
0000
0100
0000
0000
0001
0000
0000
,
1000
0000
0000
0000
0100
0000
0000
1000
0000
0000
0001
0000
0000
0100
0000
0000
,
0010
0000
0000
0000
1000
0000
0000
0100
0000
0000
1000
0000
0000
0010
0000
0000
,
0100
0000
0000
0000
0001
0000
0000
1000
0000
0000
0001
0000
0000
0010
0000
0000
,
0001
0000
0000
0000
0100
0000
0000
0001
0000
0000
0010
0000
0000
0100
0000
0000
,
1000
0000
0000
0000
0010
0000
0000
1000
0000
0000
0001
0000
0000
0100
0000
0000
,
0010
0000
0000
0000
1000
0000
0000
0001
0000
0000
0010
0000
0000
0100
0000
0000
,
1000
0000
0000
0000
0010
0000
0000
0100
0000
0000
0010
0000
0000
1000
0000
0000
,
0001
0000
0000
0000
0010
0000
0000
0100
0000
0000
0010
0000
0000
0001
0000
0000
,
1000
0000
0000
0000
0010
0000
0000
1000
0000
0000
0001
0000
0000
0010
0000
0000
,
0100
0000
0000
0000
1000
0000
0000
0010
0000
0000
1000
0000
0000
0100
0000
0000
,
0010
0000
0000
0000
0001
0000
0000
1000
0000
0000
0001
0000
0000
0100
0000
0000
,
0001
0000
0000
0000
0010
0000
0000
0001
0000
0000
0100
0000
0000
0010
0000
0000
,
1000
0001
0100
0001
1000
0100
1000
0010
,
1000
0001
0010
0100
1000
0001
0100
0001
,
0010
0100
1000
0001
1000
0010
1000
0001
,
0100
0001
0010
0100
1000
0001
1000
0010
,
1000
0001
0010
0001
0100
0001
1000
0100
,
0010
0100
1000
0010
0100
0001
0010
0001
,
1000
0010
0100
0001
1000
0100
1000
0010
,
1000
0001
0010
0001
0100
0001
1000
0010
,
1000
0001
0010
0001
1000
0010
1000
0100
,
1000
0001
0100
0010
1000
0001
0010
0001
,
0100
0010
1000
0001
1000
0100
1000
0001
,
0010
0001
0100
0010
1000
0001
1000
0100
,
1000
0001
0100
0010
1000
0100
1000
0100
0010
0001
1000
0010
1000
0010
0100
0001
,
1000
0100
0010
0100
0010
0001
1000
0010
0100
0001
0100
0001
1000
0001
0010
0100
,
1000
0001
1000
0001
0100
0010
1000
0001
0010
0100
0010
0100
1000
0001
1000
0100
,
0010
0001
0010
0001
1000
0010
0100
0010
1000
0001
1000
0001
0010
0100
1000
0001
,
1000
0010
0100
0001
1000
0100
1000
0001
0010
0001
0100
0001
1000
0010
0100
0001
,
1000
0100
1000
0001
1000
0010
0100
0001
0010
0001
1000
0001
0010
0100
0010
0001
,
1000
0001
0100
0010
1000
0001
0010
0001
1000
0100
1000
0010
1000
0001
0100
0010
,
1000
0001
0010
0001
1000
0001
0100
0010
1000
0100
1000
0001
1000
0100
0010
0100
,
1000
0001
0010
0001
1000
0010
1000
0001
0100
0001
0010
0001
1000
0100
0010
0001
,
1000
0010
1000
0001
1000
0100
0010
0001
0100
0001
1000
0001
0100
0010
0100
0001
,
1000
0001
0010
0100
1000
0001
0100
0001
1000
0010
1000
0100
1000
0001
0010
0100
,
1000
0001
0100
0001
1000
0001
0010
0100
1000
0010
1000
0001
1000
0001
0010
0001
,
1000
0100
0010
0001
1000
0010
1000
0001
0100
0001
0010
0001
1000
0100
0010
0001
,
1000
0010
1000
0001
1000
0100
0010
0001
0100
0001
1000
0001
0100
0010
0100
0001
,
1000
0001
0010
0100
1000
0001
0100
0001
1000
0010
1000
0100
1000
0001
0010
0100
,
1000
0001
0100
0001
1000
0001
0010
0100
1000
0010
1000
0001
1000
0010
0100
0010
,
1000
0001
0100
0001
1000
0100
1000
0001
0010
0001
0100
0001
1000
0010
0100
0001
,
1000
0100
1000
0001
1000
0010
0100
0001
0010
0001
1000
0001
0010
0100
0010
0001
,
1000
0001
0100
0010
1000
0001
0010
0001
1000
0100
1000
0010
1000
0001
0100
0010
,
1000
0001
0010
0001
1000
0001
0100
0010
1000
0100
1000
0001
1000
0010
0100
0001
,
1000
0100
0010
0001
0100
0010
0100
0001
1000
0010
1000
0100
1000
0001
0010
0001
,
1000
0010
0100
0001
1000
0100
0010
0001
1000
0100
1000
0010
1000
0001
0100
0001
,
1000
0001
0010
0100
1000
0010
0100
0010
1000
0001
0100
0001
0010
0001
1000
0100
,
1000
0001
0100
0010
1000
0001
0010
0100
1000
0001
0010
0001
0100
0001
1000
0010
,
1000
0100
0010
0001
0100
0010
0100
0001
1000
0010
1000
0100
1000
0001
0010
0001
,
1000
0010
0100
0001
1000
0100
0010
0001
1000
0100
1000
0010
1000
0001
0100
0001
,
1000
0001
0010
0100
1000
0010
0100
0010
1000
0001
0100
0001
0010
0001
1000
0100
,
1000
0001
0100
0010
1000
0001
0010
0100
1000
0001
0010
0001
0100
0001
1000
0001
,
1000
0010
0100
0001
0010
0100
0010
0001
1000
0100
1000
0010
1000
0001
0100
0001
,
1000
0100
0010
0001
1000
0010
0100
0001
1000
0010
1000
0100
1000
0001
0010
0001
,
1000
0001
0100
0010
1000
0100
0010
0100
1000
0001
0010
0001
0100
0001
1000
0010
,
1000
0001
0010
0100
1000
0001
0100
0010
1000
0001
0100
0001
0010
0001
1000
0100
,
1000
0010
0100
0001
0010
0100
0010
0001
1000
0100
1000
0010
1000
0001
0100
0001
,
1000
0100
0010
0001
1000
0010
0100
0001
1000
0010
1000
0100
1000
0001
0010
0001
,
1000
0001
0100
0010
1000
0100
0010
0100
1000
0001
0010
0001
0100
0001
1000
0010
,
1000
0001
0010
0100
1000
0001
0100
0010
1000
0001
0100
0001
0010
0001
1000
0100
,
1000
0001
0100
0010
1000
0100
0010
0001
1000
0001
0100
0001
1000
0001
0010
0100
,
1000
0010
1000
0001
0100
0010
1000
0001
0010
0001
1000
0001
0100
0001
1000
0100
,
0010
0100
1000
0001
0100
0001
0010
0100
1000
0001
0100
0010
0100
0001
0100
0010
,
1000
0100
1000
0001
0010
0100
1000
0001
0100
0010
1000
0010
0100
0010
1000
0001
,
0100
0001
1000
0100
0010
0001
0100
0010
1000
0001
1000
0100
1000
0001
1000
0010
,
0100
0001
0010
0001
1000
0100
0010
0001
1000
0010
1000
0001
1000
0100
1000
0001
,
0100
0010
0100
0001
1000
0100
1000
0010
0100
0001
1000
0100
0010
0100
1000
0100
,
0010
0001
0100
0001
1000
0010
0100
0001
1000
0100
0010
0001
0010
0100
0010
0001
,
1000
0001
1000
0100
1000
0010
0100
0001
1000
0001
0010
0001
1000
0001
0100
0010
,
1000
0100
1000
0001
0010
0100
1000
0001
0100
0001
1000
0001
0010
0001
1000
0010
,
0100
0010
1000
0001
0010
0001
0100
0010
1000
0001
0010
0100
0010
0001
0010
0100
,
1000
0010
1000
0001
0100
0010
1000
0001
0010
0100
1000
0100
0010
0100
1000
0001
,
0010
0001
1000
0010
0100
0001
0010
0100
1000
0001
1000
0010
1000
0001
1000
0100
,
0010
0001
0100
0001
1000
0010
0100
0001
1000
0100
1000
0001
1000
0010
1000
0001
,
0010
0100
0010
0001
1000
0010
1000
0100
0010
0001
1000
0010
0100
0010
1000
0010
,
0100
0001
0010
0001
1000
0100
0010
0001
1000
0010
0100
0001
0100
0010
1000
0001
,
1000
0001
0100
0010
1000
0100
0010
0100
1000
0001
0010
0001
0100
0001
1000
0010
,
1000
0001
0010
0100
1000
0001
0100
0010
1000
0001
0100
0001
0010
0001
1000
0100
,
1000
0001
1000
0010
0100
0001
0010
0100
0010
0001
1000
0100
1000
0010
1000
0001
,
0100
0001
1000
0100
0010
0001
1000
0010
0100
0001
1000
0010
1000
0100
1000
0001
,
0010
0001
0100
0010
1000
0100
0010
0100
1000
0001
0010
0001
0100
0001
1000
0010
,
1000
0001
0010
0100
1000
0001
0100
0010
1000
0001
0100
0001
0010
0001
1000
0100
,
1000
0001
1000
0010
0100
0001
0010
0100
0010
0001
1000
0100
1000
0010
1000
0001
,
0100
0001
1000
0100
0010
0001
1000
0010
0100
0001
1000
0010
1000
0100
1000
0001
,
1000
0001
0010
0100
1000
0010
0100
0010
1000
0001
0100
0001
0010
0001
1000
0100
,
1000
0001
0100
0010
1000
0001
0010
0100
1000
0001
0010
0001
0100
0001
1000
0010
,
1000
0001
1000
0100
0010
0001
0100
0010
0100
0001
1000
0010
1000
0100
1000
0001
,
0010
0001
1000
0010
0100
0001
1000
0100
0010
0001
1000
0100
1000
0010
1000
0001
,
0100
0001
0010
0100
1000
0010
0100
0010
1000
0001
0100
0001
0010
0001
1000
0100
,
1000
0001
0100
0010
1000
0001
0010
0100
1000
0001
0010
0001
0100
0001
1000
0010
,
1000
0001
1000
0100
0010
0001
0100
0010
0100
0001
1000
0010
1000
0100
1000
0001
,
0010
0000
0000
0001
0000
0000
1000
0000
0000
0010
0000
0000
0100
0000
0000
0001
0000
0000
1000
0000
0000
0100
0000
0000
0010
0000
0000
0001
0000
0000
1000
0000
0000
0100
0000
0000
1000
0000
0000
0000
0001
0000
0000
0000
1000
0000
0000
0000
,
0100
0010
0001
1000
0001
0100
0001
1000
0010
1000
0001
1000
,
0100
0010
0100
1000
0001
1000
0010
0000
0000
0000
0000
0000
,
0000
0000
0000
0000
,
0000
0000
0000
0000
,
0000
0000
0000
0000
,
0000
0000
0000
0000
,
0000
0000
0000
0000
,
0000
0000
0000
0000
,
1000
0000
0000
0000
0010
0000
0000
1000
0000
0000
0001
0000
0000
0010
0000
0000
,
0200
0300
0000
0000
0000
0000
0000
0000
0000
0000
0000
0000
0000
0000
0000
0000
2000
3000
0000
0000
0000
0000
0000
0000
0000
0000
0000
0000
0002
0003
0000
0000
0000
0000
0000
0000
0000
0000
0000
0000
0200
0300
0000
0000
0000
0000
0000
0000
0000
0000
0000
0000
0020
0030
0000
0000
0000
0000
0000
0000
0000
0000
0000
0000
,
2000
3000
0000
0000
0000
0000
0000
0000
0000
0000
0000
0000
0200
0300
0000
0000
0000
0000
0000
0000
0000
0020
0030
0000
0000
0000
0000
0000
0000
0000
0200
0300
0000
0000
0000
0000
0000
0000
0000
2000
3000
0000
0000
0000
0000
0000
0000
0000
,
0002
0003
0000
0000
0000
0000
0000
0000
0200
0300
0000
0000
0000
0000
0020
0030
0000
0000
0000
0000
0200
0300
0000
0000
0000
0000
0002
0003
0000
0000
0000
0000
,
2000
0000
3000
0000
0000
0000
0000
0000
0000
0000
0000
0000
0200
0000
0300
0000
0000
0000
0000
0000
0000
2000
0000
3000
0000
0000
0000
0000
0000
0000
0002
0000
0003
0000
0000
0000
0000
0000
0000
0200
0000
0300
0000
0000
0000
0000
0000
0000
,
0020
0030
0000
0000
2000
3000
0000
0200
0300
0000
2000
3000
0000
0020
0030
0000
,
0200
0000
0000
0000
0300
0000
0000
0000
0000
0000
0000
0000
0002
0000
0000
0000
0000
0000
0003
0000
0000
2000
0000
0000
0000
0000
0000
3000
0000
0000
0002
0000
0000
0000
0000
0000
0003
0000
0000
0020
0000
0000
0000
0000
0000
0000
0000
0000
,
0032
0000
0000
0003
0200
0000
0000
0002
0300
0000
0020
0003
0000
0200
0030
0000
,
1300
0001
0010
0100
1000
0010
1000
0010
0100
0001
1000
0100
1000
0100
0010
0001
,
1000
0010
0100
0010
0100
0001
1000
0100
0010
0001
0010
0001
1000
0001
0100
0010
,
1000
0001
1000
0001
0010
0100
1000
0001
0100
0010
0100
0010
1000
0001
1000
0010
,
0100
0001
0100
0001
1000
0100
0010
0100
1000
0001
1000
0001
0100
0010
1000
0001
,
1000
0100
0010
0001
1000
0010
1000
0001
0100
0001
0010
0001
1000
0100
0010
0001
,
1000
0010
1000
0001
1000
0100
0010
0001
0100
0001
1000
0001
0100
0010
0100
0001
,
1000
0001
0010
0100
1000
0001
0100
0001
1000
0010
1000
0100
1000
0001
0010
0100
,
1000
0001
0100
0001
1000
0001
0010
0100
1000
0010
1000
0001
1000
0010
0100
0010
,
1000
0001
0100
0001
1000
0100
1000
0001
0010
0001
0100
0001
1000
0010
0100
0001
,
1000
0100
1000
0001
1000
0010
0100
0001
0010
0001
1000
0001
0010
0100
0010
0001
,
1000
0001
0100
0010
1000
0001
0010
0001
1000
0100
1000
0010
1000
0001
0100
0010
,
1000
0001
0010
0001
1000
0001
0100
0010
1000
0100
1000
0001
1000
0001
0100
0001
,
1000
0010
0100
0001
1000
0100
1000
0001
0010
0001
0100
0001
1000
0010
0100
0001
,
1000
0100
1000
0001
1000
0010
0100
0001
0010
0001
1000
0001
0010
0100
0010
0001
,
1000
0001
0100
0010
1000
0001
0010
0001
1000
0100
1000
0010
1000
0001
0100
0010
,
1000
0001
0010
0001
1000
0001
0100
0010
1000
0100
1000
0001
1000
0100
0010
0100
,
1000
0001
0010
0001
1000
0010
1000
0001
0100
0001
0010
0001
1000
0100
0010
0001
,
1000
0010
1000
0001
1000
0100
0010
0001
0100
0001
1000
0001
0100
0010
0100
0001
,
1000
0001
0010
0100
1000
0001
0100
0001
1000
0010
1000
0100
1000
0001
0010
0100
,
1000
0001
0100
0001
1000
0001
0010
0100
1000
0010
1000
0001
1000
0100
0010
0001
,
1000
0010
0100
0001
0010
0100
0010
0001
1000
0100
1000
0010
1000
0001
0100
0001
,
1000
0100
0010
0001
1000
0010
0100
0001
1000
0010
1000
0100
1000
0001
0010
0001
,
1000
0001
0100
0010
1000
0100
0010
0100
1000
0001
0010
0001
0100
0001
1000
0010
,
1000
0001
0010
0100
1000
0001
0100
0010
1000
0001
0100
0001
0010
0001
1000
0100
,
1000
0010
0100
0001
0010
0100
0010
0001
1000
0100
1000
0010
1000
0001
0100
0001
,
1000
0100
0010
0001
1000
0010
0100
0001
1000
0010
1000
0100
1000
0001
0010
0001
,
1000
0001
0100
0010
1000
0100
0010
0100
1000
0001
0010
0001
0100
0001
1000
0010
,
1000
0001
0010
0100
1000
0001
0100
0010
1000
0001
0100
0001
0010
0001
1000
0001
,
1000
0100
0010
0001
0100
0010
0100
0001
1000
0010
1000
0100
1000
0001
0010
0001
,
1000
0010
0100
0001
1000
0100
0010
0001
1000
0100
1000
0010
1000
0001
0100
0001
,
1000
0001
0010
0100
1000
0010
0100
0010
1000
0001
0100
0001
0010
0001
1000
0100
,
1000
0001
0100
0010
1000
0001
0010
0100
1000
0001
0010
0001
0100
0001
1000
0010
,
1000
0100
0010
0001
0100
0010
0100
0001
1000
0010
1000
0100
1000
0001
0010
0001
,
1000
0010
0100
0001
1000
0100
0010
0001
1000
0100
1000
0010
1000
0001
0100
0001
,
1000
0001
0010
0100
1000
0010
0100
0010
1000
0001
0100
0001
0010
0001
1000
0100
,
1000
0001
0100
0010
1000
0001
0010
0100
1000
0001
0010
0001
0100
0001
1000
0010
,
1000
0001
0010
0100
1000
0010
0100
0001
1000
0001
0010
0001
1000
0001
0100
0010
,
1000
0100
1000
0001
0010
0100
1000
0001
0100
0001
1000
0001
0010
0001
1000
0010
,
0100
0010
1000
0001
0010
0001
0100
0010
1000
0001
0010
0100
0010
0001
0010
0100
,
1000
0010
1000
0001
0100
0010
1000
0001
0010
0100
1000
0100
0010
0100
1000
0001
,
0010
0001
1000
0010
0100
0001
0010
0100
1000
0001
1000
0010
1000
0001
1000
0100
,
0010
0001
0100
0001
1000
0100
0010
0001
1000
0100
1000
0001
1000
0010
1000
0001
,
0100
0010
0100
0001
1000
0010
1000
0100
0010
0001
1000
0010
0100
0010
1000
0010
,
0100
0001
0010
0001
1000
0100
0010
0001
1000
0010
0100
0001
0100
0010
0100
0001
,
1000
0001
1000
0010
1000
0100
0010
0001
1000
0001
0100
0001
1000
0001
0010
0100
,
1000
0010
1000
0001
0100
0010
1000
0001
0010
0001
1000
0001
0100
0001
1000
0100
,
0010
0100
1000
0001
0100
0001
0010
0100
1000
0001
0100
0010
0100
0001
0100
0010
,
1000
0100
1000
0001
0010
0100
1000
0001
0100
0010
1000
0010
0100
0010
1000
0001
,
0100
0001
1000
0100
0010
0001
0100
0010
1000
0001
1000
0100
1000
0001
1000
0010
,
0100
0001
0010
0001
1000
0100
0010
0001
1000
0010
1000
0001
1000
0100
1000
0001
,
0100
0010
0100
0001
1000
0100
1000
0010
0100
0001
1000
0100
0010
0100
1000
0100
,
0010
0001
0100
0001
1000
0010
0100
0001
1000
0100
0010
0001
0010
0100
1000
0001
,
1000
0001
0010
0100
1000
0010
0100
0010
1000
0001
0100
0001
0010
0001
1000
0100
,
1000
0001
0100
0010
1000
0001
0010
0100
1000
0001
0010
0001
0100
0001
1000
0010
,
1000
0001
1000
0100
0010
0001
0100
0010
0100
0001
1000
0010
1000
0100
1000
0001
,
0010
0001
1000
0010
0100
0001
1000
0100
0010
0001
1000
0100
1000
0010
1000
0001
,
0100
0001
0010
0100
1000
0010
0100
0010
1000
0001
0100
0001
0010
0001
1000
0100
,
1000
0001
0100
0010
1000
0001
0010
0100
1000
0001
0010
0001
0100
0001
1000
0010
,
1000
0001
1000
0100
0010
0001
0100
0010
0100
0001
1000
0010
1000
0100
1000
0001
,
0010
0001
1000
0010
0100
0001
1000
0100
0010
0001
1000
0100
1000
0010
1000
0001
,
1000
0001
0100
0010
1000
0100
0010
0100
1000
0001
0010
0001
0100
0001
1000
0010
,
1000
0001
0010
0100
1000
0001
0100
0010
1000
0001
0100
0001
0010
0001
1000
0100
,
1000
0001
1000
0010
0100
0001
0010
0100
0010
0001
1000
0100
1000
0010
1000
0001
,
0100
0001
1000
0100
0010
0001
1000
0010
0100
0001
1000
0010
1000
0100
1000
0001
,
0010
0001
0100
0010
1000
0100
0010
0100
1000
0001
0010
0001
0100
0001
1000
0010
,
1000
0001
0010
0100
1000
0001
0100
0010
1000
0001
0100
0001
0010
0001
1000
0100
,
1000
0001
1000
0010
0100
0001
0010
0100
0010
0001
1000
0100
1000
0010
1000
0001
,
0100
0001
1000
0100
0010
0001
1000
0010
0100
0001
1000
0001
0010
0100
1000
0001
,
0200
0000
0000
0000
,
0000
0000
0000
0000
,
0300
0000
0000
0000
;
