#TITLE:Blu;
#SUBTITLE:(Nightcore Remix);
#ARTIST:MitiS & MaHi;
#TITLETRANSLIT:;
#SUBTITLETRANSLIT:;
#ARTISTTRANSLIT:;
#CREDIT:owenviau1;
#BANNER:;
#BACKGROUND:;
#LYRICSPATH:;
#CDTITLE:;
#MUSIC:MitiS & MaHi - Blu (Nightcore Remix).ogg;
#OFFSET:-0.226;
#SAMPLESTART:34.108;
#SAMPLELENGTH:29.999;
#SELECTABLE:YES;
#BPMS:0.000=170.000;
#STOPS:;
#BGCHANGES:;
// cache tags:
#FIRSTBEAT:0.000;
#LASTBEAT:718.000;
#SONGFILENAME:Songs/owenviau1 Simfiles 7/Blu (Nightcore Remix) - [owenviau1] v1.0.0/Blu.sm;
#HASMUSIC:1;
#HASBANNER:0;
#MUSICLENGTH:260.136;
// end cache tags

//---------------dance-single - 15.43 (15+) (owenvia----------------
#NOTES:
     dance-single:
     15.43 (15+) (owenvia:
     Challenge:
     15:
     1.000,1.000,0.138,0.488,1.000,1965.000,36.000,127.000,53.000,1.000:
1MM2
0003
0000
1000
0000
0000
0020
0030
0000
0100
0000
0000
0001
0000
2000
3020
,
2030
3000
0000
0100
0000
0000
0010
0000
0000
0001
0000
0000
1000
0000
0002
0023
,
0230
0300
0000
1000
0000
0000
001M
0M00
000M
1000
0000
0000
0001
0000
0200
0320
,
0230
0300
0000
0001
0000
0000
2000
3000
0000
0100
0000
0000
0010
0000
0002
0003
,
2000
3000
0000
0010
0000
0000
0200
0300
0000
0010
0000
0000
1000
0000
0002
0023
,
0230
0300
0000
1000
0000
0000
0001
0000
0000
0100
0000
0000
0010
0000
0200
0302
,
2003
3000
0000
0200
0300
0000
2000
3000
0000
0002
0003
0000
0200
0300
0000
0020
,
4030
0000
0000
0000
0000
0000
3000
0000
0000
0000
0000
0000
0004
0000
0000
0000
0000
0000
0403
0000
0000
0000
0000
0000
0300
0000
0000
0000
0000
0000
0400
0000
0000
0000
0000
0000
0340
0000
0000
0000
0030
0000
0000
0000
0000
0000
0000
0000
4000
0000
0000
0000
3000
0000
0004
0000
0000
0003
0000
0000
0000
0000
0000
0000
0000
0000
0000
0000
0000
0000
0000
0000
0040
0000
0000
0030
0000
0000
0000
0000
0000
0000
0000
0000
0200
0000
0000
0000
0000
0000
0000
0000
0000
0000
0000
0000
,
1300
0001
0010
0001
1000
0010
0100
0010
1000
0001
0100
0001
0010
0100
1000
0010
,
0100
0001
1000
0010
1000
0100
0010
0001
1000
0100
1000
0001
0100
0010
0100
0001
,
1000
0010
0100
0001
1000
0100
1000
0001
0010
0100
1000
0001
0010
0001
0100
0010
,
1000
0010
0100
0001
1000
0001
0010
0100
1000
0001
0100
0001
0010
0100
1000
0010
,
0100
0010
1000
0001
0100
0001
1000
0100
0010
0001
1000
0100
1000
0010
0100
0010
,
1000
0001
0100
0001
0010
0100
1000
0001
0100
0010
1000
0010
0100
0001
1000
0001
,
0010
0100
1000
0001
0010
0001
0100
0010
1000
0010
0100
0001
1000
0001
0010
0100
,
2000
0000
30M0
0M00
000M
0000
M000
0M00
M000
0000
0010
0000
0000
0000
0100
0000
,
0001
1000
0010
0100
0010
1000
0001
0100
0001
0010
0100
1000
0001
0100
0010
1000
,
0010
0100
0001
1000
0100
1000
0010
0100
0001
1000
0100
1000
0001
0010
0100
1000
,
0010
0100
0001
0100
0010
1000
0001
1000
0100
0010
0001
1000
0100
1000
0001
0100
,
0010
0100
0001
1000
0010
1000
0100
0010
0001
0100
0010
0100
0001
1000
0001
0010
,
0100
1000
0001
0100
0010
1000
0001
0100
0001
0010
0100
1000
0001
0010
0001
0100
,
0010
1000
0010
0100
0001
1000
0001
0010
0100
1000
0001
0100
0001
1000
0010
0100
,
0001
1000
0100
1000
0001
0010
0100
1000
0010
0100
0001
1000
0001
0100
0010
1000
,
0002
0000
0003
0020
0000
0030
0200
0000
0300
2000
0000
3000
0002
0000
0203
0000
,
0310
1000
0001
0100
0010
0100
0001
1000
0010
1000
0100
0010
0001
1000
0100
1000
,
0010
0100
0001
0100
0010
1000
0001
0100
0001
0010
0100
1000
0010
0100
0001
1000
,
0001
0010
0100
1000
0010
0100
0010
1000
0001
0100
0001
1000
0010
0100
0001
1000
,
0100
1000
0010
0100
0001
1000
0100
0010
0001
1000
0100
1000
0010
0100
0001
0100
,
0010
1000
0001
1000
0100
0010
0001
1000
0010
0100
0001
0100
0010
1000
0001
0100
,
0001
0010
0100
1000
0001
0010
0001
0100
0010
1000
0010
0100
0001
1000
0100
1000
,
0010
0100
0010
1000
0001
0100
0001
0010
0100
1000
0001
0100
0010
1000
0010
0100
,
0001
0100
0010
1000
0001
0010
0100
1000
0001
0100
0010
1000
0010
0100
0001
1000
,
0001
0000
0100
0010
0100
0000
0001
0000
1000
0100
0010
0000
0001
0000
0100
0010
,
1000
0000
0001
0010
0100
0000
1000
0000
0010
0100
0001
0000
1000
0000
0010
0000
,
1000
0000
0100
0010
0001
0000
0100
0000
0010
1000
0010
0000
0100
0000
0001
1000
,
0001
0000
0010
0100
1000
0000
0010
0000
0100
0001
1000
0000
0100
0000
0010
0001
,
1000
0000
0000
1100
0000
0000
1100
0000
0000
1100
0000
0000
1100
0000
0000
1000
,
0001
0000
0000
0101
0000
0000
0101
0000
0000
0101
0000
0000
0101
0000
0001
1000
,
0010
0000
0000
1010
0000
0000
1010
0000
0000
1010
0000
0000
1010
0000
0000
1000
,
0010
0000
0000
0110
0000
0000
0110
0000
0000
0110
0000
0000
0110
0000
0020
0000
,
1030
0000
0100
0010
0001
0000
1000
0000
0010
0100
0001
0000
1000
0000
0010
0000
,
0100
0000
0001
1000
0001
0000
0010
0000
0100
1000
0001
0000
0100
0000
0010
1000
,
0010
0000
0100
0001
1000
0000
0100
0000
0010
0001
1000
0000
0100
0000
1000
0001
,
0010
0000
0001
0100
0010
0000
1000
0000
0100
0010
0001
0000
1000
0000
0010
0100
,
0010
1000
0100
0010
0001
1000
0001
0100
,
0010
1000
0010
0100
0001
1000
0100
0010
,
0001
0100
0010
1000
0010
0100
0001
1000
0100
1000
0010
0100
0001
1000
0100
0010
,
0001
0000
0000
0000
1000
0000
0000
0000
0001
0000
0000
0000
0100
0000
0000
0000
0010
0000
0000
0000
1000
0000
0000
0000
0010
0000
0000
0000
0000
0000
0000
0000
0000
0100
0000
0000
0000
0000
0000
0000
0000
0001
0000
0000
0000
0000
0000
0000
2000
0000
0000
0000
0000
0000
0000
0000
0000
0000
0000
0000
0000
0000
0000
0000
0000
0000
0000
0000
0000
0000
0000
0000
0000
0000
0000
0000
0000
0000
0000
0000
0000
0000
0000
0000
0000
0000
0000
0000
0000
0000
0000
0000
0000
0000
0000
0000
,
3001
0010
0100
1000
0001
0100
0010
1000
0010
0100
0001
1000
0002
0000
0000
0000
0000
0000
0003
0000
0000
0000
0000
0000
,
1000
0100
0010
0001
1000
0001
0100
0010
1000
0010
0100
0001
0100
0010
1000
0001
,
1000
0000
0010
0000
0200
0000
0302
0000
1003
0100
1000
0001
0020
0000
0230
0000
,
1300
0001
0010
0001
0100
0010
1000
0001
0010
0000
0100
0000
1000
0000
0010
0100
,
0001
1000
0001
0100
0010
1000
0010
0100
0001
1000
0100
0010
0004
0000
0000
0000
0000
0000
0000
0000
0000
0000
0000
0000
,
0103
0010
1000
0100
1000
0001
0100
0010
1000
0001
0100
0001
0010
0100
1000
0001
,
2000
0000
3100
0000
0010
0000
0002
0000
0103
0010
1000
0001
0010
0100
1000
0001
,
0100
0000
0010
0000
0100
0000
0001
1000
0001
0000
0010
0000
0100
1000
0001
0000
,
1000
0010
1000
0100
0010
0001
0100
0010
0100
0001
1000
0010
2000
0000
0000
0000
0000
0000
3001
0010
0100
1000
0001
1000
,
0010
0100
0010
1000
0001
0100
0001
0010
0100
1000
0001
0010
0001
0100
0010
1000
,
0001
0000
0100
0010
0100
0000
0001
0000
1000
0100
1000
0010
0100
0001
0100
0010
,
1000
0000
0001
0000
1000
0000
0100
0000
0010
0000
0001
0000
0100
0000
0001
0000
1000
0000
0010
0000
0100
0000
0001
0000
1000
0000
0000
0100
0000
0000
1000
0000
0000
0010
0000
0000
0200
0000
0000
0000
0000
0000
0301
0000
0000
0000
0000
0000
,
1000
0000
0010
0000
0100
0000
0001
0000
0100
0000
0010
0000
1000
0000
0001
0000
0010
0000
0100
0000
1000
0000
0001
0000
0100
0000
0000
0000
0000
0000
0010
0000
0000
1000
0000
0000
0001
0000
0000
0000
0000
0000
0010
0000
0000
0000
0000
0000
,
0100
0000
1000
0000
0001
0000
0100
0000
0010
0000
0100
0000
0001
0000
1000
0000
0010
0000
0100
0000
0010
0000
1000
0000
0002
0000
0000
0000
0000
0000
0000
0000
0000
1003
0000
0000
0010
0000
0000
0000
0000
0000
0100
0000
0000
0010
0000
0000
,
1000
0001
0100
0001
0010
0100
1000
0001
0100
0010
0100
0001
1000
0010
1000
0100
,
0010
0001
1000
0100
1000
0001
0100
0010
1000
0000
0001
0000
0010
0100
1000
0000
,
0002
1000
1000
1000
,
2003
0000
0000
0000
0010
0000
0000
0000
0010
0000
3020
0000
0000
0000
0130
0001
,
1000
0000
0010
0100
0010
0000
1000
0001
1000
0000
0100
0010
0002
0000
2003
0000
,
3010
0000
0200
0300
0001
0000
2000
3000
0100
0000
0020
0000
0032
0000
1003
0010
,
1000
0100
0010
0001
0100
0010
1000
0010
0100
0001
1000
0010
0100
0010
1000
0001
,
0010
0100
1000
0001
0010
0001
0100
0010
1000
0001
0100
0001
0010
0100
1000
0010
,
0100
0001
1000
0010
1000
0001
0100
0001
1000
0100
0010
0001
0100
0010
0100
0001
,
1000
0010
0100
0001
0100
0010
1000
0001
0010
0100
1000
0001
0010
0001
0100
0010
,
1000
0001
0010
0001
0100
0010
0100
0001
1000
0000
0000
0010
0100
0000
0001
0000
,
1000
0010
0100
0001
0100
0010
1000
0001
0010
0001
0100
0010
1000
0001
0010
0100
,
1000
0001
0010
0001
0100
0010
1000
0010
0100
0001
1000
0100
1000
0010
0100
0001
,
1000
0100
1000
0001
0100
0010
0100
0001
1000
0001
0010
0100
1000
0001
0010
0001
,
0100
0010
1000
0010
0100
0001
1000
0100
1000
0010
0100
0001
0100
0010
1000
0001
,
0010
0001
1000
0100
1000
0001
0010
0100
1000
0001
0100
0001
0010
0100
1000
0010
,
0100
0001
1000
0010
1000
0100
0010
0001
0100
0001
1000
0010
0100
0001
1000
0100
,
1000
0000
0000
0010
0000
0000
0100
0000
0000
0001
0000
0000
0010
0000
0000
0001
0000
0000
1000
0000
0000
0100
0000
0000
1000
0000
0000
0001
0000
0000
0100
0000
0000
0010
0000
0000
0100
0000
0000
0001
0000
0000
1000
0000
0010
0000
0100
0000
,
0002
M000
0000
M000
0000
M000
0000
M000
,
2003
0000
0000
0000
,
3020
0000
0000
0100
0000
0000
0000
0000
,
0230
0000
0000
0000
,
0302
0000
0000
1000
0000
0000
0000
0000
,
2003
000M
000M
0000
,
3020
0000
0000
0100
0000
0M00
0000
0M00
,
0230
0302
0000
0000
,
1003
0000
1000
0010
0000
0010
0100
0001
,
2000
0000
0000
0000
0000
3100
0010
0000
,
0002
0000
0000
0000
0000
0000
0000
0000
0000
0000
0000
0000
0000
0000
1003
0010
,
1000
0001
0100
00M0
M000
0001
0010
0100
,
1000
0000
0001
0100
0000
0010
1000
0001
,
2000
0000
0010
0000
3010
0100
0001
0020
,
0000
0000
0000
0100
0000
0130
1000
0001
,
0200
0000
0000
0000
0000
0000
0010
0000
0000
0010
0000
0000
0310
0000
1000
0000
,
1M2M
0030
0000
1000
0000
0000
0002
0003
0000
0100
0000
0000
0001
0000
0020
0230
,
2300
3000
0000
0001
0000
0000
0100
0000
0000
0001
0000
0000
1000
0000
0002
0023
,
0230
0300
0000
1000
0000
0000
001M
0M00
000M
1000
0000
0000
0001
0000
0200
0320
,
0230
0300
0000
0001
0000
0000
2000
3000
0000
0100
0000
0000
0010
0000
0002
0003
,
2000
3000
0000
0010
0000
0000
0200
0300
0000
0010
0000
0000
1000
0000
0002
0023
,
0230
0300
0000
1000
0000
0000
0001
0000
0000
0100
0000
0000
0010
0000
0200
0302
,
2003
3000
0000
0200
0300
0000
2000
3000
0000
0002
0003
0000
0200
0300
0000
0020
,
4030
0000
0000
0000
0000
0000
3000
0000
0000
0000
0000
0000
0004
0000
0000
0000
0000
0000
0403
0000
0000
0000
0000
0000
0300
0000
0000
0000
0000
0000
0400
0000
0000
0000
0000
0000
0340
0000
0000
0000
0030
0000
0000
0000
0000
0000
0000
0000
4000
0000
0000
0000
3000
0000
0004
0000
0000
0003
0000
0000
0000
0000
0000
0000
0000
0000
0000
0000
0000
0000
0000
0000
0040
0000
0000
0030
0000
0000
0000
0000
0000
0000
0000
0000
0200
0000
0000
0000
0000
0000
0000
0000
0000
0000
0000
0000
,
1300
0001
0010
0001
0100
0010
0100
0001
1000
0010
0100
0001
0100
0010
1000
0001
,
0100
0001
1000
0010
1000
0100
0010
0001
1000
0100
1000
0001
0100
0010
0100
0001
,
1000
0010
0100
0001
1000
0100
1000
0001
0010
0100
1000
0001
0010
0001
0100
0010
,
1000
0010
0100
0001
1000
0001
0010
0100
1000
0001
0100
0001
0010
0100
1000
0010
,
0100
0010
1000
0001
0100
0001
1000
0100
0010
0001
1000
0100
1000
0010
0100
0010
,
1000
0001
0100
0001
0010
0100
1000
0001
0100
0010
1000
0010
0100
0001
1000
0001
,
0010
0100
1000
0001
0010
0001
0100
0010
1000
0010
0100
0001
1000
0001
0010
0100
,
2000
0000
30M0
0M00
000M
0000
M000
0M00
M000
0000
0010
0000
0000
0000
0100
0000
,
0001
1000
0010
0100
0010
1000
0001
0100
0001
0010
0100
1000
0001
0100
0010
1000
,
0010
0100
0001
1000
0100
1000
0010
0100
0001
1000
0100
1000
0001
0010
0100
1000
,
0010
0100
0001
0100
0010
1000
0001
1000
0100
0010
0001
1000
0100
1000
0001
0100
,
0010
0100
0001
1000
0010
1000
0100
0010
0001
0100
0010
0100
0001
1000
0001
0010
,
0100
1000
0001
0100
0010
1000
0001
0100
0001
0010
0100
1000
0001
0010
0001
0100
,
0010
1000
0010
0100
0001
1000
0001
0010
0100
1000
0001
0100
0001
1000
0010
0100
,
0001
1000
0100
1000
0001
0010
0100
1000
0010
0100
0001
1000
0001
0100
0010
0100
,
0001
0000
1000
0000
0100
0000
0010
0001
1000
0000
0010
0000
0100
0001
0100
0000
,
0010
0000
1000
0001
0100
0000
0010
0000
1000
0010
0100
0000
0001
0000
0100
0010
,
1000
0000
0001
0010
0100
0000
1000
0000
0010
0100
0001
0000
1000
0000
0010
0000
,
1000
0000
0100
0010
0001
0000
0100
0000
0010
1000
0010
0000
0100
0000
0001
1000
,
0001
0000
0010
0100
1000
0000
0010
0000
0100
0001
1000
0000
0100
0000
0010
0001
,
1000
0000
0000
1100
0000
0000
1100
0000
0000
1100
0000
0000
1100
0000
0000
1000
,
0001
0000
0000
0011
0000
0000
0011
0000
0000
0011
0000
0000
0011
0000
0001
1000
,
0010
0000
0000
1010
0000
0000
1010
0000
0000
1010
0000
0000
1010
0000
0000
1000
,
0010
0000
0000
0110
0000
0000
0110
0000
0000
0110
0000
0000
0110
0000
0020
0000
,
1030
0000
0100
0010
0001
0000
1000
0000
0010
0100
0001
0000
1000
0000
0010
0000
,
0100
0000
0001
1000
0001
0000
0010
0000
0100
1000
0001
0000
0100
0000
0010
1000
,
0010
0000
0100
0001
1000
0000
0100
0000
0010
0001
1000
0000
0100
0000
1000
0001
,
0010
0000
0001
0100
0010
0000
1000
0000
0100
0010
0001
0000
1000
0000
0010
0100
,
0010
1000
0100
0010
0001
1000
0001
0100
,
0010
1000
0010
0100
0001
1000
0100
0010
,
0001
0000
0000
0100
0000
0000
0010
0000
0000
1000
0000
0000
0010
0000
0000
0100
0000
0000
0001
0000
0000
1000
0000
0000
0100
0000
0000
1000
0000
0000
0010
0000
0000
0100
0000
0000
0001
0000
1000
0000
0001
0000
0100
0000
0010
0000
1000
0000
,
0010
0100
0001
1000
0010
0000
0000
0000
2000
0000
0000
0000
0000
0000
0000
0000
,
3001
0010
0100
1000
0001
0100
0010
1000
0010
0100
0001
1000
0002
0000
0000
0000
0000
0000
0003
0000
0000
0000
0000
0000
,
1000
0100
0010
0001
1000
0001
0100
0010
1000
0010
0100
0001
0100
0010
1000
0001
,
1000
0000
0010
0000
0200
0000
0302
0000
1003
0100
1000
0001
0020
0000
0230
0000
,
1300
0001
0010
0001
0100
0010
1000
0001
0010
0000
0100
0000
1000
0000
0010
0100
,
0001
1000
0001
0100
0010
1000
0010
0100
0001
1000
0100
0010
0004
0000
0000
0000
0000
0000
0000
0000
0000
0000
0000
0000
,
0103
0010
1000
0100
1000
0001
0100
0010
1000
0001
0100
0001
0010
0100
1000
0001
,
2000
0000
3100
0000
0010
0000
0002
0000
0103
0010
1000
0001
0010
0100
1000
0001
,
0100
0000
0010
0000
0100
0000
0001
1000
0001
0000
0010
0000
0100
1000
0001
0000
,
1000
0010
1000
0100
0010
0001
0100
0010
0100
0001
1000
0010
2000
0000
0000
0000
0000
0000
3001
0010
0100
1000
0001
1000
,
0010
0100
0010
1000
0001
0100
0001
0010
0100
1000
0001
0010
0001
0100
0010
1000
,
0001
0000
0100
0010
0100
0000
0001
0000
1000
0100
1000
0010
0100
0001
0100
0010
,
1000
0000
0001
0000
1000
0000
0100
0000
0010
0000
0001
0000
0100
0000
0001
0000
1000
0000
0010
0000
0100
0000
0001
0000
1000
0000
0000
0100
0000
0000
1000
0000
0000
0010
0000
0000
0200
0000
0000
0000
0000
0000
0301
0000
0000
0000
0000
0000
,
1000
0000
0010
0000
0100
0000
0001
0000
0100
0000
0010
0000
1000
0000
0001
0000
0010
0000
0100
0000
1000
0000
0001
0000
0100
0000
0000
0000
0000
0000
0010
0000
0000
1000
0000
0000
0001
0000
0000
0000
0000
0000
0010
0000
0000
0000
0000
0000
,
0100
0000
1000
0000
0001
0000
0100
0000
0010
0000
0100
0000
0001
0000
1000
0000
0010
0000
0100
0000
0010
0000
1000
0000
0002
0000
0000
0000
0000
0000
0000
0000
0000
1003
0000
0000
0010
0000
0000
0000
0000
0000
0100
0000
0000
0010
0000
0000
,
1000
0001
0100
0001
0010
0100
1000
0001
0100
0010
0100
0001
1000
0010
1000
0100
,
0010
0001
1000
0100
1000
0001
0100
0010
1000
0000
0001
0000
0010
0100
1000
0000
,
0002
1000
1000
1000
,
2003
0000
0000
0000
0010
0000
0000
0000
0010
0000
3020
0000
0000
0000
0130
0001
,
1000
0000
0010
0100
0010
0000
1000
0001
1000
0000
0100
0010
0002
0000
2003
0000
,
3010
0000
0200
0300
0001
0000
2000
3000
0100
0000
0020
0000
0032
0000
0103
0010
,
1000
0001
0100
0001
0010
0100
1000
0010
0100
0001
1000
0010
0100
0010
1000
0001
,
0010
0100
1000
0001
0010
0001
0100
0010
1000
0001
0100
0001
0010
0100
1000
0010
,
0100
0001
1000
0010
1000
0001
0100
0001
1000
0100
0010
0001
0100
0010
0100
0001
,
1000
0010
0100
0001
0100
0010
1000
0001
0010
0100
1000
0001
0010
0001
0100
0010
,
1000
0001
0010
0001
0100
0010
0100
0001
1000
0000
0000
0010
0100
0000
0001
0000
,
1000
0010
0100
0001
0100
0010
1000
0001
0010
0001
0100
0010
1000
0001
0010
0100
,
1000
0001
0010
0001
0100
0010
1000
0010
0100
0001
1000
0100
1000
0010
0100
0001
,
1000
0100
1000
0001
0100
0010
0100
0001
1000
0001
0010
0100
1000
0001
0010
0001
,
0100
0010
1000
0010
0100
0001
1000
0100
1000
0010
0100
0001
0100
0010
1000
0001
,
0010
0001
1000
0100
1000
0001
0010
0100
1000
0001
0100
0001
0010
0100
1000
0010
,
0100
0001
1000
0010
1000
0100
0010
0001
0100
0001
1000
0010
0100
0001
1000
0100
,
1000
0000
0000
0010
0000
0000
0100
0000
0000
0001
0000
0000
0010
0000
0000
0001
0000
0000
1000
0000
0000
0100
0000
0000
1000
0000
0000
0001
0000
0000
0100
0000
0000
0010
0000
0000
0100
0000
0000
0001
0000
0000
1000
0000
0010
0000
0100
0000
,
0002
M000
0000
M000
0000
M000
0000
M000
,
2003
0000
0000
0000
,
3020
0000
0000
0100
0000
0000
0000
0000
,
0230
0000
0000
0000
,
0302
0000
0000
1000
0000
0000
0000
0000
,
2003
000M
000M
0000
,
3020
0000
0000
0100
0000
0M00
0000
0M00
,
0230
0002
0000
0000
,
1303
0010
0100
0001
000M
0000
M000
0000
,
000M
M000
000M
M000
,
000M
M000
000M
M000
,
000M
M000
000M
0000
,
0000
0000
0000
0000
,
0000
0000
0000
0000
,
0000
0000
0000
0000
,
0000
0000
0000
0000
,
0000
0000
0000
0000
;
