#TITLE:Zombie Sunset;
#SUBTITLE:;
#ARTIST:dev/null;
#TITLETRANSLIT:;
#SUBTITLETRANSLIT:;
#ARTISTTRANSLIT:;
#CREDIT:;
#BANNER:../ban - Jawn2.png;
#BACKGROUND:../Jawn2 - bg.png;
#LYRICSPATH:;
#CDTITLE:../CDa.png;
#MUSIC:Zombie Sunset.ogg;
#OFFSET:0.009;
#SAMPLESTART:45.360;
#SAMPLELENGTH:20.000;
#SELECTABLE:YES;
#DISPLAYBPM:215.000;
#BPMS:0.000=215.069,17.000=215.087,18.000=215.052,19.000=215.069,20.000=215.087,21.000=215.069,51.000=215.087,52.000=215.052,53.000=215.069,54.000=215.087,55.000=215.069,88.000=215.087,89.000=211.765,90.000=215.052,91.000=215.087,92.000=215.069,99.000=215.040,248.000=215.069,249.000=215.087,250.000=215.069,251.000=215.052,252.000=215.087,253.000=215.069,256.000=215.052,257.000=215.087,258.000=215.069,285.000=215.087,286.000=215.052,287.000=215.069,288.000=215.087,289.000=215.052,290.000=215.087,291.000=215.069,292.000=215.052,293.000=215.087,294.000=215.069,323.000=215.087,324.000=215.052,325.000=215.069,326.000=215.087,327.000=215.052,328.000=215.087,329.000=215.069,330.000=215.052,331.000=215.087,332.000=215.069,353.000=215.087,354.000=215.052,355.000=215.069,356.000=215.087,357.000=215.052,358.000=215.087,359.000=215.069,360.000=215.052,361.000=215.087,362.000=215.069,391.000=215.087,392.000=215.052,393.000=215.069,394.000=215.087,395.000=215.052,396.000=215.087,397.000=215.069,398.000=215.052,399.000=215.087,400.000=215.069,424.000=215.087,425.000=215.052,426.000=215.069,427.000=215.087,428.000=215.052,429.000=215.087,430.000=215.069,431.000=215.052,432.000=215.087,433.000=215.069,459.000=215.087,460.000=215.052,461.000=215.069,462.000=215.087,463.000=215.052,464.000=215.087,465.000=215.069,466.000=215.052,467.000=215.087,468.000=215.069,492.000=215.087,493.000=215.052,494.000=215.069,495.000=215.087,496.000=215.052,497.000=215.087,498.000=215.069,499.000=215.052,500.000=215.087,501.000=215.069,507.000=212.855,508.000=215.069,530.000=215.087,531.000=215.052,532.000=215.069,533.000=215.087,534.000=215.052,535.000=215.087,536.000=215.069,537.000=215.052,538.000=215.087,539.000=215.069,545.000=212.855,546.000=215.069,560.000=215.087,561.000=215.052,562.000=215.069,563.000=215.087,564.000=215.052,565.000=215.087,566.000=215.069,567.000=215.052,568.000=215.087,569.000=215.069,577.000=215.052,578.000=215.087,579.000=215.069,588.000=215.087,589.000=215.052,590.000=215.069,593.000=215.087,594.000=215.069,595.000=215.052,596.000=215.069,598.000=215.087,599.000=215.069,601.000=215.052,602.000=215.069,603.000=215.087,604.000=215.069,607.000=215.052,608.000=215.087,609.000=215.069,635.000=215.087,636.000=215.052,637.000=215.069,640.000=215.087,641.000=215.069,642.000=215.052,643.000=215.069,645.000=215.087,646.000=215.069,648.000=215.052,649.000=215.069,650.000=215.087,651.000=215.069,654.000=215.052,655.000=215.087,656.000=215.069,665.000=215.087,666.000=215.052,667.000=215.069,670.000=215.087,671.000=215.069,672.000=215.052,673.000=215.069,675.000=215.087,676.000=215.069,678.000=215.052,679.000=215.069,680.000=215.087,681.000=215.069,684.000=215.052,685.000=215.087,686.000=215.069,700.000=215.087,701.000=215.052,702.000=215.069,706.000=215.087,707.000=215.052,708.000=215.069,710.000=215.087,711.000=215.069,713.000=215.052,714.000=215.069,716.000=215.087,717.000=215.069,719.000=215.052,720.000=215.087,721.000=215.069,725.000=215.052,726.000=215.087,727.000=215.069,736.000=215.087,737.000=215.052,738.000=215.069,741.000=215.087,742.000=215.069,743.000=215.052,744.000=215.069,746.000=215.087,747.000=215.069,749.000=215.052,750.000=215.069,751.000=215.087,752.000=215.069,755.000=215.052,756.000=215.087,757.000=215.069,771.000=215.087,772.000=215.052,773.000=215.069,776.000=215.087,777.000=215.069,778.000=215.052,779.000=215.069,781.000=215.087,782.000=215.069,784.000=215.052,785.000=215.069,786.000=215.087,787.000=215.069,790.000=215.052,791.000=215.087,792.000=215.069,801.000=215.087,802.000=215.052,803.000=215.069,807.000=215.087,808.000=215.052,809.000=215.069,811.000=215.087,812.000=215.069,814.000=215.052,815.000=215.069;
#STOPS:99.250=-0.139
,100.000=-0.140
,101.000=-0.279
,103.500=-0.279
,104.750=-0.139
,105.500=-0.140
,106.500=-0.279
,108.000=-0.279
,109.500=-0.279
,111.000=-0.279
,112.500=-0.279
,114.500=-0.279
,116.000=-0.279
,117.250=-0.139
,118.000=-0.140
,119.000=-0.279
,120.250=-0.139
,121.000=-0.140
,121.750=-0.139
,122.500=-0.140
,123.500=-0.279
,125.500=-0.279
,126.750=-0.139
,127.500=-0.140
,128.500=-0.279
,130.000=-0.279
,131.500=-0.279
,133.000=-0.279
,134.500=-0.279
,136.500=-0.279
,138.000=-0.279
,139.250=-0.139
,140.000=-0.140
,141.000=-0.279
,142.500=-0.279
,144.000=-0.279
,145.500=-0.279
,148.000=-0.279
,149.250=-0.139
,150.000=-0.140
,151.000=-0.279
,152.500=-0.279
,154.000=-0.279
,155.500=-0.279
,157.500=-0.279
,159.000=-0.279
,160.250=-0.139
,161.000=-0.140
,162.000=-0.279
,163.500=-0.279
,165.000=-0.279
,166.500=-0.279
,168.500=-0.279
,170.000=-0.279
,171.250=-0.139
,172.000=-0.140
,173.000=-0.279
,174.500=-0.279
,176.000=-0.279
,177.500=-0.279
,179.500=-0.279
,181.000=-0.279
,182.250=-0.139
,183.000=-0.140
,184.000=-0.279
,185.500=-0.279
,187.000=-0.279
,188.500=-0.279
,191.000=-0.279
,192.250=-0.139
,193.000=-0.140
,194.000=-0.279
,195.500=-0.279
,197.000=-0.279
,198.500=-0.279
,200.500=-0.279
,202.000=-0.279
,203.250=-0.139
,204.000=-0.140
,205.000=-0.279
,206.500=-0.279
,208.000=-0.279
,209.500=-0.279
,211.500=-0.279
,213.000=-0.279
,214.250=-0.139
,215.000=-0.140
,216.000=-0.279
,217.500=-0.279
,219.000=-0.279
,220.500=-0.279
,222.500=-0.279
,224.000=-0.279
,225.250=-0.139
,226.000=-0.140
,227.000=-0.279
,228.500=-0.279
,230.000=-0.279
,231.500=-0.279
,234.000=-0.279
,235.250=-0.139
,236.000=-0.140
,237.000=-0.279
,238.500=-0.279
,240.000=-0.279
,241.500=-0.279
,243.500=-0.279
,245.000=-0.279
,246.250=-0.139
,247.000=-0.140
;
#BGCHANGES:;
// cache tags:
#FIRSTBEAT:18.667;
#LASTBEAT:817.000;
#SONGFILENAME:Songs/Jimmy Jawns 2/Zombie Sunset - [Aoreo]/Zombie Sunset.sm;
#HASMUSIC:1;
#HASBANNER:1;
#MUSICLENGTH:202.764;
// end cache tags

//---------------dance-single - I'm sorry----------------
#NOTES:
     dance-single:
     I'm sorry:
     Hard:
     17:
     1.000,1.000,1.000,1.000,1.000,1717.000,370.000,296.000,201.000,29.000:
0000
0000
0000
0000
,
0000
0000
0000
0000
,
0000
0000
0000
0000
,
0000
0000
0000
0000
,
0000
0000
0000
0000
0000
0000
0000
0000
0000
0000
0000
0000
0000
0000
0000
0000
0001
0000
0100
0000
0000
0001
0000
0000
,
0010
0000
0100
0000
2020
3030
0000
0000
0000
0000
0000
0000
0001
0000
0010
0000
,
0100
0000
1000
0001
2200
3300
0000
0000
0000
0000
0000
0000
0001
0100
0001
0010
,
0100
1000
0202
0303
1000
0000
1000
0000
0010
0000
0100
0000
0001
1000
0001
0010
,
0100
0000
0000
0000
0000
0000
0000
0000
0000
0000
0000
0000
1000
0000
0000
0000
0000
0000
0000
0000
0000
0000
0000
0000
0202
0000
0000
0000
0000
0000
0000
0000
0000
0000
0000
0000
0303
0000
0000
0000
0000
0000
0000
0000
0000
0000
0000
0000
0000
0000
0000
0000
0000
0000
0000
0000
0000
0000
0000
0000
0000
2000
0000
0000
0000
0000
0000
0000
3000
0000
0000
0000
0000
0000
0000
0000
0000
0000
0000
0000
0000
0000
0000
0000
0020
0000
0000
0000
0000
0000
0000
0000
0000
0000
0000
0000
0030
0000
0000
0000
0000
0000
0000
0000
0000
0000
0000
0000
0000
0000
0000
0000
0000
0000
0000
0000
0000
0000
0000
0000
0100
0000
0000
0000
0000
0000
0000
0000
0000
0000
0000
0000
0000
0000
0000
0000
0000
0000
0000
0000
0000
0000
0000
0000
0010
0000
0000
0000
0000
0000
0000
0000
0000
0000
0000
0000
0100
0000
0000
0000
0000
0000
0000
0000
0000
0000
0000
0000
0001
0000
0000
0000
0000
0000
0000
0000
0000
0000
0000
0000
0100
0000
0000
0000
0000
0000
0000
0000
0000
0000
0000
0000
,
0010
0000
0000
0000
0000
0000
0000
0000
0000
0000
0000
0000
1000
0000
0000
0000
0000
0000
0000
0000
0000
0000
0000
0000
0022
0000
0000
0000
0000
0000
0000
0000
0000
0000
0000
0000
0033
0000
0000
0000
0000
0000
0000
0000
0000
0000
0000
0000
0000
0000
0000
0000
0000
0000
0000
0000
0000
0000
0000
0000
0000
2000
0000
0000
0000
0000
0000
0000
3000
0000
0000
0000
0000
0000
0000
0000
0000
0000
0000
0000
0000
0000
0000
0000
0002
0000
0000
0000
0000
0000
0000
0000
0000
0000
0000
0000
0013
0000
0000
0000
0000
0000
0000
0000
0000
0000
0000
0000
0000
0000
0000
0000
0000
0000
0000
0000
0000
0000
0000
0000
0100
0000
0000
0000
0000
0000
0000
0000
0000
0000
0000
0000
0000
0000
0000
0000
0000
0000
0000
0000
0000
0000
0000
0000
1000
0000
0000
0000
0000
0000
0000
0000
0000
0000
0000
0000
0001
0000
0000
0000
0000
0000
0000
0000
0000
0000
0000
0000
1000
0000
0000
0000
0000
0000
0000
0000
0000
0000
0000
0000
0100
0000
0000
0000
0000
0000
0000
0000
0000
0000
0000
0000
,
0010
0000
0000
0000
0000
0000
0000
0000
0000
0000
0000
0000
0001
0000
0000
0000
0000
0000
0000
0000
0000
0000
0000
0000
2020
0000
0000
0000
0000
0000
0000
0000
0000
0000
0000
0000
3030
0000
0000
0000
0000
0000
0000
0000
0000
0000
0000
0000
0000
0000
0000
0000
0000
0000
0000
0000
0000
0000
0000
0000
0000
0002
0000
0000
0000
0000
0000
0003
0000
0000
0000
0000
0000
0000
0000
0000
0000
0000
0000
0000
0000
0000
0000
0000
0200
0000
0000
0000
0000
0000
0000
0000
0000
0000
0000
0000
0300
0000
0000
0000
0000
0000
0000
0000
0000
0000
0000
0000
0000
0000
0000
0000
0000
0000
0000
0000
0000
0000
0000
0000
0010
0000
0000
0000
0000
0000
0000
0000
0000
0000
0000
0000
0000
0000
0000
0000
0000
0000
0000
0000
0000
0000
0000
0000
1000
0000
0000
0000
0000
0000
0000
0000
0000
0000
0000
0000
0001
0000
0000
0000
0000
0000
0000
0000
0000
0000
0000
0000
1000
0000
0000
0000
0000
0000
0000
0000
0000
0000
0000
0000
0010
0000
0000
0000
0000
0000
0000
0000
0000
0000
0000
0000
,
0100
0000
0000
0000
0000
0000
0000
0000
0000
0000
0000
0000
0001
0000
0000
0000
0000
0000
0000
0000
0000
0000
0000
0000
2200
0000
0000
0000
0000
0000
0000
0000
0000
0000
0000
0000
3300
0000
0000
0000
0000
0000
0000
0000
0000
0000
0000
0000
0000
0000
0000
0000
0000
0000
0000
0000
0000
0000
0000
0000
0000
0020
0000
0000
0000
0030
0000
0000
0000
0000
0000
0000
0000
0000
0000
0000
0000
0000
0000
0000
0000
0000
0000
0000
0200
0000
0000
0000
0000
0000
0000
0000
0000
0000
0000
0000
0301
0000
0000
0000
0000
0000
0000
0000
0000
0000
0000
0000
0000
0000
0000
0000
0000
0000
0000
0000
0000
0000
0000
0000
1000
0000
0000
0000
0000
0000
0000
0000
0000
0000
0000
0000
0000
0000
0000
0000
0000
0000
0000
0000
0000
0000
0000
0000
0001
0000
0000
0000
0000
0000
0000
0000
0000
0000
0000
0000
1000
0000
0000
0000
0000
0000
0000
0000
0000
0000
0000
0000
0001
0000
0000
0000
0000
0000
0000
0000
0000
0000
0000
0000
0010
0000
0000
0000
0000
0000
0000
0000
0000
0000
0000
0000
,
0100
1000
0202
0303
1100
0000
0011
0000
2200
0000
3300
0000
0001
0100
0001
1000
,
0100
0000
0000
0000
0000
0000
0000
0000
0000
0000
0000
0000
0010
0000
0000
0000
0000
0000
0000
0000
0000
0000
0000
0000
0202
0000
0000
0000
0000
0000
0000
0000
0000
0000
0000
0000
0303
0000
0000
0000
0000
0000
0000
0000
0000
0000
0000
0000
0000
0000
0000
0000
0000
0000
0000
0000
0000
0000
0000
0000
0000
0020
0000
0000
0030
0000
0000
0000
0000
0000
0000
0000
0000
0000
0000
0000
0000
0000
0000
0000
0000
0000
0000
0000
0200
0000
0000
0000
0000
0000
0000
0000
0000
0000
0000
0000
1300
0000
0000
0000
0000
0000
0000
0000
0000
0000
0000
0000
0000
0000
0000
0000
0000
0000
0000
0000
0000
0000
0000
0000
0001
0000
0000
0000
0000
0000
0000
0000
0000
0000
0000
0000
0000
0000
0000
0000
0000
0000
0000
0000
0000
0000
0000
0000
1000
0000
0000
0000
0000
0000
0000
0000
0000
0000
0000
0000
0001
0000
0000
0000
0000
0000
0000
0000
0000
0000
0000
0000
1000
0000
0000
0000
0000
0000
0000
0000
0000
0000
0000
0000
0010
0000
0000
0000
0000
0000
0000
0000
0000
0000
0000
0000
,
0100
0000
0000
0000
0000
0000
0000
0000
0000
0000
0000
0000
0001
0000
0000
0000
0000
0000
0000
0000
0000
0000
0000
0000
2200
0000
0000
0000
0000
0000
0000
0000
0000
0000
0000
0000
3300
0000
0000
0000
0000
0000
0000
0000
0000
0000
0000
0000
0001
0000
0000
0000
0000
0000
0000
0000
0000
0000
0000
0000
0000
0020
0000
0000
0000
0000
0000
0030
0000
0000
0000
0000
0000
0000
0000
0000
0000
0000
0000
0000
0000
0000
0000
0000
0100
0000
0000
0000
0000
0000
0000
0000
0000
0000
0000
0000
2000
0000
0000
0000
0000
0000
0000
0000
0000
0000
0000
0000
3000
0000
0000
0000
0000
0000
0000
0000
0000
0000
0000
0000
0000
0000
0000
0000
0000
0000
0000
0000
0000
0000
0000
0000
0000
0000
0000
0000
0000
0000
0000
0000
0000
0000
0000
0000
0001
0000
0000
0000
0000
0000
0000
0000
0000
0000
0000
0000
1000
0000
0000
0000
0000
0000
0000
0000
0000
0000
0000
0000
0001
0000
0000
0000
0000
0000
0000
0000
0000
0000
0000
0000
0010
0000
0000
0000
0000
0000
0000
0000
0000
0000
0000
0000
,
0100
0000
0000
0000
0000
0000
0000
0000
0000
0000
0000
0000
1000
0000
0000
0000
0000
0000
0000
0000
0000
0000
0000
0000
0202
0000
0000
0000
0000
0000
0000
0000
0000
0000
0000
0000
0303
0000
0000
0000
0000
0000
0000
0000
0000
0000
0000
0000
0000
0000
0000
0000
0000
0000
0000
0000
0000
0000
0000
0000
0000
2000
0000
0000
0000
3000
0000
0000
0000
0000
0000
0000
0000
0000
0000
0000
0000
0000
0000
0000
0000
0000
0000
0000
0020
0000
0000
0000
0000
0000
0000
0000
0000
0000
0000
0000
2230
0000
0000
0000
0000
0000
0000
0000
0000
0000
0000
0000
0000
0000
0000
0000
0000
0000
0000
0000
0000
0000
0000
0000
3300
0000
0000
0000
0000
0000
0000
0000
0000
0000
0000
0000
0000
0000
0000
0000
0000
0000
0000
0000
0000
0000
0000
0000
0011
0000
0000
0000
0000
0000
0000
0000
0000
0000
0000
0000
0000
0000
0000
0000
0000
0000
0000
0000
0000
0000
0000
0000
1100
0000
0000
0000
0000
0000
0000
0000
0000
0000
0000
0000
0000
0000
0000
0000
0000
0000
0000
0000
0000
0000
0000
0000
,
0202
0000
0303
0000
1010
0100
1010
0100
0022
0000
0033
0000
1000
0001
0010
0100
,
1000
0000
0000
0000
0000
0000
0000
0000
0000
0000
0000
0000
0001
0000
0000
0000
0000
0000
0000
0000
0000
0000
0000
0000
2200
0000
0000
0000
0000
0000
0000
0000
0000
0000
0000
0000
3300
0000
0000
0000
0000
0000
0000
0000
0000
0000
0000
0000
0000
0000
0000
0000
0000
0000
0000
0000
0000
0000
0000
0000
0000
0002
0000
0000
0000
0000
0000
0000
0003
0000
0000
0000
0000
0000
0000
0000
0000
0000
0000
0000
0000
0000
0000
0000
0200
0000
0000
0000
0000
0000
0000
0000
0000
0000
0000
0000
0300
0000
0000
0000
0000
0000
0000
0000
0000
0000
0000
0000
0000
0000
0000
0000
0000
0000
0000
0000
0000
0000
0000
0000
0001
0000
0000
0000
0000
0000
0000
0000
0000
0000
0000
0000
0000
0000
0000
0000
0000
0000
0000
0000
0000
0000
0000
0000
1000
0000
0000
0000
0000
0000
0000
0000
0000
0000
0000
0000
0001
0000
0000
0000
0000
0000
0000
0000
0000
0000
0000
0000
1000
0000
0000
0000
0000
0000
0000
0000
0000
0000
0000
0000
0100
0000
0000
0000
0000
0000
0000
0000
0000
0000
0000
0000
,
0010
0000
0000
0000
0000
0000
0000
0000
0000
0000
0000
0000
0001
0000
0000
0000
0000
0000
0000
0000
0000
0000
0000
0000
2020
0000
0000
0000
0000
0000
0000
0000
0000
0000
0000
0000
3030
0000
0000
0000
0000
0000
0000
0000
0000
0000
0000
0000
0000
0000
0000
0000
0000
0000
0000
0000
0000
0000
0000
0000
0000
0200
0000
0000
0000
0300
0000
0000
0000
0000
0000
0000
0000
0000
0000
0000
0000
0000
0000
0000
0000
0000
0000
0000
2000
0000
0000
0000
0000
0000
0000
0000
0000
0000
0000
0000
3202
0000
0000
0000
0000
0000
0000
0000
0000
0000
0000
0000
0000
0000
0000
0000
0000
0000
0000
0000
0000
0000
0000
0000
0303
0000
0000
0000
0000
0000
0000
0000
0000
0000
0000
0000
0000
0000
0000
0000
0000
0000
0000
0000
0000
0000
0000
0000
1000
0000
0000
0000
0000
0000
0000
0000
0000
0000
0000
0000
0001
0000
0000
0000
0000
0000
0000
0000
0000
0000
0000
0000
1000
0000
0000
0000
0000
0000
0000
0000
0000
0000
0000
0000
0010
0000
0000
0000
0000
0000
0000
0000
0000
0000
0000
0000
,
0100
0000
0000
0000
0000
0000
0000
0000
0000
0000
0000
0000
0001
0000
0000
0000
0000
0000
0000
0000
0000
0000
0000
0000
2200
0000
0000
0000
0000
0000
0000
0000
0000
0000
0000
0000
3300
0000
0000
0000
0000
0000
0000
0000
0000
0000
0000
0000
0000
0000
0000
0000
0000
0000
0000
0000
0000
0000
0000
0000
0000
0002
0000
0000
0000
0000
0000
0003
0000
0000
0000
0000
0000
0000
0000
0000
0000
0000
0000
0000
0000
0000
0000
0000
0200
0000
0000
0000
0000
0000
0000
0000
0000
0000
0000
0000
0300
0000
0000
0000
0000
0000
0000
0000
0000
0000
0000
0000
0000
0000
0000
0000
0000
0000
0000
0000
0000
0000
0000
0000
0001
0000
0000
0000
0000
0000
0000
0000
0000
0000
0000
0000
0000
0000
0000
0000
0000
0000
0000
0000
0000
0000
0000
0000
1000
0000
0000
0000
0000
0000
0000
0000
0000
0000
0000
0000
0100
0000
0000
0000
0000
0000
0000
0000
0000
0000
0000
0000
1000
0000
0000
0000
0000
0000
0000
0000
0000
0000
0000
0000
0001
0000
0000
0000
0000
0000
0000
0000
0000
0000
0000
0000
,
0100
0010
1100
0000
0022
0000
0033
0000
0022
0000
0033
0000
1000
0001
1000
0100
,
0010
0000
0000
0000
0000
0000
0000
0000
0000
0000
0000
0000
0001
0000
0000
0000
0000
0000
0000
0000
0000
0000
0000
0000
2020
0000
0000
0000
0000
0000
0000
0000
0000
0000
0000
0000
3030
0000
0000
0000
0000
0000
0000
0000
0000
0000
0000
0000
0000
0000
0000
0000
0000
0000
0000
0000
0000
0000
0000
0000
0000
0002
0000
0000
0000
0000
0000
0003
0000
0000
0000
0000
0000
0000
0000
0000
0000
0000
0000
0000
0000
0000
0000
0000
0200
0000
0000
0000
0000
0000
0000
0000
0000
0000
0000
0000
0300
0000
0000
0000
0000
0000
0000
0000
0000
0000
0000
0000
0000
0000
0000
0000
0000
0000
0000
0000
0000
0000
0000
0000
0001
0000
0000
0000
0000
0000
0000
0000
0000
0000
0000
0000
0000
0000
0000
0000
0000
0000
0000
0000
0000
0000
0000
0000
1000
0000
0000
0000
0000
0000
0000
0000
0000
0000
0000
0000
0001
0000
0000
0000
0000
0000
0000
0000
0000
0000
0000
0000
1000
0000
0000
0000
0000
0000
0000
0000
0000
0000
0000
0000
0010
0000
0000
0000
0000
0000
0000
0000
0000
0000
0000
0000
,
0100
0000
0000
0000
0000
0000
0000
0000
0000
0000
0000
0000
0001
0000
0000
0000
0000
0000
0000
0000
0000
0000
0000
0000
2200
0000
0000
0000
0000
0000
0000
0000
0000
0000
0000
0000
3300
0000
0000
0000
0000
0000
0000
0000
0000
0000
0000
0000
0000
0000
0000
0000
0000
0000
0000
0000
0000
0000
0000
0000
0000
0002
0000
0000
0000
0000
0000
0000
0000
0003
0000
0000
0000
0000
0000
0000
0000
0000
0000
0000
0000
0000
0000
0000
0200
0000
0000
0000
0000
0000
0000
0000
0000
0000
0000
0000
0301
0000
0000
0000
0000
0000
0000
0000
0000
0000
0000
0000
0000
0000
0000
0000
0000
0000
0000
0000
0000
0000
0000
0000
1000
0000
0000
0000
0000
0000
0000
0000
0000
0000
0000
0000
0000
0000
0000
0000
0000
0000
0000
0000
0000
0000
0000
0000
0202
0000
0000
0000
0000
0000
0000
0000
0000
0000
0000
0000
0000
0000
0000
0000
0000
0000
0000
0000
0000
0000
0000
0000
0303
0000
0000
0000
0000
0000
0000
0000
0000
0000
0000
0000
0000
0000
0000
0000
0000
0000
0000
0000
0000
0000
0000
0000
,
1000
0000
0000
0000
0000
0000
0000
0000
0000
0000
0000
0000
0000
0000
0000
0000
0000
0000
0000
0000
0000
0000
0000
0000
0100
0000
0000
0000
0000
0000
0000
0000
0000
0000
0000
0000
0010
0000
0000
0000
0000
0000
0000
0000
0000
0000
0000
0000
0M02
0000
0000
0000
0000
0000
0000
0000
0M00
0000
0000
0000
0000
0000
0000
0000
0M00
0000
0000
0000
0000
0000
0000
0000
0M00
0000
0000
0000
0000
0000
0000
0000
0M00
0000
0000
0000
0000
0000
0000
0000
0M00
0000
0000
0000
0000
0000
0000
0000
0M00
0000
0000
0000
0000
0000
0000
0000
0M00
0000
0000
0000
0000
0000
0000
0000
0M00
0000
0000
0000
0000
0000
0000
0000
0M00
0000
0000
0000
0000
0000
0000
0000
0M00
0000
0000
0000
0000
0000
0000
0000
0000
0000
0000
0000
0000
0000
0000
0000
2003
0000
0000
0000
0000
0000
3000
0000
0000
0000
0000
0000
0000
0000
0000
0000
0000
0000
0000
0000
0000
0000
0000
0000
0020
0000
0000
0000
0000
0000
0030
0000
0000
0000
0000
0000
0200
0000
0000
0000
0000
0000
0300
0000
0000
0000
0000
0000
,
0002
0003
0000
0000
0002
0003
0000
0000
0100
0000
0000
0000
0100
0000
1000
0000
0001
0000
0000
0000
1000
0000
0000
0000
0100
0000
0M00
0000
0000
0000
0100
0000
,
0M00
0100
0M00
0000
0100
0000
0000
0M00
,
0000
0000
0100
0M00
0000
0100
0M00
0000
0100
0000
0M00
0000
0000
0000
0100
0000
,
0M00
0000
0100
0M00
0000
0100
0M00
0000
,
0100
0M00
0000
0100
0000
0M00
0000
0100
,
0M00
0000
0000
0000
0100
0M00
0000
0100
0M00
0000
0100
0000
0M00
0000
0000
0000
,
0100
0M00
0000
0100
0M00
0000
0100
0M00
0000
0100
0M00
0000
0100
0000
0M00
0000
,
0000
0000
0100
0000
0000
0000
0M00
0000
0000
0000
0100
0M00
0000
0100
0M00
0000
,
0100
0M00
0000
0100
0M00
0000
0100
0M00
,
0000
0100
0M00
0000
0100
0M00
0000
0100
,
0000
0000
0M00
0000
0000
0000
0100
0000
0M00
0000
0000
0000
0100
0M00
0000
0100
,
0M00
0100
0M00
0000
0100
0M00
0000
0100
,
0M00
0000
0100
0M00
0000
0100
0000
1000
,
M000
0000
0000
0000
1000
M000
0000
1000
M000
0000
1000
0000
M000
0000
0000
0000
,
1000
M000
0000
1000
M000
0000
1000
M000
,
0000
1000
0000
M000
0000
1000
M000
0000
,
1000
M000
0000
1000
M000
0000
1000
0000
M000
0000
0000
0000
1000
0000
M000
0000
,
0000
1000
M000
0000
1000
M000
0000
1000
,
0000
0000
M000
0000
0000
0000
1000
0000
M000
0000
0000
0000
1000
M000
0000
1000
,
M000
1000
M000
0000
1000
M000
0000
1000
,
M000
0000
1000
M000
0000
1000
0000
M000
,
0000
0000
1000
0000
M000
0000
0000
0000
1000
M000
0000
1000
M000
0000
1000
0000
,
M000
0000
1000
M000
0000
1000
M000
0000
,
1000
M000
0000
1000
0000
0100
0M00
0000
,
0100
0M00
0000
0100
0M00
0000
0100
0000
0M00
0000
0000
0000
0100
0000
0M00
0000
,
0000
0100
0M00
0000
0100
0M00
0000
0100
,
0000
0000
0M00
0000
0000
0000
0100
0000
0M00
0000
0000
0000
0100
0M00
0000
0100
,
0M00
0100
0M00
0000
0100
0M00
0000
0100
,
0M00
0000
0100
0M00
0000
0100
0000
0M00
,
0000
0000
0100
0000
0M00
0000
0000
0000
0100
0M00
0000
0100
0M00
0000
0100
0000
,
0M00
0000
0100
0M00
0000
0100
0M00
0000
,
0100
0M00
0000
0100
0000
0M00
0000
0100
,
0M00
0000
0000
0000
0100
0M00
0000
0100
0M00
0000
0100
0000
0M00
0000
0000
0000
,
0100
0M00
0000
0100
0M00
0000
0100
0M00
,
0000
0000
0100
0000
0000
0000
0010
0000
00M0
0000
0000
0000
0010
00M0
0000
0010
,
00M0
0010
00M0
0000
0010
00M0
0000
0010
,
00M0
0000
0010
00M0
0000
0010
0000
00M0
,
0000
0000
0010
0000
00M0
0000
0000
0000
0010
00M0
0000
0010
00M0
0000
0010
0000
,
0001
0000
0200
0300
0001
0000
0020
0030
0100
0000
0100
0000
1000
0000
0002
0003
,
0010
0100
0010
0100
1000
0001
1000
0001
1000
0001
1000
0001
0000
0000
0000
0000
,
1000
0100
1000
0001
1100
0000
0001
0100
0001
1000
0100
0000
1010
0000
0101
0000
,
1000
0100
1000
0001
1100
0000
0001
1000
0001
0100
0010
0000
1100
0000
0011
0000
,
1000
0001
0100
0010
1100
0000
0001
0010
0100
1000
0001
0000
1010
0000
0101
0000
,
1000
0010
1000
0010
1100
0011
1000
0011
0000
1000
0022
0033
1000
0011
0000
1000
,
0001
0010
0100
1000
0101
0000
1000
0001
1000
0010
0100
0000
0011
0000
1100
0000
,
0001
1000
0100
0010
0101
0000
1000
0001
1000
0010
0100
0000
0011
0000
1100
0000
,
0001
0100
0001
1000
0101
0000
1000
0001
1000
0100
0010
0000
0101
0000
1010
0000
,
0001
0100
0001
1000
0101
0000
2000
3000
0001
0100
0012
0003
0100
0100
1000
0000
,
0101
1000
0001
1000
0101
0000
1000
0001
1000
0010
0100
0000
0011
0000
1100
0000
,
0001
1000
0100
0010
0101
0000
1000
0001
1000
0010
0100
0000
0011
0000
1100
0000
,
0001
0100
0001
1000
0101
0000
1000
0010
1000
0001
0100
0000
0011
0000
1100
0000
,
0002
0003
2000
3000
0002
0003
2000
3000
0101
0000
0000
0000
1000
0000
0000
0000
0101
0000
0000
0000
0101
0000
0000
0000
1010
0000
0000
0000
1010
0000
0000
0000
,
0101
1000
0001
1000
0101
0000
1000
0001
1000
0010
0100
0000
0011
0000
1100
0000
,
0001
0100
0001
1000
0101
0000
1000
0001
1000
0010
0100
0000
0011
0000
1100
0000
,
0001
1000
0001
1000
0101
0000
0010
0010
2000
3M00
0020
M030
0200
0300
M0M2
0003
,
0100
0000
0011
1000
0010
0000
1100
0000
0002
0003
0002
0003
2200
0000
3300
0000
,
1101
0000
0001
1000
0101
0000
1000
0001
1000
0001
0100
0000
0001
1000
0001
1000
,
0010
0000
1000
0001
1100
0001
0100
0000
0010
0000
0100
0000
0001
1000
0001
1000
,
0200
0300
0020
0030
0200
0300
0020
0030
0101
0000
0000
0000
0101
0000
0000
0000
1010
0000
0000
0000
1010
0000
0000
0000
0101
0000
0000
0000
0101
0000
0000
0000
,
1000
0000
0000
0001
0000
0000
1000
0000
0000
0011
0000
0000
0100
0000
0000
0001
0000
0000
1000
0000
0000
0010
0000
0000
1100
0000
0000
0000
0000
0000
0001
0000
0000
0100
0000
0000
0001
0000
0000
0000
0000
0000
1000
0000
0001
0000
0000
0000
,
1100
0000
0002
0003
0020
0000
0130
0000
1010
0000
0000
0000
0001
0000
0100
0000
0001
0000
1000
0000
0010
0000
1000
0000
0100
0000
0010
0000
0001
0000
1000
0000
,
0010
0000
0000
0000
2000
3000
0001
0000
1100
0000
0010
0000
1100
0000
0011
0000
2200
0000
0000
0000
0000
0000
0000
0000
3302
0003
0000
0020
0030
0000
0100
0000
,
1010
0000
0001
1000
0101
1000
0001
0000
1100
0000
0011
0000
1000
0001
1000
0100
,
0010
0000
0001
0000
0100
0000
0100
0000
20M0
0000
00M0
0000
30M0
0000
0000
0000
0001
0000
0000
0100
0000
0000
0001
0000
0000
1000
0000
0000
0200
0000
0300
0000
,
1010
0100
1000
0100
1010
0001
0100
0001
1100
0000
0001
0000
1000
0000
0101
0000
,
2000
3000
0200
0300
0020
0030
0200
0300
1010
0000
0000
0000
0001
0000
1000
0000
0001
0000
1000
0000
0101
0000
0000
0000
1000
0000
0001
0000
1000
0000
0000
0000
,
0022
0000
0033
0000
1000
0000
0001
0000
0200
0300
0001
0000
0100
0000
0100
0000
1010
0000
0000
0000
0001
0000
0000
0000
1000
0000
0000
0000
0001
0000
0000
0000
,
2000
3000
0200
0300
1000
0000
0001
0000
1100
0000
0000
0000
0020
0000
0000
0000
0030
0000
0000
0000
1000
0000
0000
0000
0001
0000
0000
0000
0001
0000
0000
0000
,
1100
0000
0000
0000
0001
0000
1000
0000
0200
0300
1000
0000
0001
0000
0010
0000
0101
0000
0000
0000
0010
0000
0000
0000
0100
0000
0000
0000
1000
0000
0000
0000
,
0011
0000
1000
0001
1100
0001
0100
0010
1000
0001
1100
0000
0001
0010
0100
1000
,
0101
0000
1010
0101
1010
0001
1000
0000
0001
0000
0001
0000
0100
0000
0100
0000
,
0001
0100
0000
0000
0001
1000
0000
0000
0010
0000
0000
0000
2002
0000
0000
0000
0000
0000
0000
0000
3003
0000
0000
0000
2200
0000
3300
0000
0001
0000
1000
0000
,
0101
0000
0010
0000
0101
0000
1000
0100
0010
0100
1000
0000
0001
1000
0001
1000
,
0M2M
0000
0000
0000
0030
0000
0M2M
0000
0000
0000
0030
0000
0101
0000
0000
0000
0000
0000
1000
0000
0000
0010
0000
0000
1100
0000
0000
0010
0000
0000
1100
0000
0000
0010
0000
0000
2000
0000
0000
3000
0000
0000
0002
0000
0000
0003
0000
0000
,
0100
0000
0001
0000
1010
0000
0001
0100
0001
1000
0100
0100
0001
1000
0010
0100
,
0011
1000
0002
0003
1000
0001
0100
0001
1010
0000
0001
1010
0001
1000
0011
0000
,
1100
0001
1100
0001
4000
0000
0000
3000
0011
0000
1000
0000
0001
0000
0001
0000
,
M2M0
0000
0300
0000
M2M0
0000
0300
0000
2020
0000
3030
0000
0001
0000
0100
0000
0010
0000
0100
0000
0011
0000
0000
0000
0200
0300
0000
0000
0020
0030
0000
0000
,
1000
0001
1000
0001
0100
0000
0022
0033
1000
0000
0202
0303
1000
0000
0022
0033
,
1010
0000
0000
0000
0101
0000
0000
0000
0000
0000
0000
0000
1010
0000
0000
0000
0101
0000
0000
0000
0000
0000
0000
0000
1010
0000
0000
0000
0000
0000
0000
0000
0002
0000
0000
0000
0003
0000
0000
0000
0200
0000
0000
0000
0300
0000
0000
0000
0002
0003
0000
0000
2000
3000
0000
0000
0020
0030
0000
0000
0200
0300
0000
0000
,
0002
0003
0000
0000
2000
3000
0000
0000
0020
0030
0000
0000
0200
0300
0000
0000
0002
0003
0000
0000
2000
3000
0000
0000
0020
0030
0000
0000
0200
0300
0000
0000
0002
0003
0000
0000
2000
3000
0000
0000
0020
0030
0000
0000
0200
0300
0000
0000
0001
0000
0000
0000
1000
0000
0000
0000
0011
0000
0000
0000
0000
0000
0000
0000
,
1000
0001
1000
0001
1010
0000
0001
0100
0001
0010
0100
0000
1010
0000
0101
0000
,
1000
0100
1000
0001
1100
0000
0001
0100
0100
1000
0011
0000
1100
0000
0101
0000
,
1000
0001
1000
0010
1100
0000
0001
0100
0100
1000
0001
0000
1010
0000
0101
0000
,
1010
0101
1010
0101
1010
0000
0001
1000
0001
0100
0010
0000
1100
0000
0011
0000
,
1000
0100
1000
0001
1100
0000
0001
0100
0001
1000
0100
0000
1010
0000
0101
0000
,
1000
0000
0200
0300
0010
0000
0002
0003
0100
0000
0020
0030
1000
0000
0200
0300
,
1000
0001
1000
0001
0100
0000
0020
0030
1000
0000
0200
0300
0010
0000
0002
0003
,
1000
0100
0010
0001
1000
0100
0010
0001
,
1000
0100
0010
0001
1000
0100
0010
0001
,
1000
0100
0010
0001
1000
0100
0010
0001
,
M000
0M00
00M0
000M
M000
0M00
00M0
000M
,
1100
0000
0001
0000
1100
0000
0010
0000
2200
0000
3300
0000
0001
0000
1000
0000
0100
0000
0100
0000
0001
0000
1000
0000
0102
0003
1000
0000
0001
0000
0000
0000
,
1100
0001
1000
0001
0100
0010
1000
0001
1100
0001
0100
0010
2200
3300
0022
0033
,
1000
0001
1000
0010
1100
0000
0001
1000
0001
0010
0100
1000
0101
1000
0001
1000
,
0111
0000
0000
1000
0000
0000
0111
0000
0000
1000
0000
0000
0111
0000
0000
1000
0000
0000
0111
0000
0000
1000
0000
0000
0101
0000
0000
0000
1010
0000
0000
0000
0101
0000
0000
0000
1010
0000
0000
0000
0101
0000
0000
0000
1010
0000
0000
0000
,
0101
0000
0000
0000
2000
0000
3001
0000
1000
0000
0000
0000
0011
0000
1000
0000
0001
0000
1000
0000
0010
0000
0100
0000
0001
0000
0000
0000
2000
0000
0000
3000
,
0202
0000
0000
0000
0000
0000
0303
0000
1010
0000
0000
0000
0101
0000
0000
0000
1000
0000
0100
0000
0100
0000
0001
0000
1000
0100
0010
0001
1000
0100
0010
0001
,
1000
0000
0001
1000
0101
0000
1000
0010
1000
0001
0100
0010
1100
0001
0100
0010
,
1000
0001
0010
0001
2020
0000
0000
0000
0000
0000
0000
0000
0000
0000
0000
3030
,
0101
0000
0000
0000
0000
0000
0000
0000
0000
0000
0000
0000
1000
0000
0000
0000
0000
0000
0000
0000
0000
0000
0000
0000
0101
0000
0000
0000
0000
0000
0000
0000
0000
0000
0000
0000
1000
0000
0000
0000
0000
0000
0000
0000
0000
0000
0000
0000
0022
0000
0000
0000
0000
0000
0000
0000
0000
0000
0000
0000
0033
0000
0000
0000
0000
0000
0000
0000
0000
0000
0000
0000
1000
0000
0000
0000
0000
0000
0000
0000
0000
0000
0000
0000
0001
0000
0000
0000
0000
0000
0000
0000
0000
0000
0000
0200
0000
0000
0000
0000
0300
0000
0000
0000
0000
0000
0000
0000
0000
0000
0000
0000
0000
0000
0000
0000
0000
0000
0000
0000
0001
0000
0000
0000
0000
0000
0000
0000
0000
0000
0000
0000
1000
0000
0000
0000
0000
0000
0000
0000
0000
0000
0000
0000
0101
0000
0000
0000
0000
0000
0000
0000
0000
0000
0000
0000
1000
0000
0000
0000
0000
0000
0000
0000
0000
0000
0000
0000
0001
0000
0000
0000
0000
0000
0000
0000
0000
0000
0000
0000
1100
0000
0000
0000
0000
0000
0000
0000
0000
0000
0000
0000
,
0010
1100
0001
1000
0001
0100
0020
1030
0101
0010
0101
0010
0202
0303
1010
0101
,
1010
0001
1000
0001
2200
3300
0022
1033
0001
1000
0010
0100
0022
0033
1000
0001
,
1100
0000
0010
0000
1000
0000
0001
0000
2020
3030
0000
0000
0002
0000
0003
0000
1100
0000
0001
0000
1000
0000
0001
0000
1000
0010
0100
0001
1000
0010
0100
0001
,
1000
0001
1000
0010
2200
3300
0001
0100
0001
1000
0202
0303
1000
0001
0100
0010
,
1100
0001
1000
0010
0100
0001
0100
0000
0001
0100
0100
1000
0022
0000
0000
0033
,
1000
0000
0000
0000
0100
0000
0000
0000
0000
0000
0000
0000
1000
0000
0000
0000
0101
0000
0000
0000
0000
0000
0000
0000
1000
0000
0000
0000
0001
0000
0000
0000
2200
0000
0000
0000
3300
0000
0000
0000
0001
0000
0000
0000
0100
0000
0000
0000
0000
0000
0000
0000
0010
0000
0000
0000
2000
3000
0000
0000
0200
0000
0300
0000
,
2000
3000
0000
0000
0200
0300
0000
0000
0020
0030
0000
0000
0002
0003
0000
0000
2010
0000
0000
0000
0000
0000
0000
0000
0000
0000
0000
0000
0000
0000
0000
0000
0000
0000
0000
0000
0000
0000
0000
0000
0000
0000
0000
0000
0000
0000
0000
0000
0000
0000
0000
0000
0000
0000
0000
0000
0000
0000
0000
0000
0000
0000
0000
0000
,
0000
0000
0000
0000
0100
0100
0100
0100
,
0100
0100
0100
0100
0100
0100
0100
0100
,
0100
0100
0100
0100
0100
0100
0100
0100
,
0100
0100
0100
0100
0100
0100
0100
0100
,
0100
0100
0100
0100
0100
0100
0100
0100
,
0100
0100
0100
0100
0100
0100
0100
0100
,
0100
0100
0100
0100
0100
0100
0100
3100
,
0101
0000
0000
0000
0000
0000
0000
0000
0000
0000
0000
0000
1010
0000
0000
0000
0000
0000
0000
0000
0000
0000
0000
0000
0101
0000
0000
0000
0000
0000
0000
0000
0000
0000
0000
0000
1010
0000
0000
0000
0000
0000
0000
0000
0000
0000
0000
0000
0101
0000
0000
0000
0000
0000
0000
0000
0000
0000
0000
0000
1010
0000
0000
0000
0000
0000
0000
0000
0000
0000
0000
0000
0101
0000
0000
0000
0000
0000
0000
0000
0000
0000
0000
0000
1010
0000
0000
0000
0000
0000
0000
0000
0000
0000
0000
0000
0001
0000
0000
0000
0000
0000
0100
0000
0000
0000
0000
0000
0010
0000
0000
0000
0000
0000
1000
0000
0000
0000
0000
0000
0001
0000
0000
0000
0000
0000
0100
0000
0000
0000
0000
0000
0010
0000
0000
0000
0000
0000
1000
0000
0000
0000
0000
0000
0001
0000
0000
0000
0100
0000
0000
0000
0010
0000
0000
0000
1000
0000
0000
0000
0001
0000
0000
0000
0100
0000
0000
0000
0010
0000
0000
0000
1000
0000
0000
0000
0001
0000
0000
0000
0100
0000
0000
0000
0010
0000
0000
0000
1000
0000
0000
0000
,
0001
0000
1000
0000
0000
0000
0001
0000
1100
0000
0000
0000
0001
0000
1000
0000
0202
0000
0303
0000
2020
0000
3030
0000
0102
0003
0000
0000
2200
0000
3300
0000
,
0001
1000
0001
0100
0022
0033
1000
0001
1000
0010
0100
0001
1100
0001
1000
0100
,
0010
0001
1000
0001
0200
0300
0001
1000
0100
0010
0001
1000
0022
0033
2200
3300
,
0001
0000
0000
0000
0000
0000
0000
0000
0000
0000
0000
0000
0100
0000
0000
0000
0000
0000
0000
0000
0000
0000
0000
0000
0001
0000
0000
0000
0000
0000
0000
0000
0000
0000
0000
0000
1000
0000
0000
0000
0000
0000
0000
0000
0000
0000
0000
0000
0101
0000
0000
0000
0000
0000
0000
0000
0000
0000
0000
0000
0000
0000
0000
0000
0000
0000
0000
0000
0000
0000
0000
0000
1010
0000
0000
0000
0000
0000
0000
0000
0000
0000
0000
0000
0000
0000
0000
0000
0000
0000
0000
0000
0000
0000
0000
0000
0011
0000
0000
0000
0000
0000
0000
0000
0000
0000
0000
0000
0000
0000
0000
0000
0000
0000
0000
0000
0000
0000
0000
0000
1100
0000
0000
0000
0000
0000
0000
0000
0000
0000
0000
0000
0000
0000
0000
0000
0000
0000
0000
0000
0000
0000
0000
0000
0022
0000
0000
0000
0000
0000
0000
0000
0000
0000
0000
0000
0000
0000
0000
0000
0000
0000
0000
0000
0000
0000
0000
2000
3033
0000
0000
0000
0000
0000
0000
0000
0000
0000
0000
0000
0000
0000
0000
0000
0000
0000
0000
0000
0000
0000
0000
0000
,
0101
1010
0101
1010
0202
0303
1000
0001
1000
0010
0100
0001
0100
0010
1000
0001
,
1100
0000
0010
0000
1100
0000
0010
0000
1000
0000
0002
0003
0200
0300
0010
0000
1000
0000
0100
0000
0010
0000
0001
0000
2020
0000
0000
0000
3030
0000
0000
0000
,
0011
2000
0000
3000
0001
0000
1010
0200
0000
0300
1100
0000
0001
1000
0001
1000
,
0101
0000
1000
0010
1100
0000
0001
1000
0100
0100
0001
1000
0202
0000
0000
0303
,
2000
0000
3000
0000
2000
0000
3000
0000
0022
0000
0033
0000
1000
0000
0001
0000
1000
0000
0010
0000
0100
0000
0001
0000
1100
0000
0000
0000
0002
0003
0000
0000
,
1100
0011
1000
0011
1100
0000
0001
1000
0001
1000
0010
1000
0011
0000
1100
0001
,
1110
0001
1110
0001
1110
0001
1110
0001
1110
0001
1110
0001
1110
0001
1110
0001
,
2000
0000
3001
0000
1000
0000
0001
0000
1000
0010
0100
0001
1000
0010
0100
0001
1000
0000
0000
0000
0001
0000
0000
0000
1100
0000
0000
0000
0002
0000
0003
0000
,
1010
0200
0300
1000
0002
0003
1000
0010
2200
3301
1000
0100
2020
3030
0202
0303
,
1100
0000
0001
1000
0011
0000
1000
0000
0101
0000
1010
0000
0001
1000
0001
1000
,
0202
0303
0000
0000
0000
0000
0000
0000
0000
0000
0000
0000
1000
0000
0000
0000
0000
0000
0000
0000
0000
0000
0000
0400
0300
0000
0000
0000
0000
0000
0000
0000
0000
0000
0000
0000
0010
0000
0000
0000
0000
0000
0000
0000
0000
0000
0000
0000
0001
0000
0000
0000
0000
0000
0000
0000
0000
0000
0000
0000
0000
0000
0000
0000
0000
0000
0000
0000
0000
0000
0000
0000
2000
0000
0000
0000
0000
0000
0000
0000
0000
0000
0000
0000
0000
0000
0000
0000
0000
0000
0000
0000
0000
0000
0000
0000
0000
0000
0000
0000
0000
0000
0000
0000
0000
0000
0000
0000
0000
0000
0000
0000
0000
0000
0000
0000
0000
0000
0000
0000
0000
0000
0000
0000
0000
0000
0000
0000
0000
0000
0000
0000
0000
0000
0000
0000
0000
0000
0000
0000
0000
0000
0000
0000
3011
0000
0000
0000
0000
0000
0000
0000
0000
0000
0000
0000
0000
0000
0000
0000
0000
0000
0000
0000
0000
0000
0000
0000
1000
0000
0000
0000
0000
0000
0000
0000
0000
0000
0000
0000
0001
0000
0000
0000
0000
0000
0000
0000
0000
0000
0000
0000
,
1010
0000
0101
0000
1010
0000
0101
0000
1000
0000
0001
0000
0100
0000
0010
0000
1000
0000
0010
0000
0100
0000
0001
0000
1000
0100
0010
0001
1000
0100
0010
0001
,
1100
0000
0000
0000
0000
0000
0000
0000
0000
0000
0000
0000
0011
0000
0000
0000
0000
0000
0000
0000
0000
0000
0000
0000
0000
0000
0000
0000
0000
0000
0000
0000
0000
0000
0000
0000
1100
0000
0000
0000
0000
0000
0000
0000
0000
0000
0000
0000
0011
0000
0000
0000
0000
0000
0000
0000
0000
0000
0000
0000
0000
0000
0000
0000
0000
0000
0000
0000
0000
0000
0000
0000
1000
0000
0000
0000
0000
0000
0000
0000
0000
0000
0000
0000
0001
0000
0000
0000
0000
0000
0000
0000
0000
0000
0000
0000
M2M0
0000
0000
0000
0000
0000
0300
0000
0000
0000
0000
0000
0000
0000
0000
0000
0000
0000
0000
0000
0000
0000
0000
0000
M2M0
0000
0000
0000
0000
0000
0300
0000
0000
0000
0000
0000
0000
0000
0000
0000
0000
0000
0000
0000
0000
0000
0000
0000
0M2M
0000
0000
0000
0000
0000
0030
0000
0000
0000
0000
0000
0000
0000
0000
0000
0000
0000
0000
0000
0000
0000
0000
0000
0M2M
0000
0000
0000
0030
0000
0000
0000
0000
0000
0000
0000
0000
0000
0000
0000
0000
0000
0000
0000
0000
0000
0000
0000
,
1100
0000
0010
0000
1000
0000
0001
0000
1010
0000
0001
0000
0010
0000
0100
0000
1000
0000
0001
0000
1000
0000
0010
0000
2200
3300
0000
0000
0001
0000
0100
0000
,
0100
0000
1000
0000
0001
0000
1000
0000
0021
0000
0000
0030
1000
0000
0001
0000
1000
0000
0010
0000
0100
0000
0001
0000
1010
0000
0000
0000
0001
0000
0000
0000
,
1100
0011
1100
0011
1100
0000
0001
0000
2020
3030
0202
0303
2200
3300
0022
0033
,
1000
0011
1100
0001
1100
0000
0021
0030
1000
0010
1000
0001
2100
3000
0001
1000
,
0101
1010
0101
1010
0102
0003
1100
0011
1100
0011
2200
3300
0001
1000
0010
0100
,
0010
1000
0101
0000
2020
3030
0001
1000
0010
0100
0001
1000
0011
1000
0022
0033
,
1200
0300
0001
0000
1000
0000
0001
0000
1000
0010
0100
0001
1000
0010
0100
0001
1010
0000
0000
0000
0002
0000
0003
0000
1100
0000
0000
0000
0002
0000
0003
0000
,
1001
0000
0000
0000
02M0
0000
0000
0300
1001
0000
0000
0000
02M0
0000
0000
0300
2002
0000
3003
0000
1000
0000
0001
0000
0010
0000
0100
0000
1000
0000
0001
0000
,
0100
0100
1000
0001
1100
0000
0001
1000
0010
1000
0001
0100
0001
0100
0011
1000
,
0111
1000
0011
1100
0001
1110
0001
1100
0011
1000
0111
1000
0011
1100
0001
1110
,
0001
1100
0011
1000
0111
1000
0011
1100
0001
1110
0001
1100
0011
1000
0111
1000
,
0001
2000
0000
3000
0011
0000
1000
0100
1000
0001
0100
0010
1200
0300
0001
0000
,
1010
0000
0001
1000
0011
0100
0010
0000
1000
0000
0001
0000
1000
0101
0010
0101
,
1000
0000
0101
0000
0010
0000
0101
0000
1000
0000
0000
0000
0022
0000
0000
0000
1000
0000
0000
0033
0001
0000
0000
0000
2000
3000
0002
0003
1100
0000
0010
0000
,
1100
0000
0011
0000
1000
0000
0001
0000
1100
0000
0010
0000
1100
0000
0001
0000
1000
0100
0010
0001
1000
0100
0010
0001
1000
0100
0010
0001
1000
0100
0010
0001
,
1000
0100
0010
0001
1000
0100
0010
0001
1000
0100
0010
0001
1000
0100
0010
0001
1000
0100
0010
0001
1000
0100
0010
0001
1000
0100
0010
0001
1000
0100
0010
0001
,
1000
0100
0010
0001
1000
0100
0010
0001
1000
0100
0010
0001
1000
0100
0010
0001
1000
0100
0010
0001
1000
0100
0010
0001
1000
0100
0010
0001
1000
0100
0010
0001
,
1000
0100
0010
0001
1000
0100
0010
0001
1000
0100
0010
0001
1000
0100
0010
0001
1000
0100
0010
0001
1000
0100
0010
0001
1000
0100
0010
0001
1000
0100
0010
0001
,
1100
0000
000M
00M0
0M00
M000
000M
00M0
0M00
M000
000M
00M0
0M00
M000
000M
00M0
0M00
M000
000M
00M0
0M00
M000
000M
00M0
,
1100
0001
1010
0001
1100
0000
2222
3300
0000
0000
0000
0000
0000
0000
0000
0000
,
MM00
0000
0000
0000
0000
MM00
0000
0000
,
0000
MM00
0000
MM00
,
0000
0000
0000
MM00
0000
0000
0000
0000
,
MM00
0000
0000
0000
0000
MM00
0000
0000
,
MM00
0000
0000
0000
0000
MM00
0000
0000
,
0000
0000
MM00
0000
0000
0000
0000
MM00
,
0000
0000
MM00
0000
,
0033
0000
0000
0000
,
0000
0000
0000
0000
,
0000
0000
0000
0000
,
0000
0000
0000
0000
,
0000
0000
0000
0000
,
0000
0000
0000
0000
,
0000
0000
0000
0000
,
0000
0000
0000
0000
,
0000
0000
0000
0000
,
0000
0000
0000
0000
,
0000
0000
0000
0000
,
0000
0000
0000
0000
,
0000
0000
0000
0000
,
0000
0000
0000
0000
,
0000
0000
0000
0000
,
0000
0000
0000
0000
,
0000
0000
0000
0000
,
0000
0000
0000
0000
,
0000
0000
0000
0000
,
0000
0000
0000
0000
,
0000
M000
0000
0000
;

//---------------dance-single - J. Nero----------------
#NOTES:
     dance-single:
     J. Nero:
     Challenge:
     16:
     1.000,1.000,0.010,1.000,1.000,1434.000,2.000,220.000,65.000,0.000:
0000
0000
0000
0000
,
0000
0000
0000
0000
,
0000
0000
0000
0000
,
0000
0000
0000
0000
,
0000
0000
0000
0000
0000
0000
0000
0000
0000
0000
0000
0000
0000
0000
0000
0000
0001
0000
0100
0000
0000
0001
0000
0000
,
0010
0000
0100
0000
2000
3000
0000
0000
0000
0000
0000
0000
0001
0000
0010
0000
,
0100
0000
1000
0001
2000
3000
0000
0000
0000
0000
0000
0000
0001
0100
0001
0010
,
0100
1000
0020
0030
1000
0000
1000
0000
0010
0000
0100
0000
0001
1000
0001
0010
,
0100
0000
0000
0000
0000
0000
0000
0000
0000
0000
0000
0000
1000
0000
0000
0000
0000
0000
0000
0000
0000
0000
0000
0000
0020
0000
0000
0000
0000
0000
0000
0000
0000
0000
0000
0000
0030
0000
0000
0000
0000
0000
0000
0000
0000
0000
0000
0000
0000
0000
0000
0000
0000
0000
0000
0000
0000
0000
0000
0000
0000
2000
0000
0000
0000
0000
0000
0000
3000
0000
0000
0000
0000
0000
0000
0000
0000
0000
0000
0000
0000
0000
0000
0000
0020
0000
0000
0000
0000
0000
0000
0000
0000
0000
0000
0000
0030
0000
0000
0000
0000
0000
0000
0000
0000
0000
0000
0000
0000
0000
0000
0000
0000
0000
0000
0000
0000
0000
0000
0000
0100
0000
0000
0000
0000
0000
0000
0000
0000
0000
0000
0000
0000
0000
0000
0000
0000
0000
0000
0000
0000
0000
0000
0000
0010
0000
0000
0000
0000
0000
0000
0000
0000
0000
0000
0000
0100
0000
0000
0000
0000
0000
0000
0000
0000
0000
0000
0000
0001
0000
0000
0000
0000
0000
0000
0000
0000
0000
0000
0000
0100
0000
0000
0000
0000
0000
0000
0000
0000
0000
0000
0000
,
0010
0000
0000
0000
0000
0000
0000
0000
0000
0000
0000
0000
1000
0000
0000
0000
0000
0000
0000
0000
0000
0000
0000
0000
0002
0000
0000
0000
0000
0000
0000
0000
0000
0000
0000
0000
0003
0000
0000
0000
0000
0000
0000
0000
0000
0000
0000
0000
0000
0000
0000
0000
0000
0000
0000
0000
0000
0000
0000
0000
0000
2000
0000
0000
0000
0000
0000
0000
3000
0000
0000
0000
0000
0000
0000
0000
0000
0000
0000
0000
0000
0000
0000
0000
0002
0000
0000
0000
0000
0000
0000
0000
0000
0000
0000
0000
0013
0000
0000
0000
0000
0000
0000
0000
0000
0000
0000
0000
0000
0000
0000
0000
0000
0000
0000
0000
0000
0000
0000
0000
0100
0000
0000
0000
0000
0000
0000
0000
0000
0000
0000
0000
0000
0000
0000
0000
0000
0000
0000
0000
0000
0000
0000
0000
1000
0000
0000
0000
0000
0000
0000
0000
0000
0000
0000
0000
0001
0000
0000
0000
0000
0000
0000
0000
0000
0000
0000
0000
1000
0000
0000
0000
0000
0000
0000
0000
0000
0000
0000
0000
0100
0000
0000
0000
0000
0000
0000
0000
0000
0000
0000
0000
,
0010
0000
0000
0000
0000
0000
0000
0000
0000
0000
0000
0000
0001
0000
0000
0000
0000
0000
0000
0000
0000
0000
0000
0000
0200
0000
0000
0000
0000
0000
0000
0000
0000
0000
0000
0000
0300
0000
0000
0000
0000
0000
0000
0000
0000
0000
0000
0000
0000
0000
0000
0000
0000
0000
0000
0000
0000
0000
0000
0000
0000
0002
0000
0000
0000
0000
0000
0003
0000
0000
0000
0000
0000
0000
0000
0000
0000
0000
0000
0000
0000
0000
0000
0000
0200
0000
0000
0000
0000
0000
0000
0000
0000
0000
0000
0000
0300
0000
0000
0000
0000
0000
0000
0000
0000
0000
0000
0000
0000
0000
0000
0000
0000
0000
0000
0000
0000
0000
0000
0000
0010
0000
0000
0000
0000
0000
0000
0000
0000
0000
0000
0000
0000
0000
0000
0000
0000
0000
0000
0000
0000
0000
0000
0000
1000
0000
0000
0000
0000
0000
0000
0000
0000
0000
0000
0000
0001
0000
0000
0000
0000
0000
0000
0000
0000
0000
0000
0000
1000
0000
0000
0000
0000
0000
0000
0000
0000
0000
0000
0000
0010
0000
0000
0000
0000
0000
0000
0000
0000
0000
0000
0000
,
0100
0000
0000
0000
0000
0000
0000
0000
0000
0000
0000
0000
0001
0000
0000
0000
0000
0000
0000
0000
0000
0000
0000
0000
2000
0000
0000
0000
0000
0000
0000
0000
0000
0000
0000
0000
3000
0000
0000
0000
0000
0000
0000
0000
0000
0000
0000
0000
0000
0000
0000
0000
0000
0000
0000
0000
0000
0000
0000
0000
0000
0020
0000
0000
0000
0030
0000
0000
0000
0000
0000
0000
0000
0000
0000
0000
0000
0000
0000
0000
0000
0000
0000
0000
0200
0000
0000
0000
0000
0000
0000
0000
0000
0000
0000
0000
0301
0000
0000
0000
0000
0000
0000
0000
0000
0000
0000
0000
0000
0000
0000
0000
0000
0000
0000
0000
0000
0000
0000
0000
1000
0000
0000
0000
0000
0000
0000
0000
0000
0000
0000
0000
0000
0000
0000
0000
0000
0000
0000
0000
0000
0000
0000
0000
0001
0000
0000
0000
0000
0000
0000
0000
0000
0000
0000
0000
1000
0000
0000
0000
0000
0000
0000
0000
0000
0000
0000
0000
0001
0000
0000
0000
0000
0000
0000
0000
0000
0000
0000
0000
0010
0000
0000
0000
0000
0000
0000
0000
0000
0000
0000
0000
,
0100
1000
0002
0003
1000
0000
0010
0000
0200
0000
0300
0000
0001
0100
0001
1000
,
0100
0000
0000
0000
0000
0000
0000
0000
0000
0000
0000
0000
0010
0000
0000
0000
0000
0000
0000
0000
0000
0000
0000
0000
0002
0000
0000
0000
0000
0000
0000
0000
0000
0000
0000
0000
0003
0000
0000
0000
0000
0000
0000
0000
0000
0000
0000
0000
0000
0000
0000
0000
0000
0000
0000
0000
0000
0000
0000
0000
0000
0020
0000
0000
0030
0000
0000
0000
0000
0000
0000
0000
0000
0000
0000
0000
0000
0000
0000
0000
0000
0000
0000
0000
0200
0000
0000
0000
0000
0000
0000
0000
0000
0000
0000
0000
1300
0000
0000
0000
0000
0000
0000
0000
0000
0000
0000
0000
0000
0000
0000
0000
0000
0000
0000
0000
0000
0000
0000
0000
0001
0000
0000
0000
0000
0000
0000
0000
0000
0000
0000
0000
0000
0000
0000
0000
0000
0000
0000
0000
0000
0000
0000
0000
1000
0000
0000
0000
0000
0000
0000
0000
0000
0000
0000
0000
0001
0000
0000
0000
0000
0000
0000
0000
0000
0000
0000
0000
1000
0000
0000
0000
0000
0000
0000
0000
0000
0000
0000
0000
0010
0000
0000
0000
0000
0000
0000
0000
0000
0000
0000
0000
,
0100
0000
0000
0000
0000
0000
0000
0000
0000
0000
0000
0000
0001
0000
0000
0000
0000
0000
0000
0000
0000
0000
0000
0000
2000
0000
0000
0000
0000
0000
0000
0000
0000
0000
0000
0000
3000
0000
0000
0000
0000
0000
0000
0000
0000
0000
0000
0000
0001
0000
0000
0000
0000
0000
0000
0000
0000
0000
0000
0000
0000
0020
0000
0000
0000
0000
0000
0030
0000
0000
0000
0000
0000
0000
0000
0000
0000
0000
0000
0000
0000
0000
0000
0000
0100
0000
0000
0000
0000
0000
0000
0000
0000
0000
0000
0000
2000
0000
0000
0000
0000
0000
0000
0000
0000
0000
0000
0000
3000
0000
0000
0000
0000
0000
0000
0000
0000
0000
0000
0000
0000
0000
0000
0000
0000
0000
0000
0000
0000
0000
0000
0000
0000
0000
0000
0000
0000
0000
0000
0000
0000
0000
0000
0000
0001
0000
0000
0000
0000
0000
0000
0000
0000
0000
0000
0000
1000
0000
0000
0000
0000
0000
0000
0000
0000
0000
0000
0000
0001
0000
0000
0000
0000
0000
0000
0000
0000
0000
0000
0000
0010
0000
0000
0000
0000
0000
0000
0000
0000
0000
0000
0000
,
0100
0000
0000
0000
0000
0000
0000
0000
0000
0000
0000
0000
1000
0000
0000
0000
0000
0000
0000
0000
0000
0000
0000
0000
0020
0000
0000
0000
0000
0000
0000
0000
0000
0000
0000
0000
0030
0000
0000
0000
0000
0000
0000
0000
0000
0000
0000
0000
0000
0000
0000
0000
0000
0000
0000
0000
0000
0000
0000
0000
0000
2000
0000
0000
0000
3000
0000
0000
0000
0000
0000
0000
0000
0000
0000
0000
0000
0000
0000
0000
0000
0000
0000
0000
0020
0000
0000
0000
0000
0000
0000
0000
0000
0000
0000
0000
0230
0000
0000
0000
0000
0000
0000
0000
0000
0000
0000
0000
0000
0000
0000
0000
0000
0000
0000
0000
0000
0000
0000
0000
0300
0000
0000
0000
0000
0000
0000
0000
0000
0000
0000
0000
0000
0000
0000
0000
0000
0000
0000
0000
0000
0000
0000
0000
0001
0000
0000
0000
0000
0000
0000
0000
0000
0000
0000
0000
0000
0000
0000
0000
0000
0000
0000
0000
0000
0000
0000
0000
0010
0000
0000
0000
0000
0000
0000
0000
0000
0000
0000
0000
0000
0000
0000
0000
0000
0000
0000
0000
0000
0000
0000
0000
,
0200
0000
0300
0000
1000
0100
1000
0100
0020
0000
0030
0000
0001
1000
0001
0010
,
0100
0000
0000
0000
1000
0000
0000
0000
0020
0000
0000
0000
0030
0000
0000
0000
0000
0000
0000
0000
0000
2000
0000
3000
0000
0000
0000
0000
0200
0000
0000
0000
0300
0000
0000
0000
0000
0000
0000
0000
0010
0000
0000
0000
0000
0000
0000
0000
0100
0000
0000
0000
1000
0000
0000
0000
0001
0000
0000
0000
1000
0000
0000
0000
,
0010
0000
0000
0000
0000
0000
0000
0000
0000
0000
0000
0000
0100
0000
0000
0000
0000
0000
0000
0000
0000
0000
0000
0000
0002
0000
0000
0000
0000
0000
0000
0000
0000
0000
0000
0000
0003
0000
0000
0000
0000
0000
0000
0000
0000
0000
0000
0000
0000
0000
0000
0000
0000
0000
0000
0000
0000
0000
0000
0000
0000
0200
0000
0000
0000
0300
0000
0000
0000
0000
0000
0000
0000
0000
0000
0000
0000
0000
0000
0000
0000
0000
0000
0000
0002
0000
0000
0000
0000
0000
0000
0000
0000
0000
0000
0000
2003
0000
0000
0000
0000
0000
0000
0000
0000
0000
0000
0000
0000
0000
0000
0000
0000
0000
0000
0000
0000
0000
0000
0000
3000
0000
0000
0000
0000
0000
0000
0000
0000
0000
0000
0000
0000
0000
0000
0000
0000
0000
0000
0000
0000
0000
0000
0000
0001
0000
0000
0000
0000
0000
0000
0000
0000
0000
0000
0000
1000
0000
0000
0000
0000
0000
0000
0000
0000
0000
0000
0000
0001
0000
0000
0000
0000
0000
0000
0000
0000
0000
0000
0000
0100
0000
0000
0000
0000
0000
0000
0000
0000
0000
0000
0000
,
0010
0000
0000
0000
1000
0000
0000
0000
0200
0000
0000
0000
0300
0000
0000
0000
0000
0000
0000
0000
0000
0020
0000
0030
0000
0000
0000
0000
0002
0000
0000
0000
0003
0000
0000
0000
0000
0000
0000
0000
1000
0000
0000
0000
0000
0000
0000
0000
0001
0000
0000
0000
0100
0000
0000
0000
0001
0000
0000
0000
1000
0000
0000
0000
,
0010
1000
0001
0000
0200
0000
0300
0000
0200
0000
0300
0000
0001
1000
0001
0010
,
0100
0000
0000
0000
1000
0000
0000
0000
0020
0000
0000
0000
0030
0000
0000
0000
0000
0000
0000
0000
0000
2000
0000
3000
0000
0000
0000
0000
0200
0000
0000
0000
0300
0000
0000
0000
0000
0000
0000
0000
0010
0000
0000
0000
0000
0000
0000
0000
0001
0000
0000
0000
1000
0000
0000
0000
0001
0000
0000
0000
0100
0000
0000
0000
,
0010
0000
0000
0000
1000
0000
0000
0000
0200
0000
0000
0000
0300
0000
0000
0000
0000
0000
0000
0000
0000
0020
0000
0030
0000
0000
0000
0000
0002
0000
0000
0000
1003
0000
0000
0000
0000
0000
0000
0000
0010
0000
0000
0000
0000
0000
0000
0000
0200
0000
0000
0000
0000
0000
0000
0000
0300
0000
0000
0000
0000
0000
0000
0000
,
0001
0000
0000
0000
0010
0000
0100
0000
200M
0000
000M
0000
000M
0000
000M
0000
000M
0000
000M
0000
000M
0000
300M
0000
002M
0030
0000
0000
2000
3000
0200
0300
,
0020
0030
0000
0000
0002
0003
0000
0000
1000
0000
0000
0000
0100
0000
1000
0000
0001
0000
0000
0000
1000
0000
0000
0000
0200
0000
0000
0000
0000
0000
0000
0000
,
0000
0000
0000
0000
,
0000
0000
0000
0000
,
0000
0000
0000
0000
,
0000
0000
0000
0000
,
0000
0000
0000
0000
,
0000
0000
0000
0000
,
0000
0000
0000
0000
,
0000
0000
0000
0000
,
0000
0000
0000
0000
,
0000
0000
0000
0000
,
0000
0000
0000
0000
,
0000
0000
0000
0000
0000
0300
0000
2000
,
0000
0000
0000
0000
,
0000
0000
0000
0000
,
0000
0000
0000
0000
,
0000
0000
0000
0000
,
0000
0000
0000
0000
,
0000
0000
0000
0000
,
0000
0000
0000
0000
,
0000
0000
0000
0000
,
0000
0000
0000
0000
,
0000
0000
0000
0000
,
0000
0000
0000
3000
0000
0200
0000
0000
,
0000
0000
0000
0000
,
0000
0000
0000
0000
,
0000
0000
0000
0000
,
0000
0000
0000
0000
,
0000
0000
0000
0000
,
0000
0000
0000
0000
,
0000
0000
0000
0000
,
0000
0000
0000
0000
,
0000
0000
0000
0000
,
0000
0000
0000
0000
,
0000
0300
0000
0020
0000
0000
0000
0000
,
0000
0000
0000
0000
,
0000
0000
0000
0000
,
0000
0000
0000
0000
0000
0000
0000
0030
,
0001
0000
0200
0300
0001
0000
0020
0030
0100
0000
0100
0000
1000
0000
0002
0003
,
0010
0100
0010
0100
1000
0001
1000
0001
1000
0001
1000
0001
0000
0000
0000
0000
,
1000
0100
1000
0001
0100
0000
0001
0100
0001
1000
0100
0000
0010
0000
0001
0000
,
1000
0100
1000
0001
0100
0000
0001
1000
0001
0100
0010
0000
1000
0000
0010
0000
,
1000
0001
0100
0010
0100
0000
0001
0010
0100
1000
0001
0000
0100
0000
0010
0000
,
1000
0010
1000
0001
0010
0100
1000
0010
0000
0100
0002
0003
1000
0100
0000
1000
,
0001
0100
0001
0010
0100
0000
1000
0001
1000
0010
0100
0000
0001
0000
1000
0000
,
0001
0010
0100
1000
0010
0000
1000
0001
1000
0010
0100
0000
0001
0000
1000
0000
,
0001
0100
0001
1000
0100
0000
0010
0001
1000
0001
1000
0000
0010
0000
0100
0000
,
0001
1000
0001
0010
0100
0000
2000
3000
0001
0100
0020
0030
1000
0100
0010
0000
,
0001
1000
0100
0010
0001
0000
1000
0001
1000
0010
0100
0000
0001
0000
1000
0000
,
0001
1000
0100
0010
0100
0000
1000
0010
1000
0001
0100
0000
0010
0000
1000
0000
,
0001
0100
0001
0010
0100
0000
1000
0010
1000
0001
0100
0000
0010
0000
1000
0000
,
0002
0003
2000
3000
0002
0003
2000
3000
0100
0000
0000
0000
0100
0000
0000
0000
0010
0000
0000
0000
0010
0000
0000
0000
0001
0000
0000
0000
0001
0000
0000
0000
,
1000
0100
1000
0001
0100
0000
0001
1000
0001
0100
0010
0000
1000
0000
0100
0000
,
0010
0001
1000
0001
0100
0000
0001
1000
0001
0100
0010
0000
1000
0000
0100
0000
,
0010
0001
1000
0001
0100
0000
0001
1000
0200
0300
0020
0030
0200
0300
0020
0030
,
0001
0000
0000
0000
1000
0000
0100
0000
0010
0000
0000
0000
0001
0000
0000
0000
2000
3000
0000
0000
0020
0030
0000
0000
0200
0300
0000
0000
0000
0000
0000
0000
,
0101
0000
0001
1000
0100
0000
1000
0001
1000
0001
0100
0000
0001
1000
0001
1000
,
0010
0000
1000
0001
0100
0001
0100
0000
0010
0000
0100
0000
0001
1000
0001
1000
,
0200
0300
0020
0030
0200
0300
0020
0030
0001
0000
0000
0000
0001
0000
0000
0000
1000
0000
0000
0000
1000
0000
0000
0000
0010
0000
0000
0000
0010
0000
0000
0000
,
1000
0000
0000
0001
0000
0000
1000
0000
0000
0010
0000
0000
0100
0000
0000
0001
0000
0000
1000
0000
0000
0100
0000
0000
0010
0000
0000
0000
0000
0000
0001
0000
0000
1000
0000
0000
0001
0000
0000
0000
0000
0000
1000
0000
0001
0000
0000
0000
,
0100
0000
0002
0003
0020
0000
0130
0000
1000
0000
0000
0000
0001
0000
0100
0000
0001
0000
1000
0000
0010
0000
1000
0000
0100
0000
0010
0000
0001
0000
1000
0000
,
0010
0000
0000
0000
2000
3000
0001
0000
1000
0000
0100
0000
0010
0000
0001
0000
0200
0000
0000
0000
0000
0000
0000
0000
0302
0003
0000
0020
0030
0000
0100
0000
,
1000
0000
0001
1000
0010
1000
0001
0000
0100
0000
0010
0000
1000
0001
1000
0100
,
0010
0000
0001
0000
1000
0000
0001
0000
02M0
0000
00M0
0000
00M0
0000
0300
0000
0001
0000
0000
0100
0000
0000
0001
0000
0000
1000
0000
0000
0200
0000
0300
0000
,
0010
0001
1000
0001
0100
0010
0100
0001
0010
0000
0100
0000
1000
0000
0010
0000
,
2000
3000
0200
0300
0020
0030
0200
0300
0010
0000
0000
0000
0001
0000
1000
0000
0001
0000
1000
0000
0010
0000
0000
0000
1000
0000
0001
0000
1000
0000
0000
0000
,
0020
0000
0030
0000
1000
0000
0001
0000
0200
0300
0001
0000
0010
0000
0100
0000
1000
0000
0000
0000
0010
0000
0000
0000
1000
0000
0000
0000
0001
0000
0000
0000
,
2000
3000
0200
0300
1000
0000
0001
0000
0100
0000
0000
0000
0020
0000
0000
0000
0030
0000
0000
0000
1000
0000
0000
0000
0001
0000
0000
0000
0001
0000
0000
0000
,
0100
0000
0000
0000
0001
0000
1000
0000
0200
0300
1000
0000
0001
0000
0010
0000
0100
0000
0000
0000
1000
0000
0000
0000
0010
0000
0000
0000
0100
0000
0000
0000
,
0001
0000
1000
0001
0010
0100
1000
0010
1000
0001
0100
0000
0001
0010
0100
1000
,
0001
0000
1000
0010
1000
0100
0010
0000
0001
0000
0001
0000
0100
0000
0100
0000
,
0001
0100
0000
0000
0001
1000
0000
0000
0010
0000
0000
0000
2000
0000
0000
0000
0000
0000
0000
0000
3000
0000
0000
0000
0200
0000
0300
0000
1000
0000
0001
0000
,
0100
0000
0010
0000
1000
0000
0001
0100
0001
0010
0100
0000
1000
0001
1000
0001
,
0020
0000
0030
0000
0200
0000
0300
0000
2000
0000
3000
0000
0001
0000
0100
0000
0001
0000
0010
0000
0100
0000
1000
0000
0002
0003
0000
0000
0200
0300
0000
0000
,
0010
0000
1000
0000
0100
0000
0010
0001
1000
0001
0100
0010
1000
0100
1000
0010
,
0100
0001
2000
3000
0001
0100
0001
0010
0100
0000
1000
0001
1000
0010
0100
0000
,
0001
1000
0001
0010
0400
0000
0000
0300
1000
0000
0010
0000
1000
0000
0100
0000
,
0020
0000
0030
0000
0002
0000
0003
0000
2000
0000
3000
0000
0001
0000
0100
0000
0010
0000
0100
0000
0001
0000
0000
0000
0020
0030
0000
0000
0200
0300
0000
0000
,
1000
0001
1000
0001
0100
0000
0020
0030
1000
0000
0200
0300
1000
0000
0020
0030
,
1000
0000
0000
0000
0100
0000
0000
0000
0000
0000
0000
0000
1000
0000
0000
0000
0001
0000
0000
0000
0000
0000
0000
0000
0100
0000
0000
0000
0000
0000
0000
0000
0002
0000
0000
0000
0003
0000
0000
0000
2000
0000
0000
0000
3000
0000
0000
0000
0002
0003
0000
0000
2000
3000
0000
0000
0020
0030
0000
0000
0200
0300
0000
0000
,
0002
0003
0000
0000
2000
3000
0000
0000
0020
0030
0000
0000
0200
0300
0000
0000
0002
0003
0000
0000
2000
3000
0000
0000
0020
0030
0000
0000
0200
0300
0000
0000
0002
0003
0000
0000
2000
3000
0000
0000
0020
0030
0000
0000
0200
0300
0000
0000
0001
0000
0000
0000
1000
0000
0000
0000
0100
0000
0000
0000
0000
0000
0000
0000
,
0010
0001
1000
0001
1000
0000
0001
0100
0001
0010
0100
0000
1000
0000
0010
0000
,
1000
0100
1000
0001
0100
0000
0001
0100
0010
1000
0010
0000
1000
0000
0100
0000
,
0010
0001
1000
0001
0100
0000
0001
1000
0001
0010
0100
0000
1000
0000
0010
0000
,
1000
0100
0010
0001
0100
0000
0001
1000
0001
0100
0010
0000
0100
0000
0001
0000
,
0010
0100
1000
0001
1000
0000
0001
0100
0001
1000
0100
0000
0010
0000
0001
0000
,
1000
0000
0200
0300
0010
0000
0002
0003
0100
0000
0020
0030
1000
0000
0200
0300
,
1000
0001
1000
0001
0100
0000
0020
0030
1000
0000
0200
0300
0010
0000
0002
0003
,
1000
0100
0010
0001
1000
0100
0010
0001
,
1000
0100
0010
0001
1000
0100
0010
0001
,
1000
0100
0010
0001
1000
0100
0010
0001
,
M000
0M00
00M0
000M
M000
0M00
00M0
000M
,
1000
0000
0100
0000
1000
0000
0001
0000
0200
0000
0300
0000
0001
0000
1000
0000
0001
0000
0100
0000
0010
0000
1000
0000
0200
0300
0010
0000
0001
0000
0000
0000
,
1000
0001
1000
0010
0100
0010
1000
0001
0100
0001
1000
0010
2000
3000
0200
0300
,
0010
0001
1000
0001
0100
0000
0001
1000
0001
0010
0100
1000
0001
1000
0100
0010
,
0001
0000
0000
0100
0000
0000
0001
0000
0000
1000
0000
0000
0010
0000
0000
1000
0000
0000
0100
0000
0000
0010
0000
0000
0001
0000
0000
0000
0100
0000
0000
0000
0001
0000
0000
0000
0010
0000
0000
0000
0100
0000
0000
0000
1000
0000
0000
0000
,
0001
0000
0000
0000
2000
0000
3001
0000
0100
0000
0000
0000
0010
0000
1000
0000
0100
0000
0010
0000
0001
0000
0100
0000
0001
0000
0000
0000
2000
0000
0000
3000
,
0002
0000
0000
0000
0000
0000
0003
0000
0010
0000
0000
0000
0100
0000
0000
0000
1000
0000
0001
0000
0100
0000
0001
0000
4000
3000
0400
0300
4000
3000
0040
0030
,
4000
3000
0000
0000
0001
0000
0010
0000
0100
0000
0000
0000
1000
0000
0010
0000
1000
0000
0001
0000
0100
0000
0001
0000
0010
0000
0100
0000
1000
0000
0010
0000
,
1000
0001
0100
0001
2000
0000
0000
0000
0000
0000
0000
0000
0000
0000
0000
3000
,
0001
0000
0000
0000
0000
0000
0000
0000
0000
0000
0000
0000
1000
0000
0000
0000
0000
0000
0000
0000
0000
0000
0000
0000
0010
0000
0000
0000
0000
0000
0000
0000
0000
0000
0000
0000
0100
0000
0000
0000
0000
0000
0000
0000
0000
0000
0000
0000
0002
0000
0000
0000
0000
0000
0000
0000
0000
0000
0000
0000
0003
0000
0000
0000
0000
0000
0000
0000
0000
0000
0000
0000
1000
0000
0000
0000
0000
0000
0000
0000
0000
0000
0000
0000
0010
0000
0000
0000
0000
0000
0000
0000
0000
0000
0000
0200
0000
0000
0000
0000
0300
0000
0000
0000
0000
0000
0000
0000
0000
0000
0000
0000
0000
0000
0000
0000
0000
0000
0000
0000
0001
0000
0000
0000
0000
0000
0000
0000
0000
0000
0000
0000
1000
0000
0000
0000
0000
0000
0000
0000
0000
0000
0000
0000
0100
0000
0000
0000
0000
0000
0000
0000
0000
0000
0000
0000
1000
0000
0000
0000
0000
0000
0000
0000
0000
0000
0000
0000
0010
0000
0000
0000
0000
0000
0000
0000
0000
0000
0000
0000
0100
0000
0000
0000
0000
0000
0000
0000
0000
0000
0000
0000
,
0010
1000
0001
0010
0001
0100
0020
1030
0100
0010
0100
1000
0020
0030
1000
0100
,
0010
0100
1000
0001
0200
0300
0020
1030
0001
1000
0010
0100
0002
0003
1000
0100
,
0010
0000
0100
0000
1000
0000
0001
0000
0200
0300
0000
0000
0002
0000
0003
0000
1000
0000
0100
0000
1000
0000
0001
0000
0040
0030
0400
0300
4000
3000
0040
0030
,
4000
3000
0001
0000
0100
0000
0001
0000
0020
0000
0030
0000
0100
0000
1000
0000
0100
0000
1000
0000
0020
0000
0030
0000
1000
0000
0001
0000
1000
0000
0100
0000
,
0010
0001
1000
0001
1000
0010
0100
0000
0001
1000
0001
0010
0200
0000
0300
0000
,
1000
0000
0000
0000
0100
0000
0000
0000
0000
0000
0000
0000
1000
0000
0000
0000
0001
0000
0000
0000
0000
0000
0000
0000
1000
0000
0000
0000
0001
0000
0000
0000
0200
0000
0000
0000
0300
0000
0000
0000
0001
0000
0000
0000
0010
0000
0000
0000
0000
0000
0000
0000
0100
0000
0000
0000
2000
3000
0000
0000
0020
0000
0030
0000
,
2000
3000
0000
0000
0200
0300
0000
0000
0020
0030
0000
0000
0002
0003
0000
0000
2000
0000
0000
0000
0000
0000
0000
0000
0000
0000
0000
0000
0000
0000
0000
0000
0000
0000
0000
0000
0000
0000
0000
0000
0000
0000
0000
0000
0000
0000
0000
0000
0000
0000
0000
0000
0000
0000
0000
0000
0000
0000
0000
0000
0000
0000
0000
0000
,
0000
0000
0000
0000
3100
0100
1000
1000
,
0010
0010
0100
0100
0001
0001
0010
0010
,
0100
0100
1000
1000
0010
0010
0100
0100
,
0001
0001
1000
1000
0100
0100
0010
0010
,
0001
0001
0100
0100
0010
0010
1000
1000
,
0001
0001
0010
0010
0100
0100
1000
1000
,
0010
0010
0100
0100
0001
0001
1000
1000
,
0001
0100
0001
1000
0100
0010
0001
4000
0004
0000
0000
0000
0000
0000
3003
0000
,
0001
1000
0000
0010
0100
0000
0001
1000
0002
0003
0020
0030
0100
0000
2000
3000
,
0010
1000
0100
0010
0002
0003
1000
0001
1000
0010
0100
0001
0010
0100
1000
0001
,
1000
0010
1000
0001
0200
0300
0001
1000
0001
0010
0100
1000
0020
0030
0200
0300
,
0001
0000
0000
0000
0000
0000
0000
0000
0000
0000
0000
0000
1000
0000
0000
0000
0000
0000
0000
0000
0000
0000
0000
0000
0010
0000
0000
0000
0000
0000
0000
0000
0000
0000
0000
0000
1000
0000
0000
0000
0000
0000
0000
0000
0000
0000
0000
0000
0100
0000
0000
0000
0000
0000
0000
0000
0000
0000
0000
0000
0000
0000
0000
0000
0000
0000
0000
0000
0000
0000
0000
0000
0010
0000
0000
0000
0000
0000
0000
0000
0000
0000
0000
0000
0000
0000
0000
0000
0000
0000
0000
0000
0000
0000
0000
0000
0001
0000
0000
0000
0000
0000
0000
0000
0000
0000
0000
0000
0000
0000
0000
0000
0000
0000
0000
0000
0000
0000
0000
0000
0100
0000
0000
0000
0000
0000
0000
0000
0000
0000
0000
0000
0000
0000
0000
0000
0000
0000
0000
0000
0000
0000
0000
0000
0002
0000
0000
0000
0000
0000
0000
0000
0000
0000
0000
0000
0000
0000
0000
0000
0000
0000
0000
0000
0000
0000
0000
2000
3003
0000
0000
0000
0000
0000
0000
0000
0000
0000
0000
0000
0000
0000
0000
0000
0000
0000
0000
0000
0000
0000
0000
0000
,
0001
0100
0001
0010
0200
0300
1000
0001
1000
0010
0100
0001
0100
0010
1000
0001
,
0100
0000
0010
0000
1000
0000
0100
0000
0010
0000
0002
0003
0200
0300
0010
0000
1000
0000
0100
0000
0010
0000
0001
0000
2000
0000
0000
0000
3000
0000
0000
0000
,
0010
0200
0000
0300
0001
0000
0010
0200
0000
0300
1000
0000
0001
1000
0100
0010
,
0100
0000
1000
0010
1000
0000
0001
1000
0001
0100
0010
1000
0002
0000
0000
0003
,
2000
0000
3000
0000
2000
0000
3000
0000
0020
0000
0030
0000
1000
0000
0001
0000
1000
0000
0010
0000
0100
0000
0001
0000
0010
0000
0000
0000
0200
0300
0000
0000
,
1000
0010
1000
0001
0100
0000
0001
1000
0001
1000
0010
0100
0001
0000
1000
0001
,
1000
0100
0010
0100
1000
0001
0100
0010
0100
0001
1000
0100
1000
0001
0100
0010
,
2000
0000
3100
0000
0010
0000
0001
0000
4000
3000
0400
0300
4000
3000
0040
0030
4000
3000
0000
0000
0001
0000
0000
0000
0100
0000
0000
0000
0002
0000
0003
0000
,
0010
0200
0300
1000
0002
0003
1000
0010
0200
0301
1000
0100
0020
0030
0002
0003
,
1000
0000
0001
0100
0010
0000
1000
0000
0100
0000
0010
0000
0001
1000
0100
1000
,
0002
0003
0000
0000
0000
0000
0000
0000
0000
0000
0000
0000
1000
0000
0000
0000
0000
0000
0000
0000
0000
0000
0000
0400
0300
0000
0000
0000
0000
0000
0000
0000
0000
0000
0000
0000
0010
0000
0000
0000
0000
0000
0000
0000
0000
0000
0000
0000
0001
0000
0000
0000
0000
0000
0000
0000
0000
0000
0000
0000
0000
0000
0000
0000
0000
0000
0000
0000
0000
0000
0000
0000
2000
0000
0000
0000
0000
0000
0000
0000
0000
0000
0000
0000
0000
0000
0000
0000
0000
0000
0000
0000
0000
0000
0000
0000
0000
0000
0000
0000
0000
0000
0000
0000
0000
0000
0000
0000
0000
0000
0000
0000
0000
0000
0000
0000
0000
0000
0000
0000
0000
0000
0000
0000
0000
0000
0000
0000
0000
0000
0000
0000
0000
0000
0000
0000
0000
0000
0000
0000
0000
0000
0000
0000
3010
0000
0000
0000
0000
0000
0000
0000
0000
0000
0000
0000
0000
0000
0000
0000
0000
0000
0000
0000
0000
0000
0000
0000
1000
0000
0000
0000
0000
0000
0000
0000
0000
0000
0000
0000
0100
0000
0000
0000
0000
0000
0000
0000
0000
0000
0000
0000
,
1000
0010
0100
0001
0010
0100
1000
0010
1000
0001
0100
0001
0010
0100
1000
0010
,
1000
0000
0000
0000
0000
0000
0000
0000
0000
0000
0000
0000
0001
0000
0000
0000
0000
0000
0000
0000
0000
0000
0000
0000
0000
0000
0000
0000
0000
0000
0000
0000
0000
0000
0000
0000
0100
0000
0000
0000
0000
0000
0000
0000
0000
0000
0000
0000
0001
0000
0000
0000
0000
0000
0000
0000
0000
0000
0000
0000
0000
0000
0000
0000
0000
0000
0000
0000
0000
0000
0000
0000
1000
0000
0000
0000
0000
0000
0000
0000
0000
0000
0000
0000
0001
0000
0000
0000
0000
0000
0000
0000
0000
0000
0000
0000
0200
0000
0000
0000
0000
0000
0300
0000
0000
0000
0000
0000
0000
0000
0000
0000
0000
0000
0000
0000
0000
0000
0000
0000
0200
0000
0000
0000
0000
0000
0300
0000
0000
0000
0000
0000
0000
0000
0000
0000
0000
0000
0000
0000
0000
0000
0000
0000
0020
0000
0000
0000
0000
0000
0030
0000
0000
0000
0000
0000
0000
0000
0000
0000
0000
0000
0000
0000
0000
0000
0000
0000
0020
0000
0000
0000
0030
0000
0000
0000
0000
0000
0000
0000
0000
0000
0000
0000
0000
0000
0000
0000
0000
0000
0000
0000
,
1000
0000
0100
0000
1000
0000
0010
0000
0100
0000
0001
0000
1000
0000
0100
0000
0010
0000
0001
0000
1000
0000
0001
0000
0200
0300
0000
0000
0001
0000
1000
0000
,
0001
0000
0010
0000
0100
0000
1000
0000
0020
0000
0000
0030
0100
0000
0001
0000
0100
0000
0010
0000
1000
0000
0001
0000
0010
0000
0000
0000
0100
0000
0000
0000
,
1000
0100
1000
0010
0100
0000
0010
0000
2000
3000
0002
0003
2000
3000
0020
0030
,
0100
0001
0010
0100
1000
0000
0020
0030
1000
0001
0100
0001
2000
3000
0001
0010
,
0100
0010
0001
1000
0020
0030
0100
0001
0010
0100
2000
3000
0001
0100
0010
1000
,
0100
0010
0001
0000
2000
3000
0001
0100
0001
1000
0100
0010
0001
1000
0020
0030
,
0200
0300
0001
0000
1000
0000
0100
0000
4000
3000
0040
0030
0400
0300
0004
0003
0040
0030
0000
0000
0100
0000
0000
0000
1000
0000
0000
0000
0010
0000
0000
0000
,
0100
0000
0002
0003
0100
0000
0002
0003
0010
0000
0100
1000
0010
0100
0001
1000
,
0100
0010
0100
1000
0001
0000
1000
0100
1000
0010
0100
0001
1000
0100
1000
0010
,
0100
0001
0100
0010
1000
0001
1000
0100
0010
0001
0100
0001
1000
0100
0010
0100
,
1000
0010
0100
0001
0100
0010
1000
0001
1000
0100
0010
0001
0100
0001
1000
0010
,
1000
0002
0000
0003
0100
0000
0001
1000
0001
0010
0100
1000
0002
0003
1000
0000
,
0100
0000
1000
0001
1000
0010
0100
0000
0001
0000
1000
0000
0001
0100
0001
0010
,
0100
0000
1000
0000
0001
0000
0100
0000
0010
0000
0000
0000
2000
0000
0000
0000
3001
0000
0000
0000
0100
0000
0000
0000
0002
0003
2000
3000
0010
0000
0100
0000
,
0010
1000
0001
0010
0100
1000
0010
1000
0004
0000
0000
0000
0000
0000
0000
0000
,
0000
0000
0000
0000
,
0000
0000
0000
0000
,
0000
0000
0000
0000
0000
0003
0000
0000
,
0000
0000
000M
00M0
0M00
M000
000M
00M0
0M00
M000
000M
00M0
0M00
M000
000M
00M0
0M00
M000
000M
00M0
0M00
M000
000M
0000
,
0100
0010
0100
0001
0010
0100
2000
0000
0000
0000
0000
0000
0000
0000
0000
0000
,
00MM
0000
0000
0000
0000
00MM
0000
0000
,
0000
00MM
0000
00MM
,
0000
0000
0000
00MM
0000
0000
0000
0000
,
00MM
0000
0000
0000
0000
00MM
0000
0000
,
00MM
0000
0000
0000
0000
00MM
0000
0000
,
0000
0000
00MM
0000
0000
0000
0000
00MM
,
0000
0000
00MM
0000
,
3000
0000
0000
0000
;
