#TITLE:Boten Anna (STPTB Remix);
#SUBTITLE:Mandodo Style;
#ARTIST:Unknown artist;
#TITLETRANSLIT:;
#SUBTITLETRANSLIT:;
#ARTISTTRANSLIT:;
#CREDIT:;
#BANNER:;
#BACKGROUND:;
#LYRICSPATH:;
#CDTITLE:!cdTitle.png;
#MUSIC:basshunter - boten anna (skillstopaythebills remix).ogg;
#OFFSET:-8.082;
#SAMPLESTART:61.132;
#SAMPLELENGTH:11.820;
#SELECTABLE:YES;
#BPMS:0.000=135.000,18.500=260.020,19.000=67.500,19.500=135.001,20.500=67.501,21.000=135.001,22.000=67.501,22.500=135.001,23.500=67.501,24.000=135.001,25.000=67.501,25.500=135.001,26.500=67.501,27.000=135.001,28.000=67.501,28.500=135.001,29.500=67.501,30.000=135.001,31.000=67.501,31.500=135.001,32.500=67.501,33.000=135.001,34.000=67.501,34.500=135.001,35.500=67.501,36.000=135.001,37.000=67.501,37.500=135.001,38.500=67.501,39.000=135.001,40.500=67.501,41.500=135.001,42.000=135.001,44.000=67.501,44.500=135.001,45.500=67.501,46.000=135.001,47.000=67.501,47.500=135.001,48.500=67.501,49.000=135.001,50.000=67.501,50.500=135.001,51.500=67.501,52.000=135.001,53.000=67.501,53.500=135.001,54.500=67.501,55.000=135.001,56.000=67.501,56.500=135.001,57.500=67.501,58.000=135.001,59.000=67.501,59.500=135.001,60.500=67.501,61.000=135.001,62.000=67.501,62.500=135.001,63.500=67.500,64.000=270.001,68.000=135.000,69.000=67.500,69.500=135.000,70.500=67.500,71.000=135.000,72.000=67.500,72.500=135.000,73.500=67.500,74.000=135.000,75.000=67.500,75.500=135.000,76.500=67.500,77.000=135.000,78.000=67.500,78.500=135.000,79.500=67.500,80.000=135.000,81.000=67.500,81.500=135.000,82.500=67.500,83.000=135.000,84.000=67.500,84.500=135.000,85.500=67.500,86.000=135.000,87.000=67.500,87.500=135.000,88.500=67.500,89.000=270.001,89.500=135.001,90.000=270.001,90.500=135.000,91.000=270.000,91.500=135.000,92.000=135.000,94.000=-135.000,95.000=135.000,99.667=-135.000,100.667=135.000,105.000=270.000,106.000=135.000,109.667=-135.000,110.667=135.000,132.000=-135.001,133.000=135.000,137.667=-135.000,138.667=135.000,144.000=-135.000,145.000=135.000,149.667=-135.000,150.667=135.000,156.000=-135.000,157.000=135.000,173.000=67.500,173.500=135.000,174.500=67.500,175.000=135.000,176.000=67.500,176.500=135.000,177.500=67.500,178.000=135.000,179.000=67.520,179.500=135.000,180.500=67.500,181.000=135.000,182.000=67.520,182.500=135.000,183.500=67.500,184.000=135.000,185.000=67.500,185.500=135.000,186.500=67.500,187.000=135.000,188.000=67.500,188.500=135.000,189.500=67.500,190.000=135.000,191.000=67.500,191.500=135.000,192.500=67.500,193.000=135.000,194.000=260.020,198.000=67.500,198.500=135.000,199.500=67.500,200.000=135.000,201.000=67.500,201.500=135.000,202.500=67.500,203.000=135.000,204.000=67.500,204.500=135.000,205.500=67.500,206.000=135.000,207.000=67.500,207.500=135.000,208.500=67.499,209.000=135.000,210.000=67.499,210.500=134.999,211.500=67.499,212.000=134.999,213.000=67.499,213.500=134.999,214.500=67.499,215.000=134.999,216.000=67.499,216.500=134.999,217.500=67.499,218.000=134.999,219.000=67.499,219.500=134.999,220.500=67.499,221.000=134.999,222.000=67.499,222.500=134.999,223.500=67.499,224.000=134.999,225.000=67.499,225.500=134.999,226.500=67.499,227.000=134.999,228.000=67.499,228.500=134.999,229.500=67.499,230.000=134.999,232.250=67.499,233.000=270.000,234.000=134.999,235.000=67.499,235.500=134.999,236.500=67.499,237.000=134.999,238.000=67.499,238.500=134.999,239.500=67.519,240.000=134.999,241.000=67.499,241.500=134.999,242.500=67.519,243.000=134.999,244.000=67.499,244.500=134.999,245.500=67.499,246.000=134.999,247.000=67.499,247.500=134.999,248.500=67.499,249.000=134.999,250.000=67.499,250.500=134.999,251.500=67.499,252.000=134.999,253.000=67.499,254.000=134.999,255.000=270.000,259.000=134.999,260.000=67.499,260.500=134.999,261.500=67.499,262.000=134.999,263.000=67.499,263.500=134.999,264.500=67.499,265.000=134.999,266.000=67.499,266.500=134.999,267.500=67.499,268.000=135.000,269.000=67.499,269.500=134.999,270.500=67.479,271.000=135.000,272.000=67.499,272.500=134.999,273.500=67.499,274.000=134.999,275.000=67.499,275.500=134.999,276.500=67.499,277.000=134.999,278.000=67.499,278.500=134.999,280.500=67.499,282.000=135.000,283.000=67.499,283.500=135.000,286.500=67.499,287.000=134.999,290.000=67.499,290.500=135.000,293.500=67.499,294.000=135.000,296.250=270.000,297.000=135.000,301.000=67.500,301.500=135.000,304.500=67.500,305.000=135.000,308.000=270.000,309.500=135.000,343.500=140.000,344.500=135.000,345.000=134.999,347.500=67.499,348.000=134.999,349.000=67.499,349.500=135.000,350.500=67.499,351.000=135.000,352.000=67.499,352.500=135.000,353.500=67.499,354.000=135.000,355.000=67.499,355.500=134.999,356.500=67.499,357.000=134.999,358.000=67.499,358.500=134.999,359.500=67.499,360.000=134.999,361.000=67.499,361.500=134.999,362.500=67.499,363.000=134.999,364.000=67.499,364.500=134.999,365.500=67.499,366.000=134.999,367.000=67.499,367.500=134.999,370.000=270.000,370.500=270.000,371.000=135.000,372.000=67.499,372.500=135.000,373.500=67.519,374.000=135.000,375.000=67.499,375.500=135.000,376.500=67.519,377.000=135.000,378.000=67.499,378.500=135.000,379.500=67.519,380.000=135.000,381.000=67.499,381.500=135.000,382.500=67.499,383.000=135.000,384.000=67.499,384.500=134.999,385.500=67.499,386.000=134.999,387.000=67.499,387.500=134.999,388.500=67.499,389.000=134.999,390.000=67.499,390.500=134.999,391.500=67.499,393.000=134.999,394.000=134.999,395.000=269.999,399.000=67.499;
#STOPS:18.500=0.120
,64.000=0.220
,65.000=0.220
,66.000=0.220
,67.000=0.225
,89.000=0.110
,90.000=0.110
,91.000=0.110
,105.000=0.060
,105.250=0.060
,105.500=0.060
,105.750=0.060
,194.000=0.100
,194.500=0.120
,195.000=0.215
,196.000=0.135
,196.500=0.080
,197.000=0.205
,233.000=0.325
,255.000=0.220
,256.000=0.220
,257.000=0.220
,258.000=0.225
,282.000=0.030
,296.250=0.175
,308.000=0.205
,308.500=0.205
,309.000=0.070
,309.250=0.070
,368.500=0.220
,369.000=0.220
,369.500=0.220
,370.000=0.240
,395.000=0.220
,396.000=0.220
,397.000=0.220
,398.000=0.220
;
#BGCHANGES:;
// cache tags:
#FIRSTBEAT:4.000;
#LASTBEAT:399.500;
#SONGFILENAME:Songs/lvsb tourney pack/(Mandodo) Boten Anna -Skillstopaythebills remix-/Boten Anna -Skillstopaythebills remix-.sm;
#HASMUSIC:1;
#HASBANNER:0;
#MUSICLENGTH:105.000;
// end cache tags

//---------------dance-single - ----------------
#NOTES:
     dance-single:
     :
     Challenge:
     11:
     1.000,1.000,0.895,1.000,1.000,984.000,94.000,106.000,182.000,7.000:


0000
0000
0000
0000
,
1001
0000
1010
0000
,
0110
0000
1100
0000
,
1001
0000
0000
0000
0000
0000
0000
0000
0110
0000
0000
0000
0100
0000
0001
1000
,
0100
0000
0010
0000
0001
0000
0010
0000
0001
0000
0100
0000
0010
0000
1000
0000
0010
0000
0100
0000
0010
0000
MMMM
0000
0120
0000
0000
1030
0100
0000
0000
0000
,
0010
0000
0000
0000
0200
M0MM
0300
1000
0001
0000
0000
0000
0100
0000
0000
0000
0002
MMM0
0003
1000
0010
0000
0000
0000
0010
0000
0000
0000
0200
M0MM
0000
0301
,
0010
0000
0000
0000
0010
0000
0000
0000
0200
M0MM
0000
1300
0001
0000
0000
0000
0001
0000
0000
0000
2000
0MMM
0000
3010
0100
0000
0000
0000
0100
0000
0000
0000
,
0020
MM0M
0030
1000
0100
0000
0000
0000
0010
0000
0000
0000
0002
MMM0
0000
1003
0010
0000
0000
0000
0100
0000
0000
0000
0002
MMM0
0000
1003
0100
0000
0000
0000
,
0010
0000
0000
0000
0200
M0MM
0000
0310
0001
0000
0000
0000
0001
0000
0000
0000
0200
M0MM
0000
0310
1000
0000
0000
0000
1000
0000
0000
0000
0002
MMM0
0000
1003
,
0100
0000
0000
0000
0100
0000
0000
0000
0020
MM0M
0000
0130
1000
0000
0000
0000
0100
0000
0000
0000
2000
0MMM
0000
3010
0100
0000
0000
0000
0001
0000
0000
0000
,
1000
0000
0000
0000
0000
0000
0002
0000
0000
0203
0000
0000
0320
0000
0000
2030
0000
0000
3200
0000
0000
0300
0000
0000
0010
0000
0000
0000
0000
0000
0001
0000
1000
0000
0001
0000
1000
0000
0000
0000
0000
0000
0000
0000
0000
0001
0000
0000
,
1000
0000
1000
0000
0002
0000
0000
MMM0
0003
0000
0001
0000
1000
0000
1000
0000
0002
0000
0000
MMM0
0003
0000
0001
0000
0010
0000
0010
0000
0200
0000
0000
M0MM
,
0300
0000
0100
0000
1000
0000
1000
0000
0200
0000
0000
M0MM
0300
0000
0010
0000
0001
0000
0001
0000
0200
0000
0000
M0MM
0300
0000
0001
0000
0100
0000
0010
0000
,
2000
0000
0000
0MMM
3000
0000
0100
0000
0010
0000
0001
0000
0020
0000
0000
MM0M
0030
0000
0010
0000
0001
0000
0001
0000
2000
0000
0000
0MMM
3000
0000
0010
0000
,
1000
0000
1000
0000
0020
0000
0000
MM0M
0030
0000
0010
0000
1000
0000
0001
0000
0200
0000
0000
M0MM
0300
0000
0010
0000
0100
0000
0001
0000
0200
0000
0000
M0MM
,
0300
0000
0010
0000
0100
0000
0010
0000
2000
0000
0000
0MMM
3000
0000
1000
0000
0001
0000
0010
0000
0200
0000
0000
M0MM
0300
0000
0010
0000
0001
0000
0010
0000
,
1001
0MM0
0000
0000
0011
MM00
0000
0000
1010
0M0M
0000
0000
0101
M0M0
0000
0000
,
1001
0MM0
0000
1000
0010
0100
2002
3003
0001
0010
0100
0010
1001
0000
0100
0010
,
0100
0010
1001
0000
1000
0100
0010
0001
0011
0000
0001
0100
0010
1000
1010
0000
,
0010
0100
0001
1000
1100
0000
0001
0010
0100
0010
0110
0000
0100
1000
0001
1000
,
0101
0000
0001
0100
0010
0100
1001
0000
1000
0010
0100
0001
0011
0000
1000
0001
,
0100
0010
0101
0000
0001
1000
0100
0010
1001
0000
0001
0100
0010
0100
1001
0000
,
0001
0010
0100
1000
0002
0003
1000
0000
1001
0000
0001
0000
1010
0000
0100
0000
,
1010
0000
0000
0000
0000
0000
0000
0000
1000
0000
0000
0000
0000
0000
0000
0000
0002
0000
0000
0000
0000
0000
0000
0000
0000
0000
0000
0000
0000
0000
0000
0003
0000
0000
0000
0000
0000
0000
0000
0000
000M
0000
0000
0000
0000
0000
0000
0000
0000
0000
0000
0000
0000
0000
0000
0000
0000
0000
0000
0000
0000
0000
0000
0000
,
0002
0000
0000
0000
0000
0000
0000
0000
0000
0000
0000
0000
0000
0000
0000
0000
0000
0000
0000
0000
0000
0000
0000
0000
0000
0000
0000
0000
0000
0000
0000
0000
0000
0000
0000
0000
0000
0000
0000
0000
0000
0000
0003
0000
0000
0000
0000
0000
0000
0000
0000
0000
0000
0000
0000
0000
0000
0000
0000
0000
0000
0000
0000
0000
0000
0000
0000
0000
0000
0000
0000
0000
0000
0000
0000
0000
0000
0000
0000
0000
0100
0000
0000
0000
0000
0000
0000
0000
0000
0000
0000
0000
0000
0000
0000
0000
0010
0000
0000
0000
0000
0000
0000
0000
0000
0000
0000
0000
0000
0000
0000
0000
0000
0000
0000
0000
0000
0000
0000
0000
0000
0000
0000
0000
0000
0000
0000
0000
2000
0000
0000
0000
0000
0000
0000
0000
3000
0000
0000
0000
0000
0000
0000
0000
0200
0000
0000
0000
0000
0000
0000
0000
0000
0000
0000
0000
0000
0000
0000
0000
0300
0000
0000
0000
0000
0000
0000
0000
0000
0000
0000
0000
0000
0000
0000
0000
0000
0000
0000
0000
0000
0000
0000
0000
0000
0000
0000
0000
0000
0000
0000
0000
,
M000
0000
0000
0000
0000
0000
0000
0000
0000
0000
0000
0000
0000
0000
0000
0000
0000
0000
0M00
0000
0000
0000
0000
0000
0000
0000
0000
0000
0000
0000
0000
0000
0000
0000
0000
0000
0000
0000
0000
0000
0000
0000
0000
0000
0000
0000
0000
0000
0000
0000
0000
0000
0000
0000
0000
0000
0000
0000
0000
0000
0000
0000
0000
0000
0000
0000
0000
0000
0000
0000
0000
0000
0000
0000
0000
0000
0000
0000
0000
0000
0200
0000
0000
0000
0000
0000
0000
0000
0000
0000
0000
0000
0000
0000
0000
0000
0000
0000
0000
0000
0000
0000
0000
0000
0000
0000
0000
0000
0000
0000
0000
0000
0300
0000
0000
0000
0000
0000
0000
0000
0000
0000
0000
0000
0000
0000
0000
0000
0100
0000
0000
0000
0000
0000
0000
0000
0000
0000
0000
0000
0000
0000
0000
0000
0010
0000
0000
0000
0000
0000
0000
0000
0000
0000
0000
0000
0000
0000
0000
0000
0000
0000
0000
0000
0000
0000
0000
0000
0000
0000
0000
0000
0000
0000
0000
0000
0001
0000
0000
0000
0000
0000
0000
0000
0000
0000
0000
0000
0000
0000
0000
0000
,
1000
0000
0010
0200
000M
M000
03M0
0000
0000
0000
0000
0010
,
1000
0000
0000
0000
0020
0030
0200
0000
0300
0000
0000
0000
00M0
0000
0M00
0000
0000
0000
0000
0000
0000
0000
0200
0000
,
0000
0300
0100
0001
0000
0001
0100
0000
0100
0020
0000
0000
,
0030
0000
0000
0000
0000
1000
0100
0000
1000
0002
0000
0000
,
0103
0000
0010
0000
0000
0100
0001
0000
1000
0000
0000
0200
,
0000
0000
0300
0000
0000
0010
0001
0000
0001
0100
0000
0100
,
0010
0000
1000
0100
0000
1000
0001
1000
0100
0020
0000
0000
,
0000
0000
0000
0000
0000
0000
0000
0000
0030
0100
0000
1000
,
0001
0000
0000
0000
0000
0000
0000
0000
0002
0000
0003
0000
0200
0000
0000
0000
0300
0000
0000
0000
0000
0000
0000
0000
0000
0000
0000
0M00
0000
0000
0000
0000
0000
0000
0000
0000
0000
0000
0000
0000
0000
0000
0000
0000
0200
0000
0000
0000
,
0000
0300
0100
0010
0000
1000
0100
0000
0100
2000
0000
0000
,
0000
0000
0000
0000
0000
0000
0000
0000
0000
3000
0000
1000
,
0010
0000
0000
0000
0200
0300
0020
0000
0000
0000
0000
0000
0000
0000
0000
0000
0000
0000
0000
0000
0000
0000
0000
0000
,
0000
0000
0000
0000
0000
0000
0000
0000
0000
0000
0000
0000
0000
0000
0000
0000
0030
0000
0000
0000
0000
0000
0000
0000
0000
0000
0000
0000
0000
0000
0000
0000
0100
0000
0000
0000
0000
0000
0000
0000
0000
0000
0000
0000
0000
0000
0000
0000
0001
0000
0000
0000
0000
0000
0000
0000
0000
0000
0000
0000
0000
0000
0000
0000
0000
0000
0000
0000
0000
0000
0000
0000
0000
0000
0000
0000
0000
0000
0000
0000
1000
0000
0000
0000
0000
0000
0000
0000
0000
0000
0000
0000
0000
0000
0000
0000
0100
0000
0000
0000
0000
0000
0000
0000
0000
0000
0000
0000
0000
0000
0000
0000
0000
0000
0000
0000
0000
0000
0000
0000
0000
0000
0000
0000
0000
0000
0000
0000
0001
0000
0000
0000
0000
0000
0000
0000
0000
0000
0000
0000
0000
0000
0000
0000
0200
0000
0000
0000
0000
0000
0000
0000
0000
0000
0000
0000
0000
0000
0000
0000
0000
0000
0000
0000
0000
0000
0000
0000
0000
0000
0000
0000
0000
0000
0000
0000
0000
0000
0000
0000
0000
0000
0000
0000
0000
0000
0300
0000
0000
0000
0000
0000
,
0000
0000
0000
0000
0000
0000
0000
0000
0000
0000
0000
0000
0000
0000
0000
0000
0000
0000
0000
0000
0000
0000
0000
0000
0M00
0000
0000
0000
0000
0000
0000
0000
0000
0000
0000
0000
0000
0000
0000
0000
0000
0000
0000
0000
0000
0000
0000
0000
0000
0000
0000
0000
0000
0000
0000
0000
0000
0000
0000
0000
0000
0000
0000
0000
0000
0000
0000
0000
0000
0000
0000
0000
0000
0000
0000
0000
0000
0000
0000
0000
0000
0000
0000
0000
0000
0000
0000
0000
0000
0000
0000
0000
0000
0000
0000
0000
0200
0000
0000
0000
0000
0000
0000
0000
0000
0000
0000
0000
0000
0000
0000
0000
0000
0000
0000
0000
0000
0000
0000
0000
0000
0000
0000
0000
0000
0000
0000
0000
0000
0000
0000
0000
0000
0000
0000
0000
0000
0000
0300
0000
0000
0000
0000
0000
0000
0000
0000
0000
0000
0000
0000
0000
0000
0000
0000
0000
0000
0000
0000
0000
0000
0000
0000
0000
0000
0000
0000
0000
0000
0000
0000
0000
0000
0000
0000
0000
0010
0000
0000
0000
0000
0000
0000
0000
0000
0000
0000
0000
0000
0000
0000
0000
,
1000
0000
1000
1100
0000
0000
1002
0000
0103
0000
0000
0010
,
0100
0000
0001
0000
0000
0020
0000
0000
0030
0200
0300
1000
,
0001
0000
0001
1000
0000
1000
0010
0000
0100
0010
0000
0100
,
0001
0000
0000
0000
0000
0000
0000
0000
0000
0000
0000
0000
0000
0000
0000
0000
1000
0000
0000
0000
0000
0000
0000
0000
0000
0000
0000
0000
0000
0000
0000
0000
0100
0000
0000
0000
0000
0000
0000
0000
0000
0000
0000
0000
0000
0000
0000
0000
0020
0000
0000
0000
0000
0000
MM0M
0000
0000
0000
0000
0000
0000
0000
0000
0000
0000
0000
0130
0000
0000
0000
0000
0000
1000
0000
0000
0000
0000
0000
0000
0000
0000
0000
0000
0000
0000
0000
0000
0000
0000
0000
0000
0000
0000
0000
0000
0000
0100
0000
0000
0000
0000
0000
0000
0000
0000
0000
0000
0000
0000
0000
0000
0000
0000
0000
0000
0000
0000
0000
0000
0000
0020
0000
0000
0000
0000
0000
MM0M
0000
0000
0000
0000
0000
0000
0000
0000
0000
0000
0000
0031
0000
0000
0000
0000
0000
0100
0000
0000
0000
0000
0000
0000
0000
0000
0000
0000
0000
0000
0000
0000
0000
0000
0000
0000
0000
0000
0000
0000
0000
0100
0000
0000
0000
0000
0000
0000
0000
0000
0000
0000
0000
0000
0000
0000
0000
0000
0000
0000
0000
0000
0000
0000
0000
,
0020
MM0M
0000
1030
0010
0000
0000
0000
0100
0000
0000
0000
0020
MM0M
0000
1030
0001
0000
0000
0000
0001
0000
0000
0000
2000
0MMM
0000
3100
0010
0000
0000
0000
,
0100
0000
0000
0000
2000
0MMM
0000
3001
0100
0000
0000
0000
0100
0000
0000
0000
0002
MMM0
0000
0013
0001
0000
0000
0000
0010
0000
0000
0000
0200
M0MM
0000
1300
,
0001
0000
0000
0000
1000
0000
0000
0000
0020
MM0M
0000
1030
0100
0000
0000
0000
0010
0000
0000
0000
0200
M0MM
0000
0310
0001
0000
0000
0000
0100
0000
0000
0000
,
0020
MM0M
0000
0130
0001
0000
0000
0000
0100
0000
0000
0000
0020
MM0M
0000
1030
0100
0000
0000
0000
1000
0000
0000
0000
1020
0M0M
0000
0130
0001
0000
0000
0000
,
0010
0000
0000
0000
0210
M00M
0000
1300
0001
0000
0000
0000
0100
0000
0000
0000
0200
0000
0300
0000
0100
0000
0000
0000
0010
0000
0000
0000
0000
0000
0000
0000
,
0100
0000
0000
0000
0001
0000
0000
0000
2000
0000
3000
0000
0000
0000
0000
0000
1001
0000
0000
1000
0100
0000
0000
0000
0010
0000
0000
0000
0001
0000
0000
0100
,
0010
0000
0000
0000
0100
0000
0000
0000
0010
0000
0000
0100
0001
0000
0000
0000
1000
0000
0000
0000
0001
0000
0000
0010
0001
0000
0000
0000
0100
0000
0000
0000
,
0010
0000
0000
0100
0001
0000
0000
0000
0100
0000
0000
0000
0001
0000
0000
1000
0001
0000
0000
0000
1000
0000
0000
0000
0002
1000
0103
0010
0001
0000
0100
0000
,
0010
0000
0000
0000
0000
0000
0000
0000
0000
0000
0000
0000
1000
0000
0000
0000
0000
0000
0000
0000
0000
0000
0000
0000
0001
0000
0000
0000
0000
0000
1000
0000
0000
0000
0000
0000
0001
0000
0000
0000
0000
0000
0100
0000
0000
0000
0000
0000
0010
0000
0000
0000
0000
0000
0000
0000
0000
0000
0000
0000
1000
0000
0000
0000
0000
0000
0000
0000
0000
0000
0000
0000
0001
0000
0000
0000
0000
0000
0000
0000
1000
0000
0000
0000
0000
0000
0000
0000
0001
0000
0000
0000
0000
0000
0000
0000
0100
0000
0000
0000
0000
0000
0000
0000
0000
0000
0000
0000
0000
0000
0000
0000
0000
0000
0010
0000
0000
0000
0000
0000
1000
0000
0000
0000
0000
0000
0000
0000
0000
0000
0000
0000
0000
0000
0000
0000
0000
0000
0000
0000
0000
0000
0000
0000
1010
0000
0000
0000
0000
0000
0000
0000
0000
0000
0000
0000
0000
0000
0000
0000
0000
0000
0000
0000
0000
0000
0000
0000
0101
0000
0000
0000
0000
0000
0000
0000
0000
0000
0000
0000
0000
0000
0000
0000
0000
0000
0100
0000
0000
0000
0000
0000
,
0001
0000
0000
0000
0011
0000
0000
0000
0110
0000
0000
0100
1000
0000
0000
0000
1100
0000
0000
0000
1010
0000
0000
0010
0100
0000
0000
0000
0110
0000
0000
0000
,
0101
0000
0000
1000
0001
0000
0000
0000
1100
0000
0000
0000
1001
0000
0000
0010
0001
0000
0000
0000
0110
0000
0000
0000
1010
0000
0000
0100
0010
0000
0000
0000
,
0101
0000
0000
0000
1100
0000
0000
0100
0010
0000
0000
0000
0011
0000
0000
0000
0110
0000
0000
0100
1000
0000
0000
0000
1010
0000
0000
0000
1001
0000
0000
0100
,
0010
0000
0000
0000
1010
0000
0000
0000
1001
0000
0000
1000
0100
0000
0000
0000
0110
0000
0000
0000
0011
0000
0000
0001
1000
0000
0000
0000
1010
0000
0000
0000
,
1100
0000
0000
0000
0000
0000
0000
0000
0000
0000
0000
0000
0000
0000
0000
0000
0000
0000
0100
0000
0000
0000
0000
0000
1000
0000
0000
0000
0000
0000
0000
0000
0000
0000
0000
0000
0000
0000
0000
0000
0000
0000
0000
0000
0000
0000
0000
0000
1100
0000
0000
0000
0000
0000
0000
0000
0000
0000
0000
0000
0000
0000
0000
0000
0000
0000
0000
0000
0000
0000
0000
0000
0011
0000
0000
0000
0000
0000
0000
0000
0000
0000
0000
0000
0000
0000
0000
0000
0000
0000
0010
0000
0000
0000
0000
0000
0001
0000
0000
0000
0000
0000
0000
0000
0000
0000
0000
0000
0000
0000
0000
0000
0000
0000
0000
0000
0000
0000
0000
0000
0001
0000
0000
0000
0000
0000
0000
0000
0000
0000
0000
0000
0000
0000
0000
0000
0000
0000
0000
0000
0000
0000
0000
0000
0101
0000
0000
0000
0000
0000
0000
0000
0000
0000
0000
0000
0000
0000
0000
0000
0000
0000
0000
0000
0000
0000
0000
0000
0000
0000
0000
0000
1000
0000
0000
0000
0000
0000
0000
0000
0000
0000
0000
0000
0000
0000
0000
0000
0000
0000
0000
0000
,
0000
0000
0000
0000
0000
0000
0000
0000
0000
0000
0000
0000
0020
0000
0000
0000
0000
0000
0000
0000
0000
0000
0000
0000
0000
0000
0000
0000
0000
0000
0000
0000
0000
0000
0000
0000
0000
0000
0000
0000
0100
0000
0000
0000
0000
0000
0000
0000
0030
0000
0000
0000
0000
0000
0000
0000
0000
0000
0000
0000
0000
0000
0000
0000
0000
0000
0000
0000
0000
0000
0000
0000
0000
0000
0000
0000
0000
0000
0000
0000
0000
0000
0000
0000
0000
0000
0000
0000
0000
0000
0000
0000
0000
0000
0000
0000
0220
0000
0000
0000
0000
0000
0000
0000
0000
0000
0000
0000
0330
0000
0000
0000
0000
0000
0000
0000
0000
0000
0000
0000
1000
0000
0000
0000
0000
0000
0000
0000
0000
0000
0000
0000
0100
0000
0000
0000
0000
0000
0000
0000
0000
0000
0000
0000
1000
0000
0000
0000
0000
0000
0100
0000
0000
0000
0000
0000
1000
0000
0000
0000
0000
0000
0100
0000
0000
0000
0000
0000
1000
0000
0000
0000
0000
0000
0000
0000
0000
0000
0000
0000
0000
0000
0000
0000
0000
0000
0000
0000
0000
0000
0000
0000
,
0100
0000
0010
0000
0100
0010
0100
0010
0100
0000
0000
0000
0010
0000
0001
0000
0010
0001
0010
0001
0010
0000
0000
0000
0001
0000
0010
0000
0100
1000
0100
0010
,
0001
0000
0000
0000
0001
0000
0100
0000
0010
1000
0001
0100
0010
0000
0000
0000
1000
0000
0001
0000
1000
0100
0010
0001
0010
0000
0000
0000
0001
0000
0100
0000
,
0010
1000
0010
0100
0010
0000
0000
0000
1000
0000
0010
0000
1000
0010
1000
0100
0010
0000
0000
0000
0010
0000
0001
0000
1000
0001
0100
0010
1000
0000
0000
0000
,
0010
0000
0100
0000
0010
1000
0010
1000
0010
0000
0000
0000
1000
0000
0010
0000
1000
0001
0100
0010
1000
0000
0000
0000
0001
0000
1000
0000
0100
0010
0001
0010
,
0001
0000
0000
0000
0001
0000
0010
0000
0001
1000
0001
0100
0010
0000
1000
0001
0100
0000
0000
0000
1000
0000
0000
0000
1010
0000
0000
0000
0000
0000
0000
0000
,
0101
0000
0000
0000
1100
0000
0000
0000
0011
0000
0000
0000
1001
0000
1000
0010
,
0100
0001
0010
0000
0100
1000
0100
0010
0001
0000
0100
1000
0100
0001
0010
0000
,
0100
0010
0100
0001
0100
0000
1000
0010
1000
1000
0010
0000
0100
0001
0010
0010
,
0011
0000
0010
0100
0010
1000
0010
0000
0001
0100
0010
0010
0100
0000
1000
0100
,
0001
0010
0100
0000
0010
0001
0100
0010
0110
0000
0100
0001
1000
0100
0011
0000
,
0010
0100
1000
0010
0101
0000
0000
0100
0010
1100
0101
0000
0000
0001
2000
0000
,
0002
0000
0000
0000
0010
0000
0010
0000
0010
0000
0010
0000
0010
0000
0010
0000
3013
0000
0000
0000
0000
0000
0000
0000
1001
0000
0000
0100
1000
0000
0000
0000
,
1000
0000
0001
0000
1000
0000
0000
0000
0010
0000
0100
0000
0001
0000
1000
0000
0100
0000
0000
0000
0110
0000
0000
0010
0001
0000
0000
0000
0001
0000
0100
0000
,
0001
0000
0000
0000
1000
0000
0010
0000
1000
0000
0010
0000
0000
0000
0010
0000
0100
0000
0000
0100
0001
0000
0000
0000
0001
0000
1000
0000
0100
0000
0000
0000
,
0100
0000
1000
0000
0010
0000
0000
0000
0010
0000
0100
0000
0010
0000
0000
1000
0001
0000
0000
0000
1000
0000
0100
0000
1000
0000
0000
0000
0100
0000
0010
0000
,
0001
1000
0000
0000
1001
0000
0000
1000
0010
0000
0100
0010
0100
0000
0001
1000
,
0100
0000
1000
0000
0100
0000
0010
0000
0110
0000
0000
0100
1000
0000
0000
0000
1000
0000
0010
0000
1000
0000
0000
0000
0001
0000
0100
0000
0001
0000
0000
0000
,
0001
0000
1000
0000
0100
0000
0000
0010
0100
0000
0000
0000
0010
0000
0001
0000
0100
0000
0000
0000
0001
0000
1000
0000
0010
0000
0000
0000
0010
0000
0000
0000
,
0100
0000
0001
0000
1000
0100
0010
0000
0001
1000
0010
0100
0010
1000
0200
0000
,
0310
0001
0010
0000
0100
1000
0010
0000
0000
0010
0100
0000
0002
0000
1003
0000
,
0100
0010
0002
0000
1003
0010
0100
0000
0001
1000
0001
0010
0000
0100
0020
0000
,
0031
1000
0010
0000
0100
0001
0200
0000
0310
1000
0010
0000
0010
0000
0200
0000
,
0301
1000
0100
0000
0010
0001
0020
0000
0130
1000
0010
0100
0010
0100
0001
0000
,
1000
0001
2000
0000
3100
0010
0001
0000
0001
0100
0001
0000
0001
0000
1100
0000
,
0000
0100
0010
0000
0010
0001
0010
0000
0100
1000
0001
0000
0100
0000
0110
0000
,
0000
0110
0000
0000
0100
0001
1000
0000
1000
0001
0010
0000
0010
0000
0110
0000
,
0000
0100
0000
1000
0000
0000
0000
1000
0000
0001
0000
0000
0000
0001
0000
0100
0000
0010
0000
0100
0000
0001
0000
0000
,
1000
0000
0000
0000
0000
0000
0000
0000
0000
0000
0000
0000
0100
0000
0000
0000
0000
0000
0000
0000
0000
0000
0000
0000
0010
0000
0000
0000
0000
0000
0000
0000
0000
0000
0000
0000
0001
0000
0000
0000
0000
0000
0000
0000
0000
0000
0000
0000
0100
0000
0000
0000
0000
0000
0000
0000
0000
0000
0000
0000
0010
0000
0000
0000
0000
0000
0000
0000
0000
0000
0000
0000
0100
0000
0000
0000
0000
0000
0000
0000
0000
0000
0000
0000
0001
0000
0000
0000
0000
0000
0000
0000
0000
0000
0000
0000
0010
0000
0000
0000
0000
0000
0000
0000
0000
0000
0000
0000
0100
0000
0000
0000
0000
0000
0000
0000
0000
0000
0000
0000
1000
0000
0000
0000
0000
0000
0000
0000
0000
0000
0000
0000
0010
0000
0000
0000
0000
0000
0000
0000
0000
0000
0000
0000
1000
0000
0000
0000
0000
0000
0000
0000
0001
0000
0000
0000
0000
0000
0000
0000
1000
0000
0000
0000
0000
0000
0000
0000
0200
0000
0000
0000
0000
0000
M0MM
0000
0000
0000
0000
0000
0000
0000
0000
0000
0000
0000
0310
0000
0000
0000
0000
0000
,
0001
0000
0000
0000
0100
0000
0000
0000
0020
MM0M
0000
1030
0001
0000
0000
0000
0001
0000
0000
0000
2000
0MMM
3000
1000
0100
0000
0000
0000
0100
0000
0000
0000
,
0020
MM0M
0000
0130
0010
0000
0000
0000
0100
0000
0000
0000
2000
0MMM
0000
3010
1000
0000
0000
0000
0100
0000
0000
0000
0020
MM0M
0000
0130
0010
0000
0000
0000
,
0001
0000
0000
0000
0200
M0MM
0300
0100
0010
0000
0000
0000
0100
0000
0000
0000
0002
MMM0
0000
0013
0100
0000
0000
0000
1100
0000
0000
0000
0200
M0MM
0000
1300
,
0001
0000
0000
0000
0101
0000
0000
0000
0200
M0MM
0000
0310
1000
0000
0000
0000
0100
0000
0000
0000
0021
MM00
0000
0130
1000
0000
0000
0000
1000
0000
0000
0000
,
1020
0M0M
0000
0130
0010
0000
0000
0000
0100
0000
0000
0000
0002
MMM0
0000
0013
0100
0000
0000
0000
1000
0000
0000
0000
0020
MM0M
0000
0130
0010
0000
0000
0000
,
0100
0000
0001
0000
1000
0000
0100
0000
0020
0030
0000
0000
0110
0000
0100
1000
,
0001
0001
0100
0000
0010
1000
0100
0100
0010
0000
0001
0100
0010
0010
1000
0000
,
0010
0100
0001
0001
0010
0000
0100
1000
0100
0001
0100
0000
1000
0010
0100
0100
,
0001
0000
1000
0100
1000
0010
1000
0000
0001
0010
0001
0010
0100
0000
1000
0100
,
0010
0010
0001
0000
0001
0100
0010
0100
0100
0000
0001
0010
0100
0010
0011
0000
,
1000
0010
0100
0001
0011
0000
0000
0100
0001
0011
1001
0000
0000
1000
0010
0100
,
0001
0000
0000
0010
0000
0000
0100
0000
0000
1000
0000
0000
0100
0000
0000
0000
0000
0000
0000
0000
0000
0010
0000
0000
0001
0000
0000
0000
0100
0000
0000
0000
0010
0000
0000
0000
0110
0000
0000
0000
0000
0000
0000
0000
0000
0000
0000
0000
,
0011
0000
1010
0000
0101
0000
2002
3003
;
