#TITLE:Istanbul;
#SUBTITLE:(Not Constantinople);
#ARTIST:They Might Be Giants;
#TITLETRANSLIT:;
#SUBTITLETRANSLIT:;
#ARTISTTRANSLIT:;
#CREDIT:owenviau1;
#BANNER:BN.png;
#BACKGROUND:BG.png;
#LYRICSPATH:;
#CDTITLE:../CDTitleOV1.png;
#MUSIC:Istanbul (Not Constantinople) - They Might Be Giants.ogg;
#OFFSET:-0.095;
#SAMPLESTART:16.860;
#SAMPLELENGTH:29.999;
#SELECTABLE:YES;
#DISPLAYBPM:114.524;
#BPMS:0.000=114.524;
#STOPS:;
#BGCHANGES:;
// cache tags:
#FIRSTBEAT:0.000;
#LASTBEAT:256.000;
#SONGFILENAME:Songs/owenviau1 Simfiles 07_final/Istanbul (Not Constantinople) - [Braeden47 and owenviau1] v1.0.3/Istanbul.sm;
#HASMUSIC:1;
#HASBANNER:1;
#MUSICLENGTH:137.116;
// end cache tags

//---------------dance-single - 13.15 (13) (owenviau----------------
#NOTES:
     dance-single:
     13.15 (13) (owenviau:
     Hard:
     13:
     1.000,1.000,0.365,0.627,1.000,1094.000,50.000,86.000,8.000,3.000:
1010
0000
0000
0000
0000
0000
0001
0000
0000
0100
0000
0000
0010
0000
0000
0000
0000
0000
1000
0000
0000
0000
0000
0000
0100
0000
0000
0010
0000
0000
0001
0000
0000
0000
0000
0000
1100
0000
0000
0000
0000
0000
0010
0000
0000
0000
0100
0000
,
0001
0010
0100
1000
0010
0000
0101
0000
1000
0010
0100
0000
0011
0000
0100
0000
,
1010
0000
0000
0000
0000
0000
0001
0000
0000
0100
0000
0000
0010
0000
0000
0000
0000
0000
1001
0000
0000
0000
0000
0000
0100
0000
0000
0010
0000
0000
1000
0000
0000
0000
0000
0000
0011
0000
0000
0000
0000
0000
0100
0000
0000
0000
0010
0000
,
1000
0000
0101
0000
0010
0100
0001
1000
0100
1000
0010
0100
0001
1000
0100
0000
,
1001
0000
0000
0100
0000
0000
0011
0000
0000
0100
0000
0000
1010
0000
0000
0100
0000
0000
1001
0000
0000
0010
0000
0100
,
0001
0000
0010
0000
1100
0000
0001
0000
0010
0100
1000
0000
0101
0000
0010
0000
,
1001
0100
0011
1000
0101
0010
1100
0001
,
1000
0100
0010
0001
0100
0000
0010
0000
1100
0000
0110
0000
0011
0000
0101
0000
,
0010
1000
0100
0010
0001
0100
0010
1000
0001
0100
0001
1000
0010
0100
0001
1000
0100
0010
0001
0100
0010
1000
0001
0010
,
0001
0100
0010
1000
0100
0010
0001
0100
0010
1000
0001
0010
0100
1000
0010
0100
0001
1000
0100
1000
0001
0010
0100
1000
,
0010
0100
0001
1000
0100
1000
0010
0100
0001
1000
0100
0010
0001
0100
0010
1000
0001
0100
0001
1000
0100
0010
0001
0100
,
0010
0000
1000
0000
0001
0000
0010
0000
0100
0000
1000
0000
0010
0000
0100
0000
0010
0000
1000
0000
0001
0000
0010
0000
0001
0000
1000
0000
0010
0000
0100
0000
0010
0000
1000
0000
0001
0000
0000
0010
0000
0000
0100
0000
0000
1000
0000
0000
,
0001
0100
0010
1000
0001
0010
0001
0100
0010
1000
0001
0100
0001
1000
0010
0100
0010
1000
0100
0010
0001
0100
0010
1000
,
0001
0010
0100
1000
0001
0100
0001
0010
0100
1000
0001
0100
0010
1000
0001
0100
0001
1000
0010
1000
0100
0010
0001
0100
,
0010
1000
0001
0100
0001
1000
0010
0100
0010
1000
0001
0010
0100
1000
0010
0100
0010
1000
0100
0010
0001
1000
0100
1000
,
0010
0100
0001
1000
0100
0010
0001
0100
0010
1000
0001
0010
0200
0000
0000
0300
0000
0000
2000
0000
0000
3020
0000
0000
,
0230
0000
0302
0000
0023
0000
0030
0200
,
2300
3020
2030
3002
0203
0000
0300
0000
,
0011
0000
0110
0000
1100
0000
1010
1010
0000
0110
0000
0101
2002
0000
3003
0000
,
2000
0000
0000
3020
0000
0000
0230
0000
0000
0000
0000
0000
0302
0000
0000
0000
0003
0000
0020
0000
0000
0030
0000
0000
0200
0000
0000
2300
0000
0000
3020
0000
0000
0000
0030
0000
0200
0000
0000
0000
0000
0000
0301
0000
0000
0000
0000
0000
,
1000
0100
0010
0001
0100
0010
1000
0001
0100
0001
1000
0010
0100
0010
1000
0001
0010
0001
1000
0100
0010
0001
0100
0010
,
1000
0001
0010
0001
0100
0010
1000
0001
0100
0001
1000
0100
0010
0001
0100
0010
1000
0001
0010
0100
1000
0010
0100
0010
,
1000
0001
0100
0001
1000
0100
0010
0001
0100
0010
1000
0001
0010
0100
1000
0010
0100
0001
1000
0100
1000
0001
0100
0001
,
1000
0000
0100
0000
0010
0000
0001
0000
0100
0000
0010
0000
1000
0000
0001
0000
0010
0000
0100
0000
1000
0000
0001
0000
0100
0000
0000
0000
0000
0000
0010
0000
0000
2000
0000
0000
0000
0000
0000
0000
0000
0000
3001
0000
0000
0000
0000
0000
,
1000
0010
0100
0001
0010
0100
1000
0001
0010
0001
0100
0010
1000
0001
0100
0001
1000
0100
0010
0001
0100
0010
1000
0001
,
0100
0001
1000
0010
0100
0010
1000
0001
0010
0001
1000
0100
0010
0001
0100
0010
1000
0001
0010
0001
0100
0010
0100
0001
,
1000
0010
0100
0001
1000
0100
0010
0001
1000
0100
1000
0010
0100
0001
1000
0100
0010
0001
0100
0010
1000
0001
0100
0001
,
1000
0010
0100
0001
1000
0100
0010
0001
1000
0010
1000
0100
0010
0001
0100
0010
1000
0001
0010
0001
1000
0010
1000
0100
,
0010
0000
0001
0000
0100
0000
0010
0000
1000
0000
0001
0000
0010
0000
0001
0000
1000
0000
0100
0000
0010
0000
0001
0000
1000
0000
0000
0001
0000
0000
0100
0000
0000
0000
0000
0000
0020
0000
0030
0000
2000
0000
3000
0000
0020
0000
0000
0000
,
0000
0230
0300
0002
0003
0200
0000
0000
0000
0000
0000
0000
0301
1000
0100
0010
0001
1000
0010
1000
0001
0010
0100
1000
,
0010
0100
0010
1000
0001
0100
0001
1000
0010
0100
0001
1000
0100
0010
0001
0100
0010
1000
0001
0010
0001
0100
0010
0100
,
0001
1000
0010
1000
0100
0010
0001
0100
0010
1000
0001
0010
0100
1000
0010
0100
0001
1000
0100
0010
0001
0100
0010
0100
,
0001
0000
1000
0000
0010
0000
1000
0000
0100
0000
0010
0000
0001
0000
0100
0000
0010
0000
0100
0000
0001
0000
1000
0000
0010
0000
0000
0100
0000
0000
0001
0000
0000
0000
0000
0000
2000
0000
0000
3020
0000
0000
2030
0000
0000
0000
0000
0000
,
3002
0203
0302
0000
2003
0000
3020
0000
0230
0000
0000
0000
0302
0000
0000
0000
,
0023
0000
0030
0200
2300
3020
2030
3002
,
0203
0000
0000
0000
0300
0000
0000
0000
0101
0000
0110
0000
1010
0000
0101
0101
,
0000
0000
0000
0110
0000
0000
0000
0000
0000
1010
0000
0000
2002
0000
0000
0000
0000
0000
3003
0000
0000
0000
0000
0000
2000
0000
0000
3020
0000
0000
0230
0000
0000
0000
0000
0000
0302
0000
0000
0000
0003
0000
0020
0000
0000
0030
0000
0000
,
0200
0000
0000
2300
0000
0000
3020
0000
0000
0000
0030
0000
0200
0000
0000
0000
0000
0000
0000
0000
0000
0000
0000
0000
0301
0000
1000
0000
0100
0000
0010
0000
0001
0000
1000
0000
0010
0000
1000
0000
0001
0000
0010
0000
0100
0000
1000
0000
,
0010
0100
0010
1000
0001
0100
0001
1000
0010
0100
0001
1000
0100
0010
0001
0100
0010
1000
0001
0010
0001
0100
0010
0100
,
0001
1000
0010
1000
0100
0010
0001
0100
0010
1000
0001
0010
0100
1000
0010
0100
0001
1000
0100
0010
0001
0100
0010
0100
,
0001
1000
0010
1000
0100
0010
0001
0100
0010
0100
0001
1000
0010
0100
0001
1000
0100
0010
0001
1000
0010
1000
0001
0010
,
0200
0000
0000
0000
0000
0000
1300
0000
0000
0020
0000
0000
0000
0000
0000
0000
0000
0000
0130
0000
0000
0000
0000
0000
0001
0000
0010
0000
0100
0000
1000
0000
0001
0000
0100
0000
0010
0000
1000
0000
0001
0000
0010
0000
0100
0000
1000
0000
,
0010
0100
0010
1000
0001
0100
0001
1000
0010
0100
0001
1000
0100
0010
0001
0100
0010
1000
0001
0010
0001
0100
0010
0100
,
0001
1000
0010
1000
0100
0010
0001
0100
0010
1000
0001
0010
0100
1000
0010
0100
0001
1000
0100
0010
0001
0100
0010
0100
,
0001
1000
0010
1000
0100
0010
0001
1000
0100
0010
0001
1000
0010
1000
0001
0010
0100
1000
0010
0100
0010
1000
0001
0100
,
0001
1000
0010
0100
0001
1000
0100
0010
0001
0100
0010
1000
0001
0010
0001
0100
0010
0100
0001
1000
0010
1000
0100
0010
,
0001
0100
0010
1000
0001
0010
0100
1000
0010
0100
0001
1000
0100
0010
0001
0100
0010
0100
0001
1000
0010
1000
0100
0010
,
0001
1000
0100
0010
0001
1000
0010
1000
0001
0010
0100
1000
0010
0100
0010
1000
0001
0100
0001
1000
0010
0100
0001
1000
,
0100
0010
0001
0100
0010
1000
0001
0010
0001
0100
0010
0100
0001
1000
0010
1000
0100
0010
0001
0100
0010
1000
0001
0010
,
0100
1000
0010
0100
0001
1000
0100
0010
0001
0100
0010
0100
0001
1000
0010
1000
0100
0010
0001
0100
0010
0100
0001
1000
,
0002
0000
0000
0000
0203
0000
0000
0320
2030
0000
3200
0000
0320
0000
0032
0000
,
2003
0000
3010
0100
0002
0000
1003
0010
2000
0000
3100
0010
0001
0000
0200
0320
,
2030
0000
3001
0100
0002
0000
0013
0100
2000
0000
3010
0100
0001
0000
1000
0100
,
0110
0000
0011
0000
1001
0000
1010
1010
0000
0110
0000
0101
0102
0000
0000
0003
,
1000
0100
0010
0000
0001
0100
0001
0000
1000
0100
0010
0001
0100
0010
0100
0001
,
1000
0100
0010
0001
1000
0010
1000
0001
0010
0100
1000
0010
0100
0001
1000
0100
0010
0001
0100
0010
1000
0001
0010
0001
,
1000
0100
0010
0001
0100
0010
1000
0001
0100
0001
0010
0100
1000
0010
0100
0001
1000
0100
0010
0001
1000
0010
1000
0001
,
0100
0010
0100
0001
1000
0010
0100
0001
1000
0100
0010
0001
1000
0010
1000
0001
0100
0001
1000
0100
0010
0001
0100
0010
,
1000
0000
0001
0000
0010
0000
0100
0000
1000
0000
0010
0000
0100
0000
0010
0000
1000
0000
0100
0000
0010
0000
0001
0000
2000
0000
0000
3000
0000
0000
0010
0000
0000
0200
0000
0000
0000
0000
0000
0000
0000
0000
0301
0000
0000
0000
0000
0000
,
1000
0010
0100
0010
1000
0001
0010
0001
1000
0100
1000
0001
0100
0010
1000
0001
0100
0001
1000
0100
1000
0010
0100
0001
,
1000
0100
0010
0001
1000
0010
1000
0001
0100
0001
1000
0100
1000
0001
0010
0001
1000
0010
1000
0001
0010
0100
1000
0001
,
1000
0000
0010
0000
0100
0000
0000
0000
0000
0000
0022
0000
0000
0033
0000
0000
0220
0000
0000
0000
0330
0000
0000
2200
0000
0000
0000
0000
0000
0000
0000
0000
,
0000
0020
0000
0000
0000
0002
0000
0000
,
0000
0000
0000
0000
0000
0000
0000
0000
0000
0000
0000
3333
1111
0000
MMMM
0MM0
,
0MM0
0000
0000
0000
,
0000
0000
0000
0000
;

//---------------dance-single - 16.80 (17-) (owenvia----------------
#NOTES:
     dance-single:
     16.80 (17-) (owenvia:
     Challenge:
     17:
     1.000,1.000,0.365,0.627,1.000,1380.000,50.000,86.000,8.000,3.000:
1010
0000
0000
0000
0000
0000
0001
0000
0000
0100
0000
0000
0010
0000
0000
0000
0000
0000
1000
0000
0000
0000
0000
0000
0100
0000
0000
0010
0000
0000
0001
0000
0000
0000
0000
0000
1100
0000
0000
0000
0000
0000
0010
0000
0000
0000
0100
0000
,
0001
0010
0100
1000
0010
0000
0101
0000
1000
0010
0100
0000
0011
0000
0100
0000
,
1010
0000
0000
0000
0000
0000
0001
0000
0000
0100
0000
0000
0010
0000
0000
0000
0000
0000
1001
0000
0000
0000
0000
0000
0100
0000
0000
0010
0000
0000
1000
0000
0000
0000
0000
0000
0011
0000
0000
0000
0000
0000
0100
0000
0000
0000
0010
0000
,
1000
0000
0101
0000
0010
0100
0001
1000
0100
1000
0010
0100
0001
1000
0100
0000
,
1001
0000
0000
0100
0000
0000
0011
0000
0000
0100
0000
0000
1010
0000
0000
0100
0000
0000
1001
0000
0000
0010
0000
0100
,
0001
0000
0010
0000
1100
0000
0001
0000
0010
0100
1000
0000
0101
0000
0010
0000
,
1001
0100
0011
1000
0101
0010
1100
0001
,
1000
0100
0010
0001
0100
0000
0010
0000
1100
0000
0110
0000
0011
0000
0101
0000
,
0010
1000
0100
0010
0001
0100
0010
1000
0001
0010
0100
1000
0010
0100
0001
0100
0010
1000
0001
1000
0100
0010
0001
0100
0010
1000
0010
0100
0001
0010
0100
1000
,
0010
0100
0001
1000
0100
0010
0001
0100
0001
1000
0010
0100
0001
0010
0100
1000
0001
0010
0001
0100
0010
1000
0010
0100
0001
1000
0001
0010
0100
1000
0010
0100
,
0001
1000
0100
0010
0001
0100
0001
1000
0010
0100
0010
1000
0001
0100
0001
0010
0100
1000
0010
0100
0001
1000
0100
0010
0001
0100
0010
1000
0010
0100
0001
1000
,
0001
0010
0100
1000
0010
0100
0001
1000
0100
1000
0010
0100
0010
1000
0001
0100
0001
0010
0100
1000
0010
0100
0010
1000
0001
0000
0010
0000
0100
0000
1000
0000
,
0001
1000
0100
0010
0001
0100
0010
1000
0001
0010
0100
1000
0010
0100
0001
0100
0010
1000
0001
1000
0100
0010
0001
0100
0010
1000
0010
0100
0001
0010
0100
1000
,
0010
0100
0001
1000
0100
0010
0001
0100
0001
1000
0010
0100
0001
0010
0100
1000
0001
0010
0001
0100
0010
1000
0010
0100
0001
1000
0001
0010
0100
1000
0010
0100
,
0001
1000
0100
0010
0001
0100
0001
1000
0010
0100
0010
1000
0001
0100
0001
0010
0100
1000
0010
0100
0001
1000
0100
0010
0001
0100
0010
1000
0010
0100
0001
1000
,
0001
0010
0100
1000
0010
0100
0001
1000
0100
1000
0010
0100
0010
1000
0001
0010
0200
0000
0000
0000
0300
0000
0000
0000
2000
0000
0000
0000
3020
0000
0000
0000
,
0230
0000
0302
0000
0023
0000
0030
0200
,
2300
3020
2030
3002
0203
0000
0300
0000
,
0011
0000
0110
0000
1100
0000
1010
1010
0000
0110
0000
0101
2002
0000
3003
0000
,
2000
0000
0000
3020
0000
0000
0230
0000
0000
0000
0000
0000
0302
0000
0000
0000
0003
0000
0020
0000
0000
0030
0000
0000
0200
0000
0000
2300
0000
0000
3020
0000
0000
0000
0030
0000
0200
0000
0000
0000
0000
0000
0301
0000
0000
0000
0000
0000
,
1000
0100
0010
0001
0100
0010
1000
0001
0010
0100
1000
0010
0100
0001
0100
0010
1000
0001
1000
0100
0010
0001
0100
0010
1000
0010
0100
0001
0010
0100
1000
0010
,
0100
0001
1000
0100
0010
0001
0100
0001
1000
0010
0100
0001
0010
0100
1000
0001
0010
0001
0100
0010
1000
0010
0100
0001
1000
0001
0010
0100
1000
0010
0100
0001
,
1000
0100
0010
0001
0100
0010
1000
0001
0010
0100
1000
0010
0100
0001
0100
0010
1000
0001
1000
0100
0010
0001
0100
0010
1000
0010
0100
0001
0010
0100
1000
0010
,
0100
0001
1000
0100
0010
0001
0100
0001
1000
0010
0100
0001
0010
0100
1000
0001
0100
0000
0000
0000
0010
0000
2000
0000
0000
0000
0000
0000
3001
0000
0000
0000
,
1000
0100
0010
0001
0100
0010
1000
0001
0010
0100
1000
0010
0100
0001
0100
0010
1000
0001
1000
0100
0010
0001
0100
0010
1000
0010
0100
0001
0010
0100
1000
0010
,
0100
0001
1000
0100
0010
0001
0100
0001
1000
0010
0100
0001
0010
0100
1000
0001
0010
0001
0100
0010
1000
0010
0100
0001
1000
0100
0010
0001
0100
0010
1000
0001
,
0010
0100
1000
0010
0100
0001
0100
0010
1000
0001
1000
0100
0010
0001
0100
0010
1000
0010
0100
0001
0010
0100
1000
0010
0100
0001
1000
0100
0010
0001
0100
0001
,
1000
0010
0100
0001
0010
0100
1000
0001
0010
0001
0100
0010
1000
0010
0100
0001
1000
0001
0010
0100
1000
0010
0100
0001
1000
0100
0010
0001
0100
0010
1000
0001
,
0010
0000
0000
0100
0000
0000
1000
0000
0000
0010
0000
0000
0100
0000
0000
0001
0000
0000
0100
0000
0000
0010
0000
0000
1000
0000
0000
0001
0000
0000
1000
0000
0000
0100
0000
0000
0010
0000
0000
0001
0000
0000
0100
0000
0000
0010
0000
0000
1000
0000
0000
0000
0000
0000
0001
0000
0000
0000
0000
0000
0100
0000
0000
0000
0000
0000
0000
0000
0000
0000
0000
0000
0020
0000
0000
0000
0030
0000
0000
0000
2000
0000
0000
0000
3000
0000
0000
0000
0020
0000
0000
0000
0000
0000
0000
0000
,
0000
0000
0000
0000
0230
0000
0000
0000
0300
0000
0000
0000
0002
0000
0000
0000
0003
0000
0000
0000
0200
0000
0000
0000
0000
0000
0000
0000
0000
0000
0000
0000
0000
0000
0000
0000
0000
0000
0000
0000
0000
0000
0000
0000
0000
0000
0000
0000
0301
0000
0000
1000
0000
0000
0010
0000
0000
0100
0000
0000
0001
0000
0000
0010
0000
0000
0001
0000
0000
1000
0000
0000
0010
0000
0000
0100
0000
0000
0001
0000
0000
0010
0000
0000
0100
0000
0000
1000
0000
0000
0001
0000
0000
0010
0000
0000
,
0001
0100
0010
1000
0010
0100
0001
1000
0100
0010
0001
0100
0010
1000
0001
0010
0100
1000
0010
0100
0001
0100
0010
1000
0001
1000
0100
0010
0001
0100
0010
1000
,
0001
1000
0100
0010
0001
0100
0001
1000
0010
0100
0001
0010
0100
1000
0001
0010
0001
0100
0010
1000
0010
0100
0001
1000
0100
0010
0001
0100
0010
1000
0001
0010
,
0100
1000
0010
0100
0001
0100
0010
1000
0001
1000
0100
0010
0001
0100
0010
1000
0010
0000
0100
0000
0001
0000
0000
0000
2000
0000
3020
0000
2030
0000
0000
0000
,
3002
0203
0302
0000
2003
0000
3020
0000
0230
0000
0000
0000
0302
0000
0000
0000
,
0023
0000
0030
0200
2300
3020
2030
3002
,
0203
0000
0000
0000
0300
0000
0000
0000
0101
0000
0110
0000
1010
0000
0101
0101
,
0000
0000
0000
0110
0000
0000
0000
0000
0000
1010
0000
0000
2002
0000
0000
0000
0000
0000
3003
0000
0000
0000
0000
0000
2000
0000
0000
3020
0000
0000
0230
0000
0000
0000
0000
0000
0302
0000
0000
0000
0003
0000
0020
0000
0000
0030
0000
0000
,
0200
0000
0000
0000
0000
0000
2300
0000
0000
0000
0000
0000
3020
0000
0000
0000
0000
0000
0000
0000
0030
0000
0000
0000
0200
0000
0000
0000
0000
0000
0000
0000
0000
0000
0000
0000
0000
0000
0000
0000
0000
0000
0000
0000
0000
0000
0000
0000
0301
0000
0000
1000
0000
0000
0100
0000
0000
0010
0000
0000
0001
0000
0000
0100
0000
0000
0010
0000
0000
1000
0000
0000
0001
0000
0000
0010
0000
0000
0100
0000
0000
1000
0000
0000
0010
0000
0000
0100
0000
0000
0001
0000
0000
0100
0000
0000
,
0010
1000
0001
1000
0100
0010
0001
0100
0010
1000
0010
0100
0001
0010
0100
1000
0010
0100
0001
1000
0100
0010
0001
0100
0001
1000
0010
0100
0001
0010
0100
1000
,
0001
0010
0001
0100
0010
1000
0010
0100
0001
1000
0001
0010
0100
1000
0010
0100
0001
1000
0100
0010
0001
0100
0001
1000
0010
0100
0010
1000
0001
0100
0001
0010
,
0100
1000
0010
0100
0001
1000
0100
0010
0001
0100
0010
1000
0010
0100
0001
1000
0001
0010
0100
1000
0010
0100
0001
1000
0100
1000
0010
0100
0010
1000
0001
0010
,
0200
0000
0000
0000
1300
0000
0020
0000
0000
0000
0000
0000
0130
0000
0000
0000
0001
0100
0010
1000
0001
0100
0010
1000
0001
0010
0100
1000
0010
0100
0001
0100
,
0010
1000
0001
1000
0100
0010
0001
0100
0010
1000
0010
0100
0001
0010
0100
1000
0010
0100
0001
1000
0100
0010
0001
0100
0001
1000
0010
0100
0001
0010
0100
1000
,
0001
0010
0001
0100
0010
1000
0010
0100
0001
1000
0001
0010
0100
1000
0010
0100
0001
1000
0100
0010
0001
0100
0001
1000
0010
0100
0010
1000
0001
0100
0001
0010
,
0100
1000
0010
0100
0001
1000
0100
0010
0001
0100
0010
1000
0010
0100
0001
1000
0001
0010
0100
1000
0010
0100
0001
1000
0100
1000
0010
0100
0010
1000
0001
0010
,
0001
1000
0100
0010
0001
0100
0010
1000
0001
0010
0100
1000
0010
0100
0001
0100
0010
1000
0001
1000
0100
0010
0001
0100
0010
1000
0010
0100
0001
0010
0100
1000
,
0010
0100
0001
1000
0100
0010
0001
0100
0001
1000
0010
0100
0001
0010
0100
1000
0001
0010
0001
0100
0010
1000
0010
0100
0001
1000
0001
0010
0100
1000
0010
0100
,
0001
1000
0100
0010
0001
0100
0010
1000
0001
0010
0100
1000
0010
0100
0001
0100
0010
1000
0001
1000
0100
0010
0001
0100
0010
1000
0010
0100
0001
0010
0100
1000
,
0010
0100
0001
1000
0100
0010
0001
0100
0001
1000
0010
0100
0001
0010
0100
1000
0001
0010
0001
0100
0010
1000
0010
0100
0001
1000
0001
0010
0100
1000
0010
0100
,
0001
1000
0100
0010
0001
0100
0001
1000
0010
0100
0010
1000
0001
0100
0001
0010
0100
1000
0010
0100
0001
1000
0100
0010
0001
0010
0100
1000
0001
0100
0010
1000
,
0002
0000
0000
0000
0203
0000
0000
0320
2030
0000
3200
0000
0320
0000
0032
0000
,
2003
0000
3010
0100
0002
0000
1003
0010
2000
0000
3100
0010
0001
0000
0200
0320
,
2030
0000
3001
0100
0002
0000
0013
0100
2000
0000
3010
0100
0001
0000
1000
0100
,
0110
0000
0011
0000
1001
0000
1010
1010
0000
0110
0000
0101
0102
0000
0000
0003
,
1000
0100
0010
0000
0001
0100
0001
0000
1000
0100
0010
0001
0100
0010
0100
0001
,
1000
0010
0100
0001
0010
0100
1000
0001
0010
0100
1000
0010
0100
0001
0100
0010
1000
0001
1000
0100
0010
0001
0100
0010
1000
0010
0100
0001
0010
0100
1000
0010
,
0100
0001
1000
0100
0010
0001
0100
0001
1000
0010
0100
0001
0010
0100
1000
0001
0010
0001
0100
0010
1000
0010
0100
0001
1000
0001
0010
0100
1000
0010
0100
0001
,
1000
0100
0010
0001
0100
0010
1000
0001
1000
0100
0010
0001
0100
0010
1000
0001
0010
0100
1000
0010
0100
0001
0100
0010
1000
0001
1000
0100
0010
0001
0100
0010
,
1000
0010
0100
0001
0010
0100
1000
0010
0100
0001
1000
0100
0010
0001
0100
0001
2000
0000
3000
0000
0010
0000
0200
0000
0000
0000
0000
0000
0301
0000
0000
0000
,
1000
0100
0010
0001
0100
0010
1000
0001
0010
0100
1000
0010
0100
0001
0100
0010
1000
0001
1000
0100
0010
0001
0100
0010
1000
0010
0100
0001
0010
0100
1000
0010
,
0100
0001
1000
0100
0010
0001
0100
0001
1000
0010
0100
0001
0010
0100
1000
0001
0010
0001
0100
0010
1000
0010
0100
0001
1000
0001
0010
0100
1000
0010
0100
0001
,
1000
0000
0010
0000
0100
0000
0000
0000
0000
0000
0022
0000
0000
0033
0000
0000
0220
0000
0000
0000
0330
0000
0000
2200
0000
0000
0000
0000
0000
0000
0000
0000
,
0000
0020
0000
0000
0000
0002
0000
0000
,
0000
0000
0000
0000
0000
0000
0000
0000
0000
0000
0000
3333
1111
0000
MMMM
0MM0
,
0MM0
0000
0000
0000
,
0000
0000
0000
0000
;

//---------------dance-single - 9(Braeden)----------------
#NOTES:
     dance-single:
     9(Braeden):
     Medium:
     9:
     0.407,0.488,0.117,0.036,0.066,370.000,16.000,5.000,0.000,0.000:
0000
0000
0000
0000
,
0000
0000
1000
0010
1000
0000
0000
0000
0100
0001
0100
0000
0000
0000
0000
0000
,
0010
0000
1000
0010
1000
0000
0000
0000
0100
0001
0100
0000
0000
0000
0000
0000
,
0010
0000
0000
0000
1000
0001
1000
0001
0100
0010
0100
0010
1000
0100
1000
0100
,
0010
0001
0100
0010
,
1000
0010
0100
0001
,
0020
0230
2300
3002
,
0103
0010
1000
0010
0100
0001
0010
0001
,
1000
0010
0100
0000
0001
0000
0010
0100
,
1000
0100
0010
0000
0001
0000
0100
0010
,
1000
0010
0100
0000
0001
0000
0010
0100
,
1000
0100
0010
0001
0100
0010
1000
0010
,
0100
0100
0100
0000
0001
0000
0010
0000
,
0100
0100
0100
0000
1000
0000
0010
0000
,
0100
0100
0100
0000
0001
0000
0010
0000
,
0100
1000
0100
0010
0001
0000
1000
0000
,
0001
0000
0100
0000
0010
0000
0000
1000
,
0010
1000
0010
0100
0010
0000
0000
0000
,
1000
0000
0001
0000
0100
0000
0010
1000
0000
1000
0000
1000
0000
0000
0000
0000
,
0001
0000
1000
0001
,
0100
0010
1000
0001
0100
0010
1000
0100
,
0010
0001
0001
1000
1000
0010
0100
0010
,
1000
0010
0100
0001
0010
0100
1000
0100
,
0010
0010
0010
0001
0100
0010
0000
0000
,
1000
0001
0100
0010
1000
0000
0001
0000
,
0010
0000
0100
0000
1000
0001
0100
0000
,
0010
1000
0010
0100
0001
0010
0001
0000
,
0100
0010
1000
0010
0100
0001
0010
0000
,
0001
0100
0010
1000
0010
0100
0010
0000
,
0000
1001
1001
0001
,
0100
0000
0010
1000
0010
0100
0001
0000
,
0010
0000
0100
1000
1100
0100
0010
0000
,
0001
0000
0100
0010
0110
0010
1000
0000
,
0010
0100
0001
0010
,
0200
0000
0300
1000
0001
0100
0010
1000
,
0010
0000
0100
0000
0001
0010
0001
0000
,
0000
0000
1000
0001
,
0100
0010
1000
0001
,
0100
0000
0010
1000
0010
0100
0001
0000
,
0010
0000
0100
1000
0100
0010
0001
0000
,
0100
0000
0010
1000
0010
0100
0001
0010
,
0100
0000
0000
0000
1000
0001
0100
0010
,
1010
0001
0100
0010
,
1001
0010
0100
0000
0001
1000
0010
0100
,
0110
0010
1000
0000
0010
0100
0010
1000
,
1010
0000
0010
0010
0100
0000
0000
0000
0001
0000
0100
0000
0010
0000
1000
0000
,
0010
0100
0001
0010
,
1001
0000
0001
1000
0001
0000
0000
0000
1000
0000
0010
0000
0100
0000
0010
0000
,
0110
0010
1000
0000
0010
0100
0010
1000
,
1010
0010
0100
0000
0001
0010
0001
0000
,
1001
0000
0010
0000
0100
0001
1000
0001
,
1001
0010
0100
0001
,
0010
0100
1000
0100
0010
0001
1000
0001
,
1001
0000
0010
0000
0100
0000
0000
0001
0000
0010
0000
0000
0001
0000
0100
0000
,
0010
1000
0010
0100
0010
1000
0010
0100
,
0010
1000
0010
0000
0100
0001
0010
0001
,
0101
0010
1000
0000
0010
0100
0010
0100
,
0110
0001
1000
0000
0010
0100
0010
0100
,
0001
0010
0100
1000
0100
0000
0000
0000
,
0010
0001
0100
0010
1000
0010
0100
0001
,
0010
0001
0100
0010
1000
0010
0100
0001
,
0001
1000
0001
0000
0000
0000
0000
0000
0000
0000
0000
0000
0000
0000
0000
0000
,
0000
0000
0000
0000
,
0000
0000
0000
0010
;

//---------------dance-single - 4(Braeden)----------------
#NOTES:
     dance-single:
     4(Braeden):
     Easy:
     4:
     0.250,0.302,0.124,0.109,0.000,208.000,17.000,15.000,0.000,0.000:
0000
0000
0000
0000
,
1000
0100
0010
0010
,
0100
0100
0010
0010
,
0100
0001
0001
0001
,
0020
2030
3002
0203
,
0320
0000
1030
0100
,
0020
0032
0023
0230
,
1300
1000
0001
0100
,
0010
0010
0100
0001
,
0010
0010
0100
1000
,
0001
0010
1000
0001
,
0100
0010
1000
0001
,
0010
0010
0100
1000
,
0001
0001
0100
0010
,
1000
1000
0010
0100
,
0001
1000
0010
0000
,
0100
0001
0100
0000
,
0010
1000
0010
0000
,
0100
0100
0000
0000
,
0000
0000
0000
0000
,
1001
0001
0100
0010
,
1000
0100
0001
0100
,
1000
0010
0100
0001
,
0010
0010
0100
0000
,
1000
0001
0100
0010
,
1000
0001
0010
0010
,
0010
0100
1000
0001
,
0100
0010
0110
0010
,
1000
0001
1001
0000
,
0000
0000
1000
0001
,
0100
0010
1001
0010
,
0100
0010
1001
0100
,
0010
0100
0110
0000
,
0000
0000
1000
0001
,
0100
0000
0010
1000
,
0001
0000
0100
0010
,
0000
0000
1000
0000
,
0001
0000
0100
0010
,
1000
0100
0010
0001
,
0100
0010
1000
0001
,
0100
0010
1000
0100
,
0010
0000
0001
1000
,
0010
0100
0001
0010
,
0100
0100
1000
0001
,
0200
0310
1000
0100
,
0020
0130
1000
0001
,
1001
0010
0100
0010
,
1001
0010
0100
0010
,
1100
0100
0010
0100
,
0011
0100
0010
1000
,
0001
0000
0100
0010
,
1001
0000
0001
0000
,
0100
0010
1000
0001
,
0200
0320
2030
3001
,
1001
0000
0010
0010
,
1001
0010
0100
0001
,
1001
0010
0100
0010
,
1100
0001
0100
0010
,
0101
0010
1000
0000
,
0001
0000
1000
0000
,
0020
0000
0000
0030
,
1001
0000
0000
0000
,
0000
0000
0000
0000
,
0000
0000
0000
0001
;

//---------------dance-single - ----------------
#NOTES:
     dance-single:
     :
     Beginner:
     1:
     0.093,0.116,0.088,0.000,0.000,77.000,12.000,0.000,0.000,0.000:

0000
0000
0000
0000
,
0001
0000
0100
0000
,
0010
0000
0000
0000
,
1000
0000
0000
0000
,
0001
0000
0000
0000
,
0100
0000
0000
0000
,
0010
0000
0000
0000
,
1000
0000
0000
0000
,
0001
0000
0100
0000
,
0010
0000
1000
0000
,
0100
0000
0001
0000
,
0100
0000
0010
0000
,
0100
0000
0010
0000
,
0100
0000
0010
0000
,
1000
0000
0001
0000
,
0100
0000
0010
0000
,
0100
0000
0000
0000
,
0000
0000
0000
0000
,
0000
0000
0000
0000
,
0100
0000
0000
0000
,
0001
0000
0001
0000
,
0100
0000
0100
0000
,
0010
0000
0000
0000
,
0100
0000
0000
0000
,
0010
0000
0000
0000
,
1000
0000
1001
0000
,
0000
0000
1001
0000
,
0000
0000
1001
0000
,
0000
0000
0110
0000
,
0000
0000
1000
0000
,
0000
0000
1001
0000
,
0000
0000
0110
0000
,
0000
0000
1000
0000
,
0000
0000
0001
0000
,
0000
0000
0010
0000
,
0000
0000
0100
0000
,
0000
0000
0000
0000
,
0000
0000
1000
0000
,
0010
0000
0100
0000
,
0001
0000
0100
0000
,
0010
0000
0100
0000
,
0001
0000
0100
0000
,
0010
0000
0000
0000
,
1000
0000
0000
0000
,
1001
0000
0000
0000
,
0100
0000
0000
0000
,
0010
0000
0000
0000
,
1001
0000
0000
0000
,
0110
0000
0000
0000
,
0100
0000
0000
0000
,
0010
0000
0000
0000
,
1000
0000
0001
0000
,
0100
0000
0010
0000
,
1000
0000
0000
0000
,
0010
0000
0000
0000
,
0100
0000
0000
0000
,
1001
0000
0000
0000
,
1001
0000
0000
0000
,
0100
0000
0000
0000
,
0010
0000
0000
0000
,
1000
0000
0000
0000
,
1001
0000
0000
0000
,
0000
0000
0000
0000
,
0000
0000
0000
0001
;
