#TITLE:Brainfog;
#SUBTITLE:;
#ARTIST:Static-X;
#TITLETRANSLIT:;
#SUBTITLETRANSLIT:;
#ARTISTTRANSLIT:;
#CREDIT:;
#BANNER:../fallback - bn.png;
#BACKGROUND:../fallback - bg.png;
#LYRICSPATH:;
#CDTITLE:;
#MUSIC:Brainfog.ogg;
#OFFSET:0.236;
#SAMPLESTART:44.078;
#SAMPLELENGTH:12.000;
#SELECTABLE:YES;
#BPMS:0.000=150.680;
#STOPS:;
#BGCHANGES:;
// cache tags:
#FIRSTBEAT:4.000;
#LASTBEAT:350.333;
#SONGFILENAME:Songs/Beast Aoreo BEAST!/Brainfog - [Aoreo]/Brainfog.sm;
#HASMUSIC:1;
#HASBANNER:1;
#MUSICLENGTH:139.493;
// end cache tags

//---------------dance-single - J. Nero----------------
#NOTES:
     dance-single:
     J. Nero:
     Challenge:
     14:
     1.000,1.000,0.380,0.065,1.000,982.000,53.000,9.000,0.000,0.000:
0000
0000
0000
0000
,
1000
0001
0010
0100
1000
0010
0100
0010
,
0100
0001
0010
0100
1000
0001
0100
0010
,
0100
0001
1000
0100
1000
0001
0100
0001
,
0100
0000
0010
0000
1000
0100
0000
2000
0000
3010
0100
0000
0001
0000
0010
0000
,
0100
0000
1000
0000
0010
0100
0000
0002
0000
1003
0100
0000
1000
0000
0001
0000
,
0100
0000
0010
0000
0100
0001
0000
0020
0000
0130
1000
0000
0010
0000
0100
0000
,
0001
0000
0010
0000
0100
1000
0000
0020
0000
0130
0001
0000
0100
0000
0010
0000
,
1000
0000
0001
0000
0010
0100
0000
2000
0000
3010
0100
0000
0001
0000
0100
0000
,
0101
0000
0001
0000
1000
0100
0000
0020
0000
0130
1000
0000
0010
0000
0100
0000
,
0101
0001
1000
1100
0100
0010
0011
0001
,
0101
0000
0100
0000
0010
1000
0000
0020
0000
0130
0001
0000
1000
0000
0100
0000
,
0011
1001
0000
1100
0000
1010
0110
0000
,
0101
0000
0001
0000
1000
0001
0000
0020
0000
0130
1000
0000
0010
0000
0100
0000
,
0101
0001
1000
1100
0100
0010
0110
0100
,
1001
0000
0001
0000
0100
0001
0000
0020
0000
0130
1000
0000
0010
0000
0100
0000
,
0110
0101
0000
1001
0000
1100
1100
0000
,
1000
0100
0100
0001
0100
0100
1000
0010
0010
0001
0010
0010
1000
0100
0100
0001
,
0100
0100
1000
0010
0010
0100
0100
0010
0010
0100
0100
0001
0100
0100
1000
0100
,
0100
0010
1000
0100
0100
0001
0100
0100
1000
0010
0010
0001
0010
0010
1000
0100
,
0100
0010
0010
0100
0100
0010
0010
0100
0100
0001
0100
0100
1000
0010
0010
0001
,
0010
0010
1000
0100
0100
0001
0100
0100
1000
0010
0010
0001
0010
0010
1000
0100
,
0100
0010
0010
0100
0100
0010
0010
0100
0100
0001
0100
0100
1000
0010
0010
0001
,
1000
0100
0100
0001
0000
0000
1000
0100
0100
0001
0000
0000
1000
0100
0100
0001
,
1000
0100
1000
0010
0100
0001
0010
0100
1000
0100
0010
0001
0010
0000
0001
0000
0100
0000
0010
0000
1000
0000
0100
0000
,
1000
0000
0000
0000
0000
0000
0100
0000
0000
0000
0000
0000
1000
0000
0000
0000
0000
0000
0000
0000
0000
0000
0000
0000
0000
0000
0000
0000
0000
0000
0000
0000
0000
0000
0000
0000
0001
0000
0000
0000
0000
0000
0100
0000
0000
0000
0000
0000
0001
0000
0000
0000
0000
0000
0000
0000
0000
0000
0000
0000
0000
0000
0000
0000
0100
0000
0000
0000
0000
0000
0000
0000
0000
0000
0000
0000
0000
0000
0000
0000
0001
0000
0000
0000
0000
0000
0000
0000
0000
0000
0000
0000
0000
0000
0000
0000
0010
0000
0000
0000
0000
0000
0000
0000
0000
0000
0000
0000
0000
0000
0000
0000
0000
0000
0000
0000
0000
0000
0000
0000
0000
0000
0000
0000
0000
0000
0000
0000
0010
0000
0000
0000
0000
0000
0000
0000
0000
0000
0000
0000
0000
0000
0000
0000
0100
0000
0000
0000
0000
0000
0000
0000
0000
0000
0000
0000
0000
0000
0000
0000
1000
0000
0000
0000
0000
0000
0000
0000
0000
0000
0000
0000
0000
0000
0000
0000
0010
0000
0000
0000
0000
0000
0000
0000
0000
0000
0000
0000
0000
0000
0000
0000
,
0100
0001
1000
0100
1000
0010
0100
0001
0010
0100
1000
0010
0100
0000
0001
0000
1000
0000
0100
0000
1000
0000
0010
0000
,
0100
0000
0000
0000
0000
0000
0010
0000
0000
0000
0000
0000
0100
0000
0000
0000
0000
0000
0000
0000
0000
0000
0000
0000
0000
0000
0000
0000
0000
0000
0000
0000
0000
0000
0000
0000
0001
0000
0000
0000
0000
0000
0100
0000
0000
0000
0000
0000
0001
0000
0000
0000
0000
0000
0000
0000
0000
0000
0000
0000
0000
0000
0000
0000
0100
0000
0000
0000
0000
0000
0000
0000
0000
0000
0000
0000
0000
0000
0000
0000
0010
0000
0000
0000
0000
0000
0000
0000
0000
0000
0000
0000
0000
0000
0000
0000
1000
0000
0000
0000
0000
0000
0000
0000
0000
0000
0000
0000
0000
0000
0000
0000
0000
0000
0000
0000
0000
0000
0000
0000
0000
0000
0000
0000
0000
0000
0000
0000
1000
0000
0000
0000
0000
0000
0000
0000
0000
0000
0000
0000
0000
0000
0000
0000
0001
0000
0000
0000
0000
0000
0000
0000
0000
0000
0000
0000
0000
0000
0000
0000
0010
0000
0000
0000
0000
0000
0000
0000
0000
0000
0000
0000
0000
0000
0000
0000
0100
0000
0000
0000
0000
0000
0000
0000
0000
0000
0000
0000
0000
0000
0000
0000
,
1000
0001
1000
0010
0100
0001
1000
0100
0010
0001
1000
0010
1000
0000
0010
0000
0100
0000
0001
0000
1000
0000
0100
0000
,
1000
0000
0000
0000
0000
0000
0001
0000
0000
0000
0000
0000
1000
0000
0000
0000
0000
0000
0000
0000
0000
0000
0000
0000
0000
0000
0000
0000
0000
0000
0000
0000
0000
0000
0000
0000
0001
0000
0000
0000
0000
0000
0100
0000
0000
0000
0000
0000
0001
0000
0000
0000
0000
0000
0000
0000
0000
0000
0000
0000
0000
0000
0000
0000
0100
0000
0000
0000
0000
0000
0000
0000
0000
0000
0000
0000
0000
0000
0000
0000
0010
0000
0000
0000
0000
0000
0000
0000
0000
0000
0000
0000
0000
0000
0000
0000
1000
0000
0000
0000
0000
0000
0000
0000
0000
0000
0000
0000
0000
0000
0000
0000
0000
0000
0000
0000
0000
0000
0000
0000
0000
0000
0000
0000
0000
0000
0000
0000
1000
0000
0000
0000
0000
0000
0000
0000
0000
0000
0000
0000
0000
0000
0000
0000
0010
0000
0000
0000
0000
0000
0000
0000
0000
0000
0000
0000
0000
0000
0000
0000
0100
0000
0000
0000
0000
0000
0000
0000
0000
0000
0000
0000
0000
0000
0000
0000
0001
0000
0000
0000
0000
0000
0000
0000
0000
0000
0000
0000
0000
0000
0000
0000
,
0010
0100
1000
0100
1000
0010
0100
0010
0100
0001
0010
0100
1000
0000
0001
0000
0100
0000
0010
0000
1000
0000
0001
0000
,
0100
0000
0000
0000
0000
0000
0001
0000
0000
0000
0000
0000
0100
0000
0000
0000
0000
0000
0000
0000
0000
0000
0000
0000
0000
0000
0000
0000
0000
0000
0000
0000
0000
0000
0000
0000
0001
0000
0000
0000
0000
0000
1000
0000
0000
0000
0000
0000
0001
0000
0000
0000
0000
0000
0000
0000
0000
0000
0000
0000
0000
0000
0000
0000
1000
0000
0000
0000
0000
0000
0000
0000
0000
0000
0000
0000
0000
0000
0000
0000
0100
0000
0000
0000
0000
0000
0000
0000
0000
0000
0000
0000
0000
0000
0000
0000
1000
0000
0000
0000
0000
0000
0000
0000
0000
0000
0000
0000
0000
0000
0000
0000
0000
0000
0000
0000
0000
0000
0000
0000
0000
0000
0000
0000
0000
0000
0000
0000
0010
0000
0000
0000
0000
0000
0000
0000
0000
0000
0000
0000
0000
0000
0000
0000
0100
0000
0000
0000
0000
0000
0000
0000
0000
0000
0000
0000
0000
0000
0000
0000
0001
0000
0000
0000
0000
0000
0000
0000
0000
0000
0000
0000
0000
0000
0000
0000
1000
0000
0000
0000
0000
0000
0000
0000
0000
0000
0000
0000
0000
0000
0000
0000
,
0001
0100
0100
1000
0100
0100
0001
0010
0010
1000
0010
0010
0001
0100
0100
1000
,
0010
0010
0100
0100
0010
0010
0100
0100
0001
0010
0010
1000
0010
0010
0001
0100
,
0100
1000
0100
0100
0001
0010
0010
1000
0100
0100
0001
0100
0100
1000
0100
0100
,
0001
0100
0100
1000
0000
0000
0001
0010
0010
1000
0000
0000
0001
0100
0100
1000
,
0100
0100
0010
0010
0100
0100
0010
0010
0100
0100
0010
0010
0100
0100
0010
0010
,
0100
0100
0001
0100
0100
1000
0010
0010
0001
0010
0010
1000
0100
0100
0001
0010
,
0010
1000
0100
0100
0001
0010
0010
1000
0100
0100
0001
0100
0100
1000
0100
0100
,
0001
0010
0010
1000
0000
0000
0001
0100
0100
1000
0000
0000
0001
0100
0100
1000
,
0010
0010
0001
0100
0100
1000
0010
0010
0001
0100
0100
0010
0010
0100
0100
1000
,
0001
0100
0100
1000
0000
0000
0001
0010
0010
1000
0000
0000
0001
0100
0100
1000
,
0001
0100
0001
0000
0100
0010
1000
0000
0001
0100
0010
0000
,
1000
0010
0100
0001
0010
0000
0001
0000
0010
0000
0001
0000
1000
0010
0100
0001
1000
0000
0001
0000
1000
0000
0100
0000
,
1000
0100
0010
0001
0100
0000
0010
0000
0100
0000
0001
0010
0001
0100
0010
0000
1000
0100
0010
0001
0100
0010
1000
0000
,
0100
0000
1000
0000
0010
0000
0100
0000
0001
0000
1000
0000
0001
0010
0100
1000
0010
0100
0010
1000
0001
0010
0100
1000
,
0100
1000
0010
0100
0001
0010
0100
0000
1000
0010
0100
0001
,
1000
0000
0001
0000
0100
0000
0010
0000
0100
0000
0001
0000
1000
0100
0010
0001
0100
0010
1000
0100
1000
0001
0100
0010
,
0100
0000
0000
0000
0001
0000
1000
0100
1000
0010
0100
0001
0010
0001
0100
0000
0001
0000
0100
0000
0010
0000
1000
0000
,
0001
0010
0100
1000
0010
0100
0000
0000
0001
0000
0100
0000
0010
0000
1000
0000
0100
1000
0100
0000
1000
0000
0010
0000
,
0100
0000
0001
0010
0001
0100
0010
1000
0100
1000
0010
0100
0001
0000
0000
0000
0000
0000
0000
0000
0000
0101
0000
0000
,
0101
0000
0001
1000
0100
0000
1000
0010
0100
0001
0010
0100
1000
0000
0010
0100
,
0001
0000
0100
0010
1000
0000
0010
0100
0010
0000
0100
0001
1000
0000
0100
1000
,
0100
0000
1000
0001
1000
0000
0010
0100
0010
0000
0100
0001
1000
0000
0100
0010
,
0001
0000
0100
0010
1000
0000
0100
1000
0001
0000
0100
0010
0100
0000
1001
0000
,
1001
0000
0000
0001
0010
0100
1000
0100
1000
0010
0100
0001
0010
0100
1000
0010
0100
0010
1000
0100
1000
0100
0000
0000
,
1100
0000
0000
1000
0001
0100
0010
0100
0001
0010
0100
1000
0100
1000
0010
0100
0001
1000
0001
0100
0001
0100
0000
0000
,
0001
1000
0001
1000
0001
1000
0001
0000
0000
1001
0000
0000
0000
0000
0000
1000
0100
0010
0001
1000
0010
0100
0000
0000
,
0000
0000
0000
0000
,
0000
0000
0000
0000
,
0000
0000
0000
0000
,
0000
0000
0000
0000
,
0000
0000
0000
0000
,
1001
0001
0000
0000
,
0000
0000
0000
0000
,
0000
0000
0000
0000
,
0000
0000
0000
0000
0000
0000
0000
1001
,
1001
0000
0001
0100
0010
0000
1000
0100
0010
0000
0100
1000
0001
0000
0100
0010
,
0100
0000
0001
1000
0100
0000
1000
0010
0100
0000
0010
0100
0001
0000
1001
0000
,
1001
0000
1000
0100
0010
0000
0100
1000
0001
0000
0100
0010
1000
0000
0001
0100
,
0010
0000
0100
0001
0010
0000
0100
1000
0010
0000
0100
0001
1000
0000
1001
0000
,
1001
0000
0001
0010
0100
0000
0010
0100
1000
0000
0010
0100
0001
0000
1000
0010
,
0100
0000
0010
1000
0001
0000
0100
0001
0100
0000
0001
0010
0100
0000
1100
0000
,
1100
0000
1000
0010
0100
0000
0001
0010
0100
0000
1000
0001
1000
0000
0001
0100
,
0010
0000
0100
0010
1000
0000
0001
0100
0010
0000
0100
0001
1000
0000
1001
0000
,
1001
0000
0001
1000
0100
0000
1000
0100
0000
1000
0010
0100
0010
0000
0100
0000
,
0001
0000
0010
0100
1000
0000
0100
1000
0000
0001
0100
0010
0100
0000
0110
0000
,
0101
0000
0001
0000
0010
0100
0000
1000
0010
1000
0001
0100
0001
0000
0100
0000
,
0010
0000
1000
0100
1000
0000
0100
0010
0000
0001
1000
0010
0100
0000
0101
0000
,
1001
0000
1000
0100
0010
0000
0001
0100
0000
0010
1000
0001
0100
0000
0010
0000
,
0100
0000
0010
0100
0001
0000
1000
0100
0000
0010
0001
0100
0001
0000
0101
0000
,
1001
0000
1000
0010
0100
0000
0001
0010
0000
0100
1000
0100
0010
0000
0001
0000
,
1000
0000
0001
0010
0100
0000
1000
0010
0000
0100
0001
1000
0100
0000
1100
0000
,
1010
0000
0010
0000
0100
0001
0000
0010
0100
1000
0010
0100
0001
0000
0100
0000
,
0110
0000
0010
0000
1000
0001
0000
0100
0010
1000
0100
1000
0001
0000
0100
0000
,
0101
0000
0001
1000
0100
1000
0000
0010
0100
0001
0010
0100
1000
0000
0001
0000
,
1001
0000
1000
0100
0010
0100
0000
1000
0010
0100
0001
1000
0001
0000
0100
0000
,
0101
0000
0000
0101
0000
0000
1001
0000
0000
1010
0000
0000
0000
0000
0110
0000
0000
0000
0000
0000
0000
0000
0000
0000
;

//---------------dance-single - J. Nero----------------
#NOTES:
     dance-single:
     J. Nero:
     Hard:
     14:
     1.000,1.000,0.380,0.065,1.000,982.000,53.000,9.000,0.000,0.000:
0000
0000
0000
0000
,
1000
0001
0010
0100
1000
0010
0100
0010
,
0100
0001
0010
0100
1000
0001
0100
0010
,
0100
0001
1000
0100
1000
0001
0100
0001
,
0100
0000
0010
0000
1000
0100
0000
2000
0000
3010
0100
0000
0001
0000
0010
0000
,
0100
0000
1000
0000
0010
0100
0000
0002
0000
1003
0100
0000
1000
0000
0001
0000
,
0100
0000
0010
0000
0100
0001
0000
0020
0000
0130
1000
0000
0010
0000
0100
0000
,
0001
0000
0010
0000
0100
1000
0000
0020
0000
0130
0001
0000
0100
0000
0010
0000
,
1000
0000
0001
0000
0010
0100
0000
2000
0000
3010
0100
0000
0001
0000
0100
0000
,
0101
0000
0001
0000
1000
0100
0000
0020
0000
0130
1000
0000
0010
0000
0100
0000
,
0101
0001
1000
1100
0100
0010
0011
0001
,
0101
0000
0100
0000
0010
1000
0000
0020
0000
0130
0001
0000
1000
0000
0100
0000
,
0011
1001
0000
1100
0000
1010
0110
0000
,
0101
0000
0001
0000
1000
0001
0000
0020
0000
0130
1000
0000
0010
0000
0100
0000
,
0101
0001
1000
1100
0100
0010
0110
0100
,
1001
0000
0001
0000
0100
0001
0000
0020
0000
0130
1000
0000
0010
0000
0100
0000
,
0110
0101
0000
1001
0000
1100
1100
0000
,
1000
0100
1000
0001
0100
0010
1000
0010
0100
0001
0010
0100
1000
0100
0010
0001
,
0010
0100
1000
0010
0100
0001
1000
0010
0100
0001
0100
0001
1000
0010
1000
0100
,
1000
0010
1000
0001
0010
0001
0010
0100
1000
0100
0010
0001
0010
0100
1000
0100
,
1000
0010
0100
0001
0100
0010
1000
0001
0100
0001
0100
0010
1000
0010
0100
0001
,
0010
0100
1000
0100
0010
0001
0010
0100
1000
0010
0100
0001
1000
0010
1000
0010
,
0100
0010
0100
0001
1000
0010
0100
0001
1000
0001
0100
0010
1000
0010
0100
0001
,
0010
0100
1000
0100
0000
0000
1000
0001
1000
0001
0000
0000
1000
0010
0100
0001
,
1000
0100
1000
0010
0100
0001
0010
0100
1000
0100
0010
0001
0010
0000
0001
0000
0100
0000
0010
0000
1000
0000
0100
0000
,
1000
0000
0000
0000
0000
0000
0100
0000
0000
0000
0000
0000
1000
0000
0000
0000
0000
0000
0000
0000
0000
0000
0000
0000
0000
0000
0000
0000
0000
0000
0000
0000
0000
0000
0000
0000
0001
0000
0000
0000
0000
0000
0100
0000
0000
0000
0000
0000
0001
0000
0000
0000
0000
0000
0000
0000
0000
0000
0000
0000
0000
0000
0000
0000
0100
0000
0000
0000
0000
0000
0000
0000
0000
0000
0000
0000
0000
0000
0000
0000
0001
0000
0000
0000
0000
0000
0000
0000
0000
0000
0000
0000
0000
0000
0000
0000
0010
0000
0000
0000
0000
0000
0000
0000
0000
0000
0000
0000
0000
0000
0000
0000
0000
0000
0000
0000
0000
0000
0000
0000
0000
0000
0000
0000
0000
0000
0000
0000
0010
0000
0000
0000
0000
0000
0000
0000
0000
0000
0000
0000
0000
0000
0000
0000
0100
0000
0000
0000
0000
0000
0000
0000
0000
0000
0000
0000
0000
0000
0000
0000
1000
0000
0000
0000
0000
0000
0000
0000
0000
0000
0000
0000
0000
0000
0000
0000
0010
0000
0000
0000
0000
0000
0000
0000
0000
0000
0000
0000
0000
0000
0000
0000
,
0100
0001
1000
0100
1000
0010
0100
0001
0010
0100
1000
0010
0100
0000
0001
0000
1000
0000
0100
0000
1000
0000
0010
0000
,
0100
0000
0000
0000
0000
0000
0010
0000
0000
0000
0000
0000
0100
0000
0000
0000
0000
0000
0000
0000
0000
0000
0000
0000
0000
0000
0000
0000
0000
0000
0000
0000
0000
0000
0000
0000
0001
0000
0000
0000
0000
0000
0100
0000
0000
0000
0000
0000
0001
0000
0000
0000
0000
0000
0000
0000
0000
0000
0000
0000
0000
0000
0000
0000
0100
0000
0000
0000
0000
0000
0000
0000
0000
0000
0000
0000
0000
0000
0000
0000
0010
0000
0000
0000
0000
0000
0000
0000
0000
0000
0000
0000
0000
0000
0000
0000
1000
0000
0000
0000
0000
0000
0000
0000
0000
0000
0000
0000
0000
0000
0000
0000
0000
0000
0000
0000
0000
0000
0000
0000
0000
0000
0000
0000
0000
0000
0000
0000
1000
0000
0000
0000
0000
0000
0000
0000
0000
0000
0000
0000
0000
0000
0000
0000
0001
0000
0000
0000
0000
0000
0000
0000
0000
0000
0000
0000
0000
0000
0000
0000
0010
0000
0000
0000
0000
0000
0000
0000
0000
0000
0000
0000
0000
0000
0000
0000
0100
0000
0000
0000
0000
0000
0000
0000
0000
0000
0000
0000
0000
0000
0000
0000
,
1000
0001
1000
0010
0100
0001
1000
0100
0010
0001
1000
0010
1000
0000
0010
0000
0100
0000
0001
0000
1000
0000
0100
0000
,
1000
0000
0000
0000
0000
0000
0001
0000
0000
0000
0000
0000
1000
0000
0000
0000
0000
0000
0000
0000
0000
0000
0000
0000
0000
0000
0000
0000
0000
0000
0000
0000
0000
0000
0000
0000
0001
0000
0000
0000
0000
0000
0100
0000
0000
0000
0000
0000
0001
0000
0000
0000
0000
0000
0000
0000
0000
0000
0000
0000
0000
0000
0000
0000
0100
0000
0000
0000
0000
0000
0000
0000
0000
0000
0000
0000
0000
0000
0000
0000
0010
0000
0000
0000
0000
0000
0000
0000
0000
0000
0000
0000
0000
0000
0000
0000
1000
0000
0000
0000
0000
0000
0000
0000
0000
0000
0000
0000
0000
0000
0000
0000
0000
0000
0000
0000
0000
0000
0000
0000
0000
0000
0000
0000
0000
0000
0000
0000
1000
0000
0000
0000
0000
0000
0000
0000
0000
0000
0000
0000
0000
0000
0000
0000
0010
0000
0000
0000
0000
0000
0000
0000
0000
0000
0000
0000
0000
0000
0000
0000
0100
0000
0000
0000
0000
0000
0000
0000
0000
0000
0000
0000
0000
0000
0000
0000
0001
0000
0000
0000
0000
0000
0000
0000
0000
0000
0000
0000
0000
0000
0000
0000
,
0010
0100
1000
0100
1000
0010
0100
0010
0100
0001
0010
0100
1000
0000
0001
0000
0100
0000
0010
0000
1000
0000
0001
0000
,
0100
0000
0000
0000
0000
0000
0001
0000
0000
0000
0000
0000
0100
0000
0000
0000
0000
0000
0000
0000
0000
0000
0000
0000
0000
0000
0000
0000
0000
0000
0000
0000
0000
0000
0000
0000
0001
0000
0000
0000
0000
0000
1000
0000
0000
0000
0000
0000
0001
0000
0000
0000
0000
0000
0000
0000
0000
0000
0000
0000
0000
0000
0000
0000
1000
0000
0000
0000
0000
0000
0000
0000
0000
0000
0000
0000
0000
0000
0000
0000
0100
0000
0000
0000
0000
0000
0000
0000
0000
0000
0000
0000
0000
0000
0000
0000
1000
0000
0000
0000
0000
0000
0000
0000
0000
0000
0000
0000
0000
0000
0000
0000
0000
0000
0000
0000
0000
0000
0000
0000
0000
0000
0000
0000
0000
0000
0000
0000
0010
0000
0000
0000
0000
0000
0000
0000
0000
0000
0000
0000
0000
0000
0000
0000
0100
0000
0000
0000
0000
0000
0000
0000
0000
0000
0000
0000
0000
0000
0000
0000
0001
0000
0000
0000
0000
0000
0000
0000
0000
0000
0000
0000
0000
0000
0000
0000
1000
0000
0000
0000
0000
0000
0000
0000
0000
0000
0000
0000
0000
0000
0000
0000
,
0001
0010
0100
1000
0100
0010
0001
0100
0010
1000
0010
0100
0001
0010
0100
1000
,
0010
0100
0001
0100
0010
1000
0100
0010
0001
0010
0100
1000
0100
1000
0001
0100
,
0010
1000
0010
0100
0001
0100
0010
1000
0001
0100
0001
0100
0010
1000
0100
1000
,
0001
0010
0100
1000
0000
0000
0001
0010
0100
1000
0000
0000
0001
0100
0010
1000
,
0100
0010
0001
0010
0100
1000
0010
0100
0001
0100
0010
1000
0010
0100
0010
1000
,
0001
0010
0100
1000
0010
0100
0010
1000
0001
0010
0001
1000
0100
0010
0001
0010
,
0100
1000
0100
1000
0010
0100
0010
1000
0001
0100
0001
0100
0010
1000
0010
0100
,
0001
0010
0100
1000
0000
0000
0001
0010
0100
1000
0000
0000
0001
0100
0010
1000
,
0010
0100
0001
0100
0010
1000
0010
0100
0001
0100
0010
1000
0010
0100
0001
1000
,
0001
0010
0100
1000
0000
0000
0001
0010
0100
1000
0000
0000
0001
0100
0010
1000
,
0001
0100
0001
0000
0100
0010
1000
0000
0001
0100
0010
0000
,
1000
0010
0100
0001
0010
0000
0001
0000
0010
0000
0001
0000
1000
0010
0100
0001
1000
0000
0001
0000
1000
0000
0100
0000
,
1000
0100
0010
0001
0100
0000
0010
0000
0100
0000
0001
0010
0001
0100
0010
0000
1000
0100
0010
0001
0100
0010
1000
0000
,
0100
0000
1000
0000
0010
0000
0100
0000
0001
0000
1000
0000
0001
0010
0100
1000
0010
0100
0010
1000
0001
0010
0100
1000
,
0100
1000
0010
0100
0001
0010
0100
0000
1000
0010
0100
0001
,
1000
0000
0001
0000
0100
0000
0010
0000
0100
0000
0001
0000
1000
0100
0010
0001
0100
0010
1000
0100
1000
0001
0100
0010
,
0100
0000
0000
0000
0001
0000
1000
0100
1000
0010
0100
0001
0010
0001
0100
0000
0001
0000
0100
0000
0010
0000
1000
0000
,
0001
0010
0100
1000
0010
0100
0000
0000
0001
0000
0100
0000
0010
0000
1000
0000
0100
1000
0100
0000
1000
0000
0010
0000
,
0100
0000
0001
0010
0001
0100
0010
1000
0100
1000
0010
0100
0001
0000
0000
0000
0000
0000
0000
0000
0000
0101
0000
0000
,
0101
0000
0001
1000
0100
0000
1000
0010
0100
0001
0010
0100
1000
0000
0010
0100
,
0001
0000
0100
0010
1000
0000
0010
0100
0010
0000
0100
0001
1000
0000
0100
1000
,
0100
0000
1000
0001
1000
0000
0010
0100
0010
0000
0100
0001
1000
0000
0100
0010
,
0001
0000
0100
0010
1000
0000
0100
1000
0001
0000
0100
0010
0100
0000
1001
0000
,
1001
0000
0000
0001
0010
0100
1000
0100
1000
0010
0100
0001
0010
0100
1000
0010
0100
0010
1000
0100
1000
0100
0000
0000
,
1100
0000
0000
1000
0001
0100
0010
0100
0001
0010
0100
1000
0100
1000
0010
0100
0001
1000
0001
0100
0001
0100
0000
0000
,
0001
1000
0001
1000
0001
1000
0001
0000
0000
1001
0000
0000
0000
0000
0000
1000
0100
0010
0001
1000
0010
0100
0000
0000
,
0000
0000
0000
0000
,
0000
0000
0000
0000
,
0000
0000
0000
0000
,
0000
0000
0000
0000
,
0000
0000
0000
0000
,
1001
0001
0000
0000
,
0000
0000
0000
0000
,
0000
0000
0000
0000
,
0000
0000
0000
0000
0000
0000
0000
1001
,
1001
0000
0001
0100
0010
0000
1000
0100
0010
0000
0100
1000
0001
0000
0100
0010
,
0100
0000
0001
1000
0100
0000
1000
0010
0100
0000
0010
0100
0001
0000
1001
0000
,
1001
0000
1000
0100
0010
0000
0100
1000
0001
0000
0100
0010
1000
0000
0001
0100
,
0010
0000
0100
0001
0010
0000
0100
1000
0010
0000
0100
0001
1000
0000
1001
0000
,
1001
0000
0001
0010
0100
0000
0010
0100
1000
0000
0010
0100
0001
0000
1000
0010
,
0100
0000
0010
1000
0001
0000
0100
0001
0100
0000
0001
0010
0100
0000
1100
0000
,
1100
0000
1000
0010
0100
0000
0001
0010
0100
0000
1000
0001
1000
0000
0001
0100
,
0010
0000
0100
0010
1000
0000
0001
0100
0010
0000
0100
0001
1000
0000
1001
0000
,
1001
0000
0001
1000
0100
0000
1000
0100
0000
1000
0010
0100
0010
0000
0100
0000
,
0001
0000
0010
0100
1000
0000
0100
1000
0000
0001
0100
0010
0100
0000
0110
0000
,
0101
0000
0001
0000
0010
0100
0000
1000
0010
1000
0001
0100
0001
0000
0100
0000
,
0010
0000
1000
0100
1000
0000
0100
0010
0000
0001
1000
0010
0100
0000
0101
0000
,
1001
0000
1000
0100
0010
0000
0001
0100
0000
0010
1000
0001
0100
0000
0010
0000
,
0100
0000
0010
0100
0001
0000
1000
0100
0000
0010
0001
0100
0001
0000
0101
0000
,
1001
0000
1000
0010
0100
0000
0001
0010
0000
0100
1000
0100
0010
0000
0001
0000
,
1000
0000
0001
0010
0100
0000
1000
0010
0000
0100
0001
1000
0100
0000
1100
0000
,
1010
0000
0010
0000
0100
0001
0000
0010
0100
1000
0010
0100
0001
0000
0100
0000
,
0110
0000
0010
0000
1000
0001
0000
0100
0010
1000
0100
1000
0001
0000
0100
0000
,
0101
0000
0001
1000
0100
1000
0000
0010
0100
0001
0010
0100
1000
0000
0001
0000
,
1001
0000
1000
0100
0010
0100
0000
1000
0010
0100
0001
1000
0001
0000
0100
0000
,
0101
0000
0000
0101
0000
0000
1001
0000
0000
1010
0000
0000
0000
0000
0110
0000
0000
0000
0000
0000
0000
0000
0000
0000
;
