#TITLE:Hotel Moonside;
#SUBTITLE:;
#ARTIST:Kanade Hayami;
#TITLETRANSLIT:;
#SUBTITLETRANSLIT:;
#ARTISTTRANSLIT:;
#CREDIT:;
#BANNER:Hotel Moonside - bn.png;
#BACKGROUND:Hotel Moonside - bg.png;
#LYRICSPATH:;
#CDTITLE:gpopcdtitle.png;
#MUSIC:Hotel Moonside.ogg;
#OFFSET:0.140;
#SAMPLESTART:72.430;
#SAMPLELENGTH:14.882;
#SELECTABLE:YES;
#DISPLAYBPM:129.000;
#BPMS:0.000=129.000,185.000=258.000,185.250=129.000,185.375=64.500,185.500=129.000,186.000=258.000,186.250=129.000,186.375=64.500,186.500=129.000,187.000=258.000,187.250=129.000,187.375=64.500,187.500=129.000,188.000=258.000,188.250=129.000,188.375=64.500,188.500=129.000,189.000=258.000,189.250=129.000,189.375=64.500,189.500=129.000,190.000=258.000,190.250=129.000,190.375=64.500,190.500=129.000,191.000=258.000,191.250=129.000,191.375=64.500,191.500=129.000,192.000=258.000,192.250=129.000,192.375=64.500,192.500=129.000,193.000=258.000,193.250=129.000,193.375=64.500,193.500=129.000,194.000=258.000,194.250=129.000,194.375=64.500,194.500=129.000,195.000=258.000,195.250=129.000,195.375=64.500,195.500=129.000,196.000=258.000,196.250=129.000,196.375=64.500,196.500=129.000,197.000=258.000,197.250=129.000,197.375=64.500,197.500=129.000,198.000=258.000,198.250=129.000,198.375=64.500,198.500=129.000,199.000=258.000,199.250=129.000,199.375=64.500,199.500=129.000,200.000=258.000,200.250=129.000,200.375=64.500,200.500=129.000,201.000=258.000,201.250=129.000,201.375=64.500,201.500=129.000,202.000=258.000,202.250=129.000,202.375=64.500,202.500=129.000,203.000=258.000,203.250=129.000,203.375=64.500,203.500=129.000,204.000=258.000,204.250=129.000,204.375=64.500,204.500=129.000,205.000=258.000,205.250=129.000,205.375=64.500,205.500=129.000,206.000=258.000,206.250=129.000,206.375=64.500,206.500=129.000,207.000=258.000,207.250=129.000,207.375=64.500,207.500=129.000,208.000=258.000,208.250=129.000,208.375=64.500,208.500=129.000,209.000=258.000,209.250=129.000,209.375=64.500,209.500=129.000,210.000=258.000,210.250=129.000,210.375=64.500,210.500=129.000,211.000=258.000,211.250=129.000,211.375=64.500,211.500=129.000,212.000=258.000,212.250=129.000,212.375=64.500,212.500=129.000,217.000=258.000,217.250=129.000,217.375=64.500,217.500=129.000,218.000=258.000,218.250=129.000,218.375=64.500,218.500=129.000,219.000=258.000,219.250=129.000,219.375=64.500,219.500=129.000,220.000=258.000,220.250=129.000,220.375=64.500,220.500=129.000,221.000=258.000,221.250=129.000,221.375=64.500,221.500=129.000,222.000=258.000,222.250=129.000,222.375=64.500,222.500=129.000,223.000=258.000,223.250=129.000,223.375=64.500,223.500=129.000,224.000=258.000,224.250=129.000,224.375=64.500,224.500=129.000,225.000=258.000,225.250=129.000,225.375=64.500,225.500=129.000,226.000=258.000,226.250=129.000,226.375=64.500,226.500=129.000,227.000=258.000,227.250=129.000,227.375=64.500,227.500=129.000,228.000=258.000,228.250=129.000,228.375=64.500,228.500=129.000,229.000=258.000,229.250=129.000,229.375=64.500,229.500=129.000,230.000=258.000,230.250=129.000,230.375=64.500,230.500=129.000,231.000=258.000,231.250=129.000,231.375=64.500,231.500=129.000,232.000=258.000,232.250=129.000,232.375=64.500,232.500=129.000,233.000=258.000,233.250=129.000,233.375=64.500,233.500=129.000,234.000=258.000,234.250=129.000,234.375=64.500,234.500=129.000,235.000=258.000,235.250=129.000,235.375=64.500,235.500=129.000,236.000=258.000,236.250=129.000,236.375=64.500,236.500=129.000,237.000=258.000,237.250=129.000,237.375=64.500,237.500=129.000,238.000=258.000,238.250=129.000,238.375=64.500,238.500=129.000,239.000=258.000,239.250=129.000,239.375=64.500,239.500=129.000,240.000=258.000,240.250=129.000,240.375=64.500,240.500=129.000,241.000=258.000,241.250=129.000,241.375=64.500,241.500=129.000,242.000=258.000,242.250=129.000,242.375=64.500,242.500=129.000,243.000=258.000,243.250=129.000,243.375=64.500,243.500=129.000,244.000=258.000,244.250=129.000,244.375=64.500,244.500=129.000,245.000=258.000,245.250=129.000,245.375=64.500,245.500=129.000,246.000=258.000,246.250=129.000,246.375=64.500,246.500=129.000,247.000=258.000,247.250=129.000,247.375=64.500,247.500=129.000,248.000=258.000,248.250=129.000,248.375=64.500,248.500=129.000,249.000=258.000,249.250=129.000,249.375=64.500,249.500=129.000,250.000=258.000,250.250=129.000,250.375=64.500,250.500=129.000,251.000=258.000,251.250=129.000,251.375=64.500,251.500=129.000,252.000=258.000,252.250=129.000,252.375=64.500,252.500=129.000,253.000=258.000,253.250=129.000,253.375=64.500,253.500=129.000,254.000=258.000,254.250=129.000,254.375=64.500,254.500=129.000,255.000=258.000,255.250=129.000,255.375=64.500,255.500=129.000,256.000=258.000,256.250=129.000,256.375=64.500,256.500=129.000,257.000=258.000,257.250=129.000,257.375=64.500,257.500=129.000,258.000=258.000,258.250=129.000,258.375=64.500,258.500=129.000,259.000=258.000,259.250=129.000,259.375=64.500,259.500=129.000,260.000=258.000,260.250=129.000,260.375=64.500,260.500=129.000,261.000=258.000,261.250=129.000,261.375=64.500,261.500=129.000,262.000=258.000,262.250=129.000,262.375=64.500,262.500=129.000,263.000=258.000,263.250=129.000,263.375=64.500,263.500=129.000,264.000=258.000,264.250=129.000,264.375=64.500,264.500=129.000;
#STOPS:36.000=-3.721
,44.000=-3.256
,52.000=-3.256
,60.000=-3.256
,293.000=-3.721
,301.000=-3.256
,309.000=-3.256
,317.000=-3.256
;
#BGCHANGES:;
// cache tags:
#FIRSTBEAT:20.000;
#LASTBEAT:325.750;
#SONGFILENAME:Songs/Index Tournament 1/Hotel Moonside [Gpop]/Hotel Moonside.sm;
#HASMUSIC:1;
#HASBANNER:1;
#MUSICLENGTH:128.863;
// end cache tags

//---------------dance-single - Gpop----------------
#NOTES:
     dance-single:
     Gpop:
     Challenge:
     11:
     0.675,0.980,0.326,0.644,0.679,484.000,42.000,83.000,97.000,2.000:
0000
0000
0000
0000
,
0000
0000
0000
0000
,
0000
0000
0000
0000
,
0000
0000
0000
0000
,
0000
0000
0000
0000
,
1001
0000
0000
0000
1000
0000
0000
0000
0010
0000
0000
0100
0000
0000
0001
0000
,
0010
0000
0000
0000
0000
0000
0000
0000
0000
0000
0000
0000
0100
0000
0000
0000
0000
0000
0010
0000
0001
0000
0010
0000
0001
0000
0000
0000
0000
0000
0000
0000
0000
1000
0000
0000
0000
0000
0000
0000
0000
0000
0001
0000
0000
0000
0000
0000
,
0100
0010
0100
0010
1000
0001
1000
0001
,
1000
0000
0000
0100
0000
0000
0010
0000
0000
0001
0000
0000
1000
0000
0000
0100
0000
0000
0010
0000
0000
0001
0000
0000
1000
0000
0010
0000
0100
0000
0001
0000
0100
0000
0010
0000
1000
0000
0001
0000
0100
0000
0001
0000
1000
0000
0001
0000
,
0000
0000
0000
0000
0000
0000
MMMM
0000
0000
0000
0000
0000
0000
0000
0000
0000
0000
0000
0000
0000
0000
0000
0000
0000
0000
0000
0000
0000
0000
0000
0000
0000
0000
0000
0000
0000
0000
0000
0000
0000
0000
0000
0000
0000
0000
0000
0000
0000
M0M0
0000
0000
0000
0000
0000
0000
0000
M000
0000
0000
0000
0000
0000
0000
0000
M000
0000
0000
0000
0000
0000
0000
0000
M000
0000
0000
0000
0000
0000
0000
0000
M000
0000
0000
0000
0000
0000
0000
0000
M000
0000
0000
0000
0000
0000
0000
0000
M00M
0000
0000
0000
0000
0000
0000
0000
000M
0000
0000
0000
0000
0000
0000
0000
000M
0000
0000
0000
0000
0000
0000
0000
00MM
0000
0000
0000
0000
0000
0000
0000
0000
0000
0000
0000
0M00
0000
0000
0000
0000
0000
0000
0000
0000
0000
0000
0000
00M0
0000
0000
0000
0000
0000
0000
0000
0000
0000
0000
0000
000M
0000
0000
0000
0000
0000
0000
0000
0000
0000
0000
0000
M000
0000
0000
0000
0000
0000
0000
0000
0000
0000
0000
0000
00M0
0000
0000
0000
0000
0000
00M0
0000
0000
0000
0000
0000
,
00M0
0000
0000
0000
0000
0000
00M0
0000
0000
0000
0000
0000
00M0
0000
0000
0000
0000
0000
00M0
0000
0000
0000
0000
0000
0MM0
0000
0000
0000
0000
0000
0000
0000
0M00
0000
0000
0000
0000
0000
0000
0000
0M00
0000
0000
0000
0000
0000
0000
0000
0M0M
0000
0000
0000
0000
0000
0000
0000
0000
0000
0000
0000
0000
0000
0000
0000
0000
0000
0000
0000
0000
0000
0000
0000
0000
0000
0000
0000
0000
0000
0000
0000
0000
0000
0000
0000
0000
0000
0000
0000
0000
0000
0000
0000
0000
0000
0000
0000
0000
0000
0000
0000
0000
0000
0000
0000
0000
0000
0000
0000
0000
0000
0000
0000
0000
0000
0000
0000
0000
0000
0000
0000
0000
0000
0000
0000
0000
0000
0000
0000
0000
0000
0000
0000
0000
0000
0000
0000
0000
0000
0000
0000
0000
0000
0000
0000
0000
0000
0000
0000
0000
0000
0000
0000
0000
0000
0000
0000
0000
0000
0000
0000
0000
0000
0000
0000
0000
0000
0000
0000
0000
0000
0000
0000
0000
0000
0000
0000
0000
0000
0000
0000
0000
0000
0000
0000
0000
0000
0000
0000
0000
0000
0000
0000
,
0000
00M0
0MM0
00M0
00M0
0MMM
0000
0000
0000
0000
0000
0000
0000
0000
0000
0000
,
0000
0000
0000
0000
,
0000
MMM0
000M
MMM0
M000
MMMM
0000
0000
0000
0000
0000
0000
0000
0000
0000
0000
,
0000
0000
0000
0000
,
0000
M0M0
0M00
M0M0
0000
0000
0000
0000
0000
0000
0000
0000
0000
0000
0000
0000
,
0000
0000
0000
0000
,
0000
0M0M
00M0
0M0M
2010
0000
0000
0000
3002
0000
0013
0100
0010
0001
1000
0020
,
0000
0000
0230
0000
0301
0000
0000
0000
2000
0000
3100
0010
0100
1000
0001
0200
,
0000
0000
0000
0000
0310
0000
0000
0000
2000
0000
3010
0100
0010
1000
0001
0020
,
0000
0000
0230
0000
1300
0000
0000
0000
0002
0000
0013
0100
0010
0001
0100
0020
,
0000
0000
0000
0000
2030
0000
0000
0000
3002
0000
0013
0100
1000
0010
0100
0002
,
0000
0000
1003
0000
1020
0000
0000
0000
0230
0000
0301
1000
0001
0100
0010
2000
,
0000
0000
3100
0000
0120
0000
0000
0000
0032
0000
0013
0100
1000
0001
0100
0020
,
0000
0000
1030
0000
1001
0000
0001
0000
1001
0000
1000
0000
1100
0000
0000
0011
,
0000
0000
1001
0000
1020
0000
0000
0000
0230
0000
0301
0010
0001
0100
0010
2000
,
0000
0000
3001
0000
0021
0000
0000
0000
0032
0000
1003
0010
0100
0001
1000
0020
,
0000
0000
0130
0000
0102
0000
0000
0000
2003
0000
3100
0010
0001
0010
0100
2000
,
0000
0000
3010
0000
0110
0000
0100
0000
0101
0000
0001
0000
1001
0000
0000
1100
,
0000
0000
0101
0000
1010
0000
1000
0001
0010
0000
0100
0000
1000
0000
0010
0002
,
0000
0000
0013
0000
1000
0000
0001
0010
0100
0000
0010
0001
1000
0000
0010
0002
,
0000
0000
0000
0000
0013
0000
1000
0010
0100
0000
0001
0000
1000
0000
0100
0002
,
0000
0103
2000
0000
3020
0000
0032
0000
,
0203
0000
0000
0000
1300
0000
0001
0100
0010
0000
1000
0001
0010
0000
0100
0002
,
0000
0000
0103
0000
1000
0000
0010
0100
0001
0010
0100
0000
1000
0000
0100
0002
,
0000
0000
0000
0000
0103
0000
0010
0001
0100
0000
0010
0000
1000
0000
0001
0200
,
0000
0000
0310
0000
1010
0000
1000
0000
0011
0000
0001
0000
2200
0000
0000
3300
,
0022
0000
0033
0000
0000
0000
0000
1000
,
0001
0000
1000
0000
1001
0000
0000
0000
0001
0000
0100
0000
0010
0000
1000
0002
,
0000
0000
0013
0000
0100
0000
0000
0200
0000
0000
1300
0000
0010
0000
0000
0020
,
0000
0000
0100
0000
0130
0000
0000
0000
0001
0000
1000
0000
0010
0000
0000
0010
,
0000
0000
1000
0000
0001
0000
0000
0001
0000
0000
0010
0000
0200
0000
0000
0000
,
1300
0000
0000
0000
1001
0000
0000
0000
0001
0000
0100
0000
0010
0000
1000
0002
,
0000
0000
0000
0000
0000
0000
0013
0000
0000
0000
0000
0000
0100
0000
0000
0000
0000
0000
1000
0000
0000
0002
0000
0000
0000
0000
0000
0000
0000
0000
0103
0000
0010
0000
0100
0000
0010
0000
0000
0000
0000
0000
0000
0000
0000
2000
0000
0000
,
0000
0000
3001
0000
0010
0000
0100
0000
0010
0000
0100
0000
1000
0001
0100
0010
,
1000
0100
0010
0001
0010
0100
2000
0000
0000
0000
0000
0000
0002
0000
0000
0000
0000
0000
0010
0000
0000
0000
0000
0000
,
3013
0000
0000
0000
1002
0000
0000
0000
0103
0000
0010
0000
1000
0000
0001
0020
,
0000
0000
0130
0000
1000
0000
0000
1000
0000
0000
0001
0000
0100
0000
0000
0200
,
0010
0000
0301
0000
1000
0000
0000
0000
0100
0000
0010
0000
0100
0000
0000
0100
,
0000
0000
1000
0000
0001
0000
0000
0100
0000
0000
0010
0000
2010
0000
0000
0000
,
3001
0000
0000
0000
0021
0000
0000
0000
0130
0000
0010
0000
0001
0000
1000
0020
,
0000
0000
0130
0000
0001
0000
0000
2000
0000
0000
3100
0000
0020
0000
0000
0000
,
0032
0100
1003
0000
0002
0010
1003
0000
,
0002
0010
0203
0000
0020
0030
0020
0030
,
0310
0000
0000
0000
1002
0000
0000
0000
0013
0000
0100
0000
0010
0000
0001
2000
,
0000
0000
3010
0000
0100
0000
0000
0001
0000
0000
1000
0000
0100
0000
0000
0020
,
0001
0000
0130
0000
1000
0000
0000
0000
0001
0000
0100
0000
0010
0000
1000
0002
,
0000
0000
1003
0000
0100
0000
0000
0010
0000
0000
0100
0000
2100
0000
0000
0000
,
3001
0000
0000
0000
0201
0000
0000
0000
0310
0000
1000
0000
0001
0000
0010
0200
,
0000
0000
0310
0000
0001
0000
0000
2000
0000
0000
0010
0000
3010
0000
0000
0000
,
2000
0100
3001
0000
2000
0010
3001
0000
,
2000
0100
3020
0000
0200
0300
0200
0300
,
0130
0000
0000
0000
1001
0000
0000
0000
1100
0000
0000
0000
0011
0000
0000
0001
,
0100
0000
0010
0000
1010
0000
0000
1000
0100
0000
0010
0000
0011
0000
0000
0001
,
1000
0000
0010
0000
0110
0000
0000
0000
0101
0000
0000
0000
1010
0000
0000
1000
,
0100
0000
0010
0000
0011
0000
0000
0001
0100
0000
0010
0000
2010
0000
0000
0000
,
3100
0000
0000
0000
1001
0000
0000
0000
0101
0000
0100
0010
1000
0000
0001
0020
,
0000
0000
0000
0000
0000
0000
0130
0000
0000
0000
0000
0000
1000
0000
0000
0000
0000
0000
0000
0000
0000
0002
0000
0000
0000
0000
0000
0000
0000
0000
0103
0000
0010
0000
0100
0000
0001
0000
0000
0000
0000
0000
1000
0000
0000
0100
0000
0000
,
0010
0001
1000
0001
0100
0000
0010
0000
0100
0000
0010
0000
1000
0000
0001
0000
,
1000
0001
1000
0100
1000
0100
0010
0001
,
0010
0000
0001
0000
1000
0010
1000
0001
0100
0001
1000
0100
0010
0001
1000
0100
,
0010
0001
0010
0100
1000
0001
0100
0001
1000
0100
0010
0001
0100
0010
0100
0010
,
1000
0000
0000
0010
0000
0000
0100
0000
0000
0001
0000
0000
1000
0000
0100
0000
0010
0000
0100
0000
1000
0000
0001
0000
0010
0000
0100
0000
1000
0000
0100
0000
0010
0000
0001
0000
1000
0000
0010
0000
0100
0000
0010
0000
0100
0000
0001
0000
,
0100
0000
0000
0000
0000
0000
0000
0000
0010
0000
0000
0000
0000
0000
0000
0000
1000
0000
0000
0000
0000
0000
0000
0000
0001
0000
0000
0000
0000
0000
0000
0000
0100
0000
0000
0000
0000
0000
0000
0000
0001
0000
0000
0000
0000
0000
0000
0000
0000
0000
0000
0000
0000
0000
MMMM
0000
0000
0000
0000
0000
0000
0000
0000
0000
0000
0000
0000
0000
0000
0000
0000
0000
0000
0000
0000
0000
0000
0000
0000
0000
0000
0000
0000
0000
0000
0000
0000
0000
0000
0000
0000
0000
0000
0000
0000
0000
0000
0000
0000
0000
0000
0000
0000
0000
0000
0000
0000
0000
0000
0000
0000
0000
0000
0000
0000
0000
0000
0000
0000
0000
0000
0000
0000
0000
0000
0000
0000
0000
0000
0000
0000
0000
0000
0000
0000
0000
0000
0000
0000
0000
0000
0000
0000
0000
0000
0000
0000
0000
0000
0000
0000
0000
0000
0000
0000
0000
0000
0000
0000
0000
0000
0000
0000
0000
0000
0000
0000
0000
0000
0000
0000
0000
0000
0000
0000
0000
0000
0000
0000
0000
0000
0000
0000
0000
0000
0000
0000
0000
0000
0000
0000
0000
,
0000
0000
0000
0000
,
0000
0000
0000
0000
0000
00M0
0MM0
00M0
00M0
0MMM
0000
0000
0000
0000
0000
0000
,
0000
0000
0000
0000
,
0000
0000
0000
0000
0000
MMM0
000M
MMM0
M000
MMMM
0000
0000
0000
0000
0000
0000
,
0000
0000
0000
0000
,
0000
0000
0000
0000
0000
M0M0
0M00
M0M0
0000
0000
0000
0000
0000
0000
0000
0000
,
0000
0000
0000
0000
,
0000
0000
0000
0000
0000
0M0M
00M0
0M0M
0000
0000
0000
0000
0000
0000
0000
0000
;
