#TITLE:Determination;
#SUBTITLE:;
#ARTIST:AKIMO;
#TITLETRANSLIT:;
#SUBTITLETRANSLIT:;
#ARTISTTRANSLIT:;
#CREDIT:Kommisar;
#BANNER:../bn.png;
#BACKGROUND:../bg.png;
#LYRICSPATH:;
#CDTITLE:;
#MUSIC:AKIMO- Determination.ogg;
#OFFSET:-0.042;
#SAMPLESTART:77.900;
#SAMPLELENGTH:16.900;
#SELECTABLE:YES;
#DISPLAYBPM:230.000;
#BPMS:0.000=230.000;
#STOPS:;
#BGCHANGES:;
// cache tags:
#FIRSTBEAT:10.500;
#LASTBEAT:583.500;
#SONGFILENAME:Songs/Cirque du Zonda/Zaia - Determination/Determination.sm;
#HASMUSIC:1;
#HASBANNER:1;
#MUSICLENGTH:154.211;
// end cache tags

//---------------dance-single - Zaia - 14.7----------------
#NOTES:
     dance-single:
     Zaia - 14.7:
     Challenge:
     14:
     1.000,1.000,0.058,0.318,0.775,1092.000,9.000,49.000,16.000,0.000:
0000
0000
0000
0000
,
0000
0000
0000
0000
,
0000
0000
0000
0000
0000
0001
0100
0010
,
1000
0000
0001
0000
1000
0100
1000
0000
,
0001
0000
0100
0000
0010
1000
0010
0000
,
0100
0000
0010
0000
1000
0001
1000
0100
,
0000
0000
0010
0000
0001
0000
1000
0000
0000
0000
0010
0100
0001
0000
1000
0000
,
0100
0000
0010
0000
0001
0100
0001
0000
,
0010
0000
0100
0000
1000
0001
1000
0000
,
0001
0100
0001
0010
0001
1000
0100
1000
,
0010
1000
0001
0100
0001
1000
0100
1000
,
0001
0000
1000
0000
0001
0100
0001
0000
,
1000
0000
0100
0000
0010
0001
0010
0000
,
0100
0000
0010
0000
0001
1000
0001
0100
,
0000
0000
0010
0000
1000
0000
0001
0000
0000
0000
0010
0100
1000
0000
0001
0000
,
0010
0000
0001
1000
0001
0000
0100
0010
1000
0000
0001
0010
0001
0000
1000
0000
,
0000
0000
0001
0100
0010
1000
0001
1000
0001
0010
0100
1000
0001
1000
0001
0100
,
0010
1000
1000
1000
,
1000
0010
0100
0002
0000
0023
0000
0000
,
0230
0000
1300
0000
0001
0000
0100
0010
,
0000
1000
0100
0010
0000
0001
0100
0010
,
0120
0000
1000
0000
0130
0010
0200
0000
,
0001
0000
0000
0000
0000
0000
0000
0000
0010
0000
0000
0000
0000
0000
0000
0300
0001
0000
0000
0000
0100
0000
0000
0000
0002
0000
0000
0000
0000
0000
0000
0000
,
1000
0000
0010
0000
1003
0100
1000
0000
,
0001
0000
0010
0000
0010
0000
0100
0000
1000
0001
1000
0010
0100
0000
0001
0000
,
2000
0000
3001
0100
0001
0100
0001
0100
,
0010
0010
1000
0001
0001
0010
0100
1000
,
0001
0001
0100
0010
0010
0100
0001
1000
,
0010
0000
0010
0000
0100
0000
0001
0000
0010
0000
0010
0000
0001
0000
1000
0001
,
0010
0000
0100
0000
1000
0001
0100
0000
,
0010
2000
3002
0023
,
0230
0000
0000
2300
0000
0000
0000
0000
,
3100
0000
0010
0000
0010
0000
0001
0000
1000
0010
0100
0001
1000
0100
0010
0001
,
1000
0000
0010
0000
0100
0001
1000
0010
,
M00M
0010
0001
0100
M00M
0100
1000
0001
,
0000
0000
0100
0000
0010
0000
1000
1010
,
0000
0000
0001
0000
0010
0000
0011
0000
0000
0000
1000
0010
0100
0000
0001
0000
,
0000
0000
0100
0000
0001
1000
0001
0010
,
M00M
0010
1000
0100
M00M
0100
0001
1000
,
0000
0000
0100
0000
1000
0001
0010
0110
,
0000
0000
0100
0000
1000
0000
1001
0000
0001
0100
0010
0000
1000
0000
0001
0000
,
0000
0000
1000
0000
0100
0000
0010
0100
1000
0001
1000
0001
0100
0010
1000
0000
,
0000
0000
0001
0000
0000
0000
1000
0000
0010
0000
0100
0000
0010
0000
0100
0001
,
1000
0000
0001
0000
1000
0010
0000
0100
,
0000
0001
0010
0100
0000
1000
0001
0000
,
0010
0000
0100
0000
0010
0000
0100
1000
,
0000
0001
0100
0010
0000
1000
0100
0010
,
0002
0000
1000
0000
0013
0001
0020
0000
,
0001
0000
0100
0000
0031
1000
0200
0000
,
1000
0000
0010
0000
1300
0010
1000
0000
,
0100
0000
1000
0000
1000
0000
0001
0000
1000
0100
1000
0001
1000
0000
0001
0000
,
2000
0000
3001
0010
0001
0010
0001
0010
,
0100
0100
1000
0001
0001
0100
0010
0100
,
0001
0001
1000
0100
0100
0010
0001
0100
,
0001
0000
0001
0000
0100
0000
0010
0000
0010
0000
0100
0000
0001
0000
1000
0001
,
0100
0000
0010
0000
1000
0001
0010
0000
,
0100
2000
3002
0203
,
0320
0000
0000
0000
,
1030
0001
1000
0100
1000
0001
0100
0001
0010
0100
1000
0001
,
0100
0010
1000
0001
1000
0100
0010
0001
1000
0001
0100
0010
2000
0000
0000
0000
,
0000
0000
3002
0023
,
0230
0000
0000
2300
0000
0000
0000
0000
,
0000
0000
0000
0000
3010
0100
0001
1000
,
0020
0000
0000
0230
0000
0000
0000
0000
,
0000
0000
0302
0203
,
0320
0000
0000
2030
0002
0000
0003
0000
,
0020
0000
0000
0000
3030
0000
0001
0100
0001
0000
1000
0100
1000
0000
0001
0000
,
2000
0000
3200
0000
,
2300
0000
3020
0000
,
0230
0000
0302
0000
,
2003
0000
0000
0000
0000
0000
0000
0000
0000
0000
0000
0000
0000
0000
0000
0000
3200
0000
0000
0000
0000
0000
0000
0000
0320
0000
0000
0000
0000
0000
0000
0030
,
0001
0010
0100
1000
0010
0100
0001
0010
,
0100
0000
1000
0000
0010
0000
0100
0010
1000
0000
0001
0000
0010
0100
1000
0001
,
1000
0000
0001
1000
0000
0001
0000
1000
,
0000
0000
0100
0010
0100
0000
1000
0000
0000
0000
0001
0000
0010
0000
0100
0000
,
1000
0000
0001
0000
1000
0010
1000
0000
,
0001
0000
0010
0000
0100
1000
0100
0000
,
0010
0000
0100
0000
1000
0001
1000
0010
,
0000
0000
0100
0000
0001
0000
1000
0000
0000
0000
0100
0010
0001
0000
1000
0000
,
0010
0000
0100
0000
0001
0010
0001
0000
,
0100
0000
0010
0000
1000
0001
1000
0000
,
0001
0010
0001
0100
0001
1000
0010
1000
,
0100
1000
0001
0010
0001
1000
0010
1000
,
0001
0000
1000
0000
0001
0010
0001
0000
,
1000
0000
0010
0000
0100
0001
0100
0000
,
0010
0000
0100
0000
0001
1000
0001
0010
,
0000
0000
0100
0000
1000
0000
0001
0000
0000
0000
0100
0010
1000
0000
0001
0000
,
0100
0000
0010
0000
1000
0001
0100
0000
,
0010
1000
0001
1000
0100
1000
0001
0010
0100
1000
0001
1000
,
0010
0000
0000
0000
0000
0000
0100
0010
0100
0001
1000
0100
,
1000
0001
0100
0001
1000
0100
0010
0100
1000
0001
1000
0010
,
0100
0001
1000
0100
1000
0001
0010
0100
0010
0001
1000
0010
,
0100
0001
1000
0100
1000
0001
0010
0001
1000
0010
0100
0001
,
2000
0000
0000
0000
0000
0000
0000
0000
3000
0000
0000
0000
2000
0000
0000
0000
0000
0000
0000
0000
3000
0000
0000
0000
2000
0000
0000
0000
0000
0000
0000
3000
,
0000
1000
0010
1000
0001
0000
0100
0001
,
0010
0100
1000
0010
0000
0100
0010
1000
,
0100
0000
0010
0000
0001
0000
1000
0010
1000
0000
0001
0000
1000
0000
0100
0000
,
0010
0100
1000
0001
0100
0000
0010
1000
0001
1000
0100
0000
0010
0001
1000
0010
,
0100
0000
0001
1000
0010
1000
0001
0000
0100
0001
1000
0001
0010
0000
0100
0010
,
0001
0000
1000
0001
0010
0100
0010
0001
1000
0001
0100
0010
0100
0001
1000
0010
,
1000
0001
1000
0100
0010
0001
0010
0100
1000
0001
1000
0010
0100
0010
1000
0100
,
0010
0001
0001
1000
0010
0100
0100
0001
,
0000
0000
0000
1000
0000
0000
0001
0000
0000
0010
0000
0000
0100
0000
1000
0000
0001
0000
0100
0000
0010
0000
0100
0000
,
0001
0000
1000
0000
0001
0000
0010
0000
0100
0000
1000
0000
0001
0000
0100
0000
0010
0000
1000
0000
0000
0001
0000
0000
,
0000
0000
1000
0000
0001
0100
0010
1000
0001
1000
0100
0010
0100
1000
0010
1000
,
0001
0100
0010
1000
0001
0010
0100
1000
0001
0100
0010
1000
0001
0010
0100
1000
,
0001
0100
0010
1000
0001
0010
0100
1000
0001
0100
0010
1000
0001
0010
0100
1000
,
0001
0100
0001
0010
0100
1000
0010
0100
0010
1000
0001
0010
0100
1000
0100
0010
,
0001
1000
0001
0100
0010
1000
0001
0010
0001
1000
0010
1000
0001
0100
0010
0100
,
0001
1000
0100
0010
0100
1000
0001
0100
,
0001
0010
0001
0100
0010
1000
0100
0010
,
0001
1000
0010
0100
0001
1000
0100
1000
0001
1000
0100
0010
0001
0100
0010
1000
,
0001
0100
0001
1000
0100
1000
0010
0100
0001
1000
0001
0010
0100
1000
0001
1000
,
0010
0100
0001
0100
0010
0100
0001
0100
0010
1000
0001
1000
0100
1000
0001
1000
,
0010
0100
0001
0100
0010
0100
0001
1000
0100
1000
0001
0100
0010
1000
0001
1000
,
0100
1000
0010
0100
0001
0100
0010
1000
0100
0010
0001
0010
0100
1000
0001
0100
,
0010
1000
0010
0100
0001
1000
0001
0010
0100
0000
1000
0000
0010
0100
0001
0100
,
0010
1000
0010
0100
0001
0010
0001
1000
,
0100
1000
0001
0100
0010
1000
0001
0010
,
0000
0000
0100
1000
0001
1000
0001
0010
0100
1000
0001
1000
0010
0100
0001
0000
,
0000
1000
0001
0000
0000
0100
0001
0100
,
0001
0000
0000
0000
0000
0000
0100
0000
0000
0000
0000
0000
0010
0000
0000
0000
0000
0000
0000
0000
0000
0000
0000
0000
0100
0000
0000
0000
0010
0000
0000
0000
1000
0000
0000
0000
0001
0000
0000
0010
0000
0000
0100
0000
0000
1000
0000
0000
,
0001
0001
0001
0001
,
0011
0000
0000
0000
0010
0000
0000
0000
0100
1000
0001
0010
0001
0000
0000
0000
,
1000
0001
1000
0100
1000
0010
0100
0002
,
0000
0000
0023
0000
0000
0000
0230
0000
0000
0000
1300
0001
0010
0000
0001
0000
,
0100
0010
1000
0010
0100
0001
1000
0001
,
0010
0100
0010
0001
1000
0100
0010
0100
,
1000
0001
0100
0010
1000
0001
0010
0001
,
0100
0010
1000
0100
0010
0100
1000
0001
,
0100
0010
1000
0100
0010
0001
1000
0001
,
0100
0010
0100
0001
1000
0010
0100
0010
,
1000
0100
1000
0010
1000
0100
0010
0001
,
0100
0000
0001
0000
0010
0000
0001
0000
0100
0000
0010
1000
0001
0000
0010
0000
,
0100
0000
1000
0000
0001
0000
0100
0000
0001
0000
1000
0001
0100
0000
0010
0000
,
1000
0001
1000
0001
0100
0010
1000
0001
0010
0100
1000
0001
1000
0001
0100
0010
,
1000
0000
0010
0000
0100
0001
1000
0010
,
M00M
0010
0001
0100
M00M
0100
1000
0001
,
0000
0000
0100
0000
0010
0000
1000
1010
,
0000
0000
0001
0000
0010
0000
0011
0000
0000
0000
1000
0010
0100
0000
0001
0000
,
0000
0000
0100
0000
0001
1000
0001
0010
,
M00M
0010
1000
0100
M00M
0100
0001
1000
,
0000
0000
0100
0000
1000
0001
0010
0110
,
0000
0000
0100
0000
1000
0000
0001
0000
1000
0100
0010
0000
0001
0000
0000
0000
,
1000
0010
0100
0001
1000
0100
0010
0001
1000
0000
0001
0000
1000
0010
0200
0000
,
0000
0000
0000
0000
0000
0000
0000
0000
0000
0000
0000
0000
0310
1000
0001
0000
;
