#TITLE:Battle Music;
#SUBTITLE:Stepped By Teemu656;
#ARTIST:Naruto;
#TITLETRANSLIT:;
#SUBTITLETRANSLIT:;
#ARTISTTRANSLIT:;
#CREDIT:;
#BANNER:Naruto Battle Music-bn.jpg;
#BACKGROUND:Naruto Battle Music-bg.jpg;
#LYRICSPATH:;
#CDTITLE:Teemu656.jpg;
#MUSIC:Naruto Battle Music.mp3;
#OFFSET:0.000;
#SAMPLESTART:68.166;
#SAMPLELENGTH:12.000;
#SELECTABLE:YES;
#BPMS:0.000=88.020;
#STOPS:;
#BGCHANGES:;
// cache tags:
#FIRSTBEAT:8.500;
#LASTBEAT:128.500;
#SONGFILENAME:Songs/toune 1 (2010)/Naruto Battle Music/naruto - battle music(2).sm;
#HASMUSIC:1;
#HASBANNER:1;
#MUSICLENGTH:91.928;
// end cache tags

//---------------dance-single - ----------------
#NOTES:
     dance-single:
     :
     Hard:
     8:
     0.430,0.542,0.783,0.272,0.256,180.000,72.000,25.000,0.000,1.000:
0000
0000
0000
0000
,
0000
0000
0000
0000
,
0000
0000
0000
1001
0000
0000
0000
0000
0000
0000
0000
0000
0000
0000
0000
0000
0000
0000
0000
0000
0000
0000
0110
0000
,
0000
1001
0000
0000
0000
0000
0000
0000
0000
0000
0000
0000
,
1001
0000
0110
0000
0000
1000
1001
0000
0001
0000
0011
0000
,
1000
0000
1100
0000
0000
0000
1001
0000
0000
1000
0000
0000
0100
0000
0000
1001
0000
0000
0001
0000
0000
0010
0000
0000
,
1001
0110
1001
0011
1100
0101
0000
1010
,
0110
0000
0000
0101
0000
0000
0000
0000
0000
1010
0000
0000
0101
0000
0000
1000
0000
0000
0100
0000
0010
0000
0001
0000
,
0010
0000
0110
0000
0000
0000
0000
0000
0000
1000
0000
0000
0100
0000
0000
0001
0000
0000
0010
0000
0000
0100
0000
0000
,
1000
0100
0010
0001
0010
1000
0100
1000
,
1001
0110
0001
0011
0100
1100
0100
0101
,
0000
0000
0000
0000
0000
0000
2002
0000
0000
3003
0000
0000
2000
0000
3002
0000
0023
0000
0230
0000
2300
0000
3200
0000
,
0320
0032
0003
0000
1000
0100
0010
0001
0010
0100
1000
0000
,
0002
0000
0010
0010
0100
0100
1000
1003
0000
0000
0000
1001
,
0000
1000
1000
0001
0001
0010
0010
0100
,
0100
0000
0000
1100
0011
1100
0101
0000
,
2000
0002
3003
0000
1010
0101
1010
0101
,
1010
0000
1010
0000
0000
0000
0101
0000
0000
0011
0000
0000
1001
0000
0000
1100
0000
0000
2000
0000
3200
0000
0320
0000
,
0032
0000
0003
0000
0000
0000
1001
0000
0000
0110
0000
0000
0011
0000
0000
1100
0000
0000
1001
0000
0000
0110
0000
0000
,
0000
2000
0000
0002
0000
0003
0020
3030
,
0000
1001
0000
0000
0000
0000
0000
0000
,
0000
0000
1001
1001
0000
0000
0000
0000
,
0000
1001
0000
0110
0000
0000
0000
0000
,
0000
1001
0000
0000
0000
0000
0000
1001
,
0000
0000
1001
0000
0000
0000
0000
0000
0000
1000
0000
0000
1010
0000
0000
0001
0000
0000
0101
0000
0000
0010
0000
0000
,
1010
0000
0010
0011
0010
0011
1000
0100
,
0010
0000
0000
0001
0000
0000
0000
0000
0000
0010
0000
0000
0100
0000
0000
0000
1000
0000
0100
0000
0010
0000
0001
0000
,
0010
0110
0000
1000
0100
0010
0001
0010
0000
0010
0000
0010
,
1001
0000
2000
0000
0000
0002
0000
0000
0020
0003
0000
3030
,
0000
0000
1000
0001
0010
0100
1000
0100
0010
0000
0001
1000
,
0000
1000
1100
0001
0011
0100
1010
2002
,
3003
0000
0001
0101
0010
1010
0010
0011
,
0000
1001
0000
0000
0000
0000
0000
0000
;

//---------------dance-single - ----------------
#NOTES:
     dance-single:
     :
     Easy:
     1:
     0.000,0.000,0.000,0.000,0.000,0.000,0.000,0.000,0.000,0.000:
0000
0000
0000
0000
;
