#TITLE:Prison Born;
#SUBTITLE:Planetary Duality (2008);
#ARTIST:The Faceless;
#TITLETRANSLIT:;
#SUBTITLETRANSLIT:;
#ARTISTTRANSLIT:;
#CREDIT:;
#BANNER:prisonbn.png;
#BACKGROUND:prisonbg.png;
#LYRICSPATH:;
#CDTITLE:!sp1nz.png;
#MUSIC:prison.mp3;
#OFFSET:-0.040;
#SAMPLESTART:65.000;
#SAMPLELENGTH:11.600;
#SELECTABLE:YES;
#BPMS:0.000=260.001;
#STOPS:;
#BGCHANGES:;
// cache tags:
#FIRSTBEAT:36.000;
#LASTBEAT:481.000;
#SONGFILENAME:Songs/Astronomic Metal Collection 2/(sp1nzoK) Prison Born/prison.sm;
#HASMUSIC:1;
#HASBANNER:1;
#MUSICLENGTH:118.967;
// end cache tags

//---------------dance-single - ----------------
#NOTES:
     dance-single:
     :
     Challenge:
     15:
     1.000,1.000,1.000,0.395,1.000,1156.000,375.000,47.000,0.000,0.000:
0000
0000
0000
0000
,
0000
0000
0000
0000
,
0000
0000
0000
0000
,
0000
0000
0000
0000
,
0000
0000
0000
0000
,
0000
0000
0000
0000
,
0000
0000
0000
0000
,
0000
0000
0000
0000
,
0000
0000
0000
0000
,
1100
0010
0001
0100
1000
0100
0011
1000
0100
0010
0001
1000
0101
0010
0100
1000
,
0010
0100
1010
0100
0010
0001
1000
0001
0100
0010
0100
0010
0200
0000
0300
0000
,
0001
1000
0001
1000
0001
1000
0001
1000
0001
1000
0001
1000
0001
1000
0001
1000
,
0010
0100
0000
0001
1000
0000
0010
0001
0000
1000
0100
0000
0010
0001
0000
1000
0010
0000
0001
0100
0000
1000
0010
0000
,
0001
1000
0000
0010
0100
0000
0001
0100
0000
0010
1000
0000
0100
0001
0000
0010
1000
0000
0100
0000
0000
1000
0000
0000
,
0101
1010
0101
1010
0202
0000
0303
0000
0101
1010
0101
1010
0202
0000
0303
0000
,
1000
0110
1000
0110
1000
0110
0001
1100
0001
1100
0001
1100
,
0010
1001
0010
1001
0010
1001
0100
0011
0100
0011
0100
0011
,
1000
0110
0001
1100
0001
1100
0010
1001
0100
0011
0100
1010
,
0001
1010
0100
0011
0100
1001
0100
0011
1000
0101
1000
0011
,
1000
0001
0000
0100
1000
0000
0001
0010
0000
1000
0100
0000
0001
1000
0000
0100
0010
0000
1000
0001
0000
0010
0100
0000
,
0001
1000
0000
0010
0100
0000
0001
0100
0000
0010
1000
0000
0100
0001
0000
0010
1000
0000
0100
0000
0000
1000
0000
0000
,
0101
1010
0101
1010
0202
0000
0303
0000
0101
1010
0101
1010
0202
0000
0303
0000
,
1010
0001
0000
0100
0010
0000
1001
0010
0000
0100
1000
0000
0011
1000
0000
0100
0001
0000
1010
0000
0000
0000
0000
0000
,
1000
0110
1000
0110
1000
0110
0001
1100
0001
1100
0001
1100
,
0010
1001
0010
1001
0010
1001
0100
0011
0100
0011
0100
0011
,
1100
0001
0010
0100
1000
0001
1010
0001
0010
0100
1000
0001
,
1100
0010
0100
1000
0001
0010
0101
1000
0001
0010
0100
1000
,
0011
1100
0011
1100
0011
1100
0011
0000
0000
1100
0011
1100
,
0011
1100
0011
1100
0000
0000
0011
1100
0011
1100
0011
1100
,
0011
0000
0000
1100
0011
1100
0011
1100
0011
1100
0000
0000
,
0011
1100
0011
1100
0011
1100
0011
0000
0000
1100
0011
1100
,
0011
1100
0011
1100
0000
0000
0011
1100
0011
1100
0000
0000
,
0011
1100
0011
1100
0011
1100
0011
0000
0000
1100
0011
1100
,
0011
1100
0011
1100
0000
0000
0011
1100
0011
1100
0000
0000
,
0100
0010
0100
0010
0100
0010
0100
0000
0000
1000
0100
1000
,
0100
1000
0100
1000
0000
0000
0001
1000
0001
1000
0001
1000
,
0001
0000
0000
0010
0001
0010
0001
0010
0001
0010
0000
0000
,
0100
0010
0100
0010
0100
0010
0100
0000
0000
1000
0100
1000
,
0100
1000
0100
1000
0000
0000
0010
0001
0010
0001
0000
0000
,
1000
0100
1000
0100
1000
0100
1000
0000
0000
0001
1000
0001
,
1000
0001
1000
0001
0000
0000
0100
0010
0100
0010
0000
0000
,
0020
0000
0000
0000
0000
0000
0000
0000
0000
0000
0000
0000
0000
0000
0000
0030
,
0010
0001
0010
0100
0010
0100
1000
0100
,
1000
0001
1000
0001
0010
0001
1000
0001
,
0020
0000
0030
0200
0000
0300
2000
0000
,
3000
0002
0000
0003
0020
0000
0000
0000
,
0000
0000
0000
0000
0000
0000
0000
0000
0000
0000
0000
0000
0000
0000
0000
0030
,
0100
0010
1000
0010
1000
0100
0001
1000
,
0020
0000
0000
0000
0000
0000
0000
0030
0100
0000
0010
0000
2000
0000
0000
0000
,
0000
0000
0000
3000
0002
0000
0000
0000
0000
0003
2000
0000
0000
0000
0000
3000
,
0200
0000
0000
0000
0000
0300
0020
0000
0000
0000
0000
0030
0102
1000
0010
0100
,
1000
0010
1000
0010
1000
0100
0010
1000
0010
0000
0010
0000
1000
0100
0010
0100
,
1000
0010
1000
0013
0001
0100
1000
0010
,
0100
0001
1000
0010
1000
0010
0001
0100
,
1001
0100
0000
0010
0001
0000
0100
1000
0000
0001
0100
0000
0010
1000
0000
0100
0001
0000
1000
0000
0000
0010
0000
0000
,
1000
0010
0001
0100
1000
0010
0100
0001
,
1000
0000
0000
0010
0000
0000
1000
0000
0000
0010
0000
0000
0001
0000
0000
0100
0000
0000
1001
0100
0000
0010
0001
0000
,
0100
1000
0000
0001
0100
0000
0010
1000
0000
0100
0010
0000
0001
0000
0000
0100
0000
0000
0001
0000
0000
0100
0000
0000
,
1000
0010
0001
0100
0010
1000
0001
0100
,
0001
0000
0000
0100
0000
0000
1000
0000
0000
0010
0000
0000
1001
0010
0000
0100
1000
0000
0010
0100
0000
1000
0010
0000
,
0100
1000
0000
0010
0100
0000
0001
0010
0000
0100
1000
0000
0001
0010
0000
0100
0001
0000
1000
0100
0000
0010
1000
0000
,
0001
0010
0000
0100
0001
0000
0010
0100
0000
1000
0010
0000
0001
0010
0000
0100
1000
0000
0001
0010
0000
0100
0001
0000
,
1000
0100
0000
0010
1000
0000
0001
0010
0000
0100
0001
0000
0010
0100
0000
1000
0010
0000
0100
1000
0000
0010
0100
0000
,
1001
0000
0000
0000
0110
0000
0000
0000
1001
0000
0000
0000
0110
0000
0000
0000
1001
0000
0000
0000
0110
0000
0000
0000
2002
0000
0000
0000
0000
0000
0000
0000
0000
3003
0000
0000
0220
0000
0000
0000
0000
0000
0000
0000
0000
0330
0000
0000
,
2002
0000
0000
0000
0000
0000
0000
0000
0000
0000
0000
0000
0000
0000
0000
0000
0000
0000
0000
0000
0000
3003
0000
0000
0110
0000
0000
0000
1001
0000
0000
0000
0110
0000
0000
0000
1001
0000
0000
0000
0110
0000
0000
0000
1001
0000
0000
0000
,
0110
0001
0100
1010
0001
0010
0101
1000
0001
0110
1000
0001
,
1010
0001
1100
0001
0110
1000
0011
1000
,
1010
0001
0110
1000
0011
0100
1002
0000
,
0100
0000
0000
0000
0000
0000
0100
0000
0000
0003
0000
0000
1010
0000
0001
0000
0010
0000
0001
0000
0010
0000
0001
0000
,
0010
0001
0010
0001
0010
0001
1010
0001
0010
0001
0010
0001
,
2010
0000
0000
0000
0000
0000
0001
0000
0000
0000
0000
0000
0001
0000
0000
3000
0000
0000
0101
0000
0010
0000
0100
0000
,
0010
0100
0010
0101
0010
0100
0010
0100
0010
0100
0010
0100
,
1010
0000
0000
0000
0100
0000
0000
0000
0010
0000
0000
0000
0100
0000
0000
0000
0010
0000
0000
0000
0100
0000
0000
0000
0010
0000
0000
0000
0100
0000
0000
0000
0010
0000
0000
0000
0100
0000
0000
0010
0000
0000
0100
0000
0000
0010
0000
0000
,
1001
0000
0000
0000
0110
0000
0000
0000
1001
0000
0000
0000
0110
0000
0000
0000
1001
0000
0000
0000
0110
0000
0000
0000
2001
0000
0000
0000
0000
0000
0001
0000
0000
3000
0000
0000
0210
0000
0000
0000
0000
0000
0010
0000
0000
0300
0000
0000
,
2001
0000
0000
0000
0000
0000
0001
0000
0000
0000
0000
0000
0001
0000
0000
0000
0000
0000
0001
0000
0000
3000
0000
0000
0110
0000
0000
0000
1001
0000
0000
0000
0110
0000
0000
0000
1001
0000
0000
0000
0110
0000
0000
0000
1001
0000
0000
0000
,
0110
0001
0100
1010
0001
0010
0101
1000
0001
0110
1000
0001
,
1010
0001
1100
0001
0110
1000
0011
1000
,
1010
0001
0110
1000
0011
0100
1002
0000
,
0100
0000
0000
0000
0000
0000
0100
0000
0000
0003
0000
0000
1010
0000
0001
0000
0010
0000
0001
0000
0010
0000
0001
0000
,
0010
0001
0010
0001
0010
0001
1010
0001
0010
0001
0010
0001
,
2010
0000
0000
0000
0000
0000
0001
0000
0000
0000
0000
0000
0001
0000
0000
3000
0000
0000
0101
0000
0010
0000
0100
0000
,
0010
0100
0010
0101
0010
0100
0010
0100
0010
0100
0010
0100
,
1010
0000
0000
0000
0100
0000
0000
0000
0010
0000
0000
0000
0100
0000
0000
0000
0010
0000
0000
0000
0100
0000
0000
0000
0010
0000
0000
0000
0100
0000
0000
0000
0010
0000
0000
0000
0101
0000
0000
0010
0000
0000
0100
0000
0000
1000
0000
0000
,
0010
0100
0000
0001
1000
0000
0010
0001
0000
1000
0100
0000
0010
0001
0000
1000
0010
0000
0001
0100
0000
1000
0010
0000
,
0001
1000
0000
0010
0100
0000
0001
0100
0000
0010
1000
0000
0100
0001
0000
0010
1000
0000
0100
0000
0000
1000
0000
0000
,
0101
1010
0101
1010
0202
0000
0303
0000
0101
1010
0101
1010
0202
0000
0303
0000
,
1000
0110
1000
0110
1000
0110
0001
1100
0001
1100
0001
1100
,
0010
1001
0010
1001
0010
1001
0100
0011
0100
0011
0100
0011
,
1000
0110
0001
1100
0001
1100
0010
1001
0100
0011
0100
1010
,
0001
1010
0100
0011
0100
1001
0100
0011
1000
0101
1000
0011
,
1000
0001
0000
0100
1000
0000
0001
0010
0000
1000
0100
0000
0001
1000
0000
0100
0010
0000
1000
0001
0000
0010
0100
0000
,
0001
1000
0000
0010
0100
0000
0001
0100
0000
0010
1000
0000
0100
0001
0000
0010
1000
0000
0100
0001
0000
1000
0010
0000
,
0101
1010
0101
1010
0202
0000
0303
0000
0101
1010
0101
1010
0202
0000
0303
0000
,
1010
0001
0000
0100
0010
0000
1001
0010
0000
0100
1000
0000
0011
1000
0000
0100
0001
0000
1010
0000
0000
0000
0000
0000
,
1000
0110
1000
0110
1000
0110
0001
1100
0001
1100
0001
1100
,
0010
1001
0010
1001
0010
1001
0100
0011
0100
0011
0100
0011
,
1100
0001
0010
0100
1000
0001
1010
0001
0010
0100
1000
0001
,
1100
0010
0100
1000
0001
0010
0101
1000
0001
0010
0100
1000
,
0011
1100
0011
1100
0011
1100
0011
0000
0000
1100
0011
1100
,
0011
1100
0011
1100
0000
0000
0011
1100
0011
1100
0011
1100
,
0011
0000
0000
1100
0011
1100
0011
1100
0011
1100
0000
0000
,
0011
1100
0011
1100
0011
1100
0011
0000
0000
1100
0011
1100
,
0011
1100
0011
1100
0000
0000
0011
1100
0011
1100
0000
0000
,
0011
1100
0011
1100
0011
1100
0011
0000
0000
1100
0011
1100
,
0011
1100
0011
1100
0000
0000
0011
1100
0011
1100
0000
0000
,
0100
0010
0100
0010
0100
0010
0100
0000
0000
1000
0100
1000
,
0100
1000
0100
1000
0000
0000
0001
1000
0001
1000
0001
1000
,
0001
0000
0000
0010
0001
0010
0001
0010
0001
0010
0000
0000
,
0100
0010
0100
0010
0100
0010
0100
0000
0000
1000
0100
1000
,
0100
1000
0100
1000
0000
0000
0010
0001
0010
0001
0000
0000
,
1000
0100
1000
0100
1000
0100
1000
0000
0000
0001
1000
0001
,
1000
0001
1000
0001
0000
0000
0100
0010
0100
0010
0000
0000
,
1000
0110
1000
0110
1000
0110
0001
1100
0001
1100
0001
1100
,
0010
1001
0010
1001
0010
1001
0100
0011
0100
0011
0100
0011
,
1000
0101
1000
0101
1000
0101
0010
0101
0010
0101
0010
0101
,
1000
0110
1000
0110
1000
0110
0001
1100
0001
1100
0001
1100
,
0010
0101
0010
0101
0010
0101
1000
0110
1000
0110
1000
0110
,
0001
1100
0001
1100
0001
1100
0010
0101
0010
0101
0010
0101
,
1010
0100
0010
0001
1000
0100
0011
0100
0010
0001
1000
0100
1010
0100
1000
0001
,
0010
0100
1010
0001
0010
0100
0010
0001
2100
3000
0012
0003
2100
3000
0000
0000
,
0120
0030
0000
0000
;
