#TITLE:Another Planet;
#SUBTITLE:;
#ARTIST:Pendulum;
#TITLETRANSLIT:;
#SUBTITLETRANSLIT:;
#ARTISTTRANSLIT:;
#CREDIT:;
#BANNER:Another-Planet-bn.png;
#BACKGROUND:Another-Planet-bg.png;
#LYRICSPATH:;
#CDTITLE:cdtitle.png;
#MUSIC:Another Planet.mp3;
#OFFSET:-0.136;
#SAMPLESTART:103.085;
#SAMPLELENGTH:15.130;
#SELECTABLE:YES;
#BPMS:0.000=173.020;
#STOPS:;
#BGCHANGES:;
// cache tags:
#FIRSTBEAT:4.000;
#LASTBEAT:419.000;
#SONGFILENAME:Songs/StepmaniaFreak's Favorites/Another Planet/Another Planet.sm;
#HASMUSIC:1;
#HASBANNER:1;
#MUSICLENGTH:149.164;
// end cache tags

//---------------dance-single - ----------------
#NOTES:
     dance-single:
     :
     Challenge:
     13:
     1.000,1.000,1.000,0.047,1.000,1047.000,366.000,7.000,0.000,7.000:
0000
0000
0000
0000
,
0001
0010
0100
1000
0000
0000
0010
0000
,
0100
0000
0000
0000
,
1000
0000
0100
0010
0000
0000
0010
0001
,
0100
0000
0000
0000
0010
0100
1000
0000
,
0001
1000
0001
1000
0001
1000
0001
1000
,
0001
1000
0001
1000
0001
1000
0001
1000
,
0001
1000
0001
1000
0001
1000
0001
1000
0001
1000
0001
1000
0001
1000
0001
1000
,
0002
0000
0000
0000
,
1013
0000
1010
0100
0011
0000
1001
0010
1100
0010
1001
0000
0110
0000
0101
0010
,
1100
0000
1000
0000
1010
0000
0010
0100
0011
1000
0010
0000
0101
0000
0001
0010
,
1001
0000
0010
1100
0011
0000
0101
1010
0001
1010
0101
0000
0101
0000
1010
0100
,
0011
0000
0001
0110
1001
0000
0001
0110
1001
0100
0010
1100
0011
0000
0100
1010
,
0101
0000
0101
0010
1100
0000
1001
0100
0011
0100
1001
0000
0110
0000
1010
0100
,
0011
0000
0001
0000
0101
0000
0100
0010
1100
0001
0100
0000
1010
0000
1000
0100
,
1001
0000
0100
0011
1100
0000
1010
0101
1000
0101
1010
0000
1010
0000
0101
0010
,
1100
0000
1000
0110
1001
0000
1000
0110
1001
0010
0100
0011
1100
0000
0010
0001
,
1000
0000
1000
0100
0010
0100
0010
0001
,
1001
0000
0001
0000
0101
0000
0011
0100
0010
1000
0010
0000
0101
0000
0010
0100
,
1001
0000
0100
0000
0101
0000
1000
0010
1100
0001
0100
0000
1001
0000
0010
0100
,
0011
0000
0010
0000
1100
0000
0011
0100
0010
0100
0011
0100
2010
0000
0010
0100
,
3011
0000
0001
0000
0101
0000
0001
0100
0010
0100
0010
0000
0110
0000
0010
0001
,
0100
0000
0100
0000
0101
0000
0001
1000
0010
0100
0010
0000
1010
0000
1000
0100
,
0010
0000
0010
0000
1010
0000
1000
0010
0100
0001
0100
0000
0101
0000
0001
0100
,
0012
0010
0010
0010
0100
0100
0100
0100
,
1013
0000
0101
0000
1001
0000
0101
0010
0100
0010
1000
0000
0101
0000
0100
0010
,
1100
0000
0100
0000
0101
0000
0001
1000
0001
0100
0010
0000
1010
0000
1000
0100
,
0011
0000
0100
0011
1100
0000
0101
0010
0100
0010
1000
0000
0110
0000
1001
0100
,
0011
0000
0001
0000
1001
0000
1000
0100
0011
0100
1010
0100
0011
0000
0100
0010
,
1100
0000
0101
0000
1100
0000
0011
0100
0001
0100
0010
0000
1010
0000
0010
0100
,
0011
0000
0001
0000
1001
0000
1000
0010
0100
0001
0100
0000
1010
0000
0100
0010
,
1100
0000
0010
1100
0011
0000
1010
0100
0010
0100
0001
0000
0110
0000
1001
0010
,
1100
0000
1000
0000
1001
0000
0101
0010
1100
0010
0101
0000
1100
0000
0011
0000
,
1000
0000
1000
0100
0010
0100
0010
0001
,
1001
0000
0001
0000
0101
0000
0011
0100
0010
1000
0010
0000
0101
0000
0010
0100
,
1001
0000
0100
0000
0101
0000
1000
0010
1100
0001
0100
0000
1001
0000
0010
0100
,
0011
0000
0010
0000
1100
0000
0011
0100
0010
0100
0011
0100
2010
0000
0010
0100
,
3011
0000
0001
0000
1001
0000
1000
0010
0100
0001
0010
0000
1010
0000
0010
1000
,
0100
0000
0100
0000
0101
0000
0001
1000
0010
0100
0010
0000
1010
0000
0010
0100
,
0010
0000
0010
0000
1010
0000
0010
1000
0010
0100
0001
0000
0101
0000
0100
0001
,
0010
0000
0010
0000
0011
0100
0010
1000
0001
0100
0010
1000
0001
0100
0010
0100
,
0000
0000
0000
0000
,
1010
0000
0011
1100
0000
0010
1100
0010
1100
0011
0000
0011
,
1100
0000
0100
0011
0000
0001
0110
1000
0110
1001
0000
0010
,
1001
0000
0011
1100
0000
1100
0011
0100
0010
1100
0010
0100
,
0001
1000
0010
0100
0001
1000
0010
0100
0001
1000
0010
0100
,
0001
0000
0001
0110
0000
0100
0010
0100
1010
0101
0000
0100
,
0011
0000
0001
1100
0000
0100
0010
1000
0110
1001
0000
0100
,
0011
0000
0001
0110
0000
0100
0011
1000
0011
1100
0010
1000
,
0101
0000
0001
0110
0000
0100
0011
1000
0101
1010
0000
0100
,
1001
0000
0001
1100
0000
1100
0011
1000
0011
1100
0000
0100
,
0011
0000
1001
0110
0000
0110
1001
0100
1001
0110
0000
0110
,
1001
0000
0010
0101
0000
1000
0011
0100
0010
1000
0010
0100
,
0001
0100
0010
1000
0001
0100
0010
1000
0001
0100
0010
1000
,
0001
0000
0001
0110
0000
0100
0010
0100
1010
0101
0000
0100
,
0011
0000
0001
1100
0000
0100
0010
1000
0110
1001
0000
0100
,
0011
0000
0001
0110
0000
0100
0011
1000
0011
1100
0010
1000
,
0101
0000
0010
1100
0000
0001
0100
0010
1000
0011
0000
1000
,
0011
0000
0010
1100
0000
1000
0001
1000
0010
1001
0000
0100
,
1010
0000
1000
0101
0000
0001
0100
0010
1000
0110
0000
0100
,
1001
0000
0001
1010
0000
0010
0100
0001
1000
0011
1000
0010
,
1100
0000
0100
0011
0000
0001
0100
0010
1000
0101
0000
0001
,
1100
0000
0100
0011
0000
0001
1000
0001
0100
1001
0000
0010
,
0101
0000
0001
1010
0000
1000
0010
0100
0001
0110
0000
0010
,
1001
0000
1000
0101
0000
0100
0010
1000
0001
1100
0001
0100
,
0011
0000
1000
0101
0000
1000
0001
0100
0010
1100
0000
0100
,
1010
0000
1000
0101
0000
1000
0001
0100
0010
1001
0000
0010
,
1100
0000
0100
0011
0000
1000
0001
0100
0010
1001
0000
0001
,
0110
0000
0010
1100
0000
1000
0010
0100
0001
1100
0010
0100
,
1001
0000
0010
0000
0100
0000
1000
0000
0001
1000
0010
0000
0100
0000
1000
0010
,
0100
0000
0010
0000
0001
0000
0010
0000
0100
0010
1000
0000
0100
0000
0010
1000
,
0001
0100
0001
0100
0001
0100
0001
0100
0001
0100
0001
0100
0001
0100
0001
0100
,
0001
1000
0001
1000
0001
0100
0010
1000
0010
0100
0001
0100
0000
0000
0000
0000
,
0001
0010
0100
0010
0000
0000
0100
0000
,
1100
0000
0100
0000
0101
0000
0001
1000
0001
0100
0010
0000
1010
0000
1000
0100
,
0011
0000
0100
0011
1100
0000
0101
0010
0100
0010
1000
0000
0110
0000
1001
0100
,
0011
0000
0001
0000
1001
0000
1000
0100
0011
0100
1010
0100
0011
0000
0100
0010
,
1100
0000
0101
0000
1100
0000
0011
0100
0001
0100
0010
0000
1010
0000
0010
0100
,
0011
0000
0001
0000
1001
0000
1000
0010
0100
0001
0100
0000
1010
0000
0100
0010
,
1100
0000
0010
1100
0011
0000
1010
0100
0010
0100
0001
0000
0110
0000
1001
0010
,
1100
0000
1000
0000
1001
0000
0101
0010
1100
0010
0101
0000
1100
0000
0011
0000
,
1000
0000
1000
0100
0010
0100
0010
0001
,
1001
0000
0001
0000
0101
0000
0011
0100
0010
1000
0010
0000
0101
0000
0010
0100
,
1001
0000
0100
0000
0101
0000
1000
0010
1100
0001
0100
0000
1001
0000
0010
0100
,
0011
0000
0010
0000
1100
0000
0011
0100
0010
0100
0011
0100
2010
0000
0010
0100
,
3011
0000
0001
0000
0101
0000
0001
0100
0010
0100
0010
0000
0110
0000
0010
0001
,
0100
0000
0100
0000
0101
0000
0001
1000
0010
0100
0010
0000
1010
0000
1000
0100
,
0010
0000
0010
0000
1010
0000
1000
0010
0100
0001
0100
0000
0101
0000
0001
0100
,
0012
0010
0010
0010
0100
0100
0100
0100
,
1013
0000
0101
0000
1001
0000
0101
0010
0100
0010
1000
0000
0101
0000
0100
0010
,
1100
0000
0100
0000
0101
0000
0001
1000
0001
0100
0010
0000
1010
0000
1000
0100
,
0011
0000
0100
0011
1100
0000
0101
0010
0100
0010
1000
0000
0110
0000
1001
0100
,
0011
0000
0010
1001
0110
0000
1010
0100
0011
0100
1001
0000
0101
0000
1100
0010
,
0101
0000
1010
0000
0101
0000
0011
0100
0010
1000
0001
0000
0101
0000
0010
0100
,
1001
0000
0010
0000
1010
0000
1000
0010
0100
0001
0100
0000
1010
0000
0010
0100
,
0011
0000
1100
0010
0101
0000
1010
0100
0010
1000
0001
0000
1010
0000
0101
0010
,
1001
0000
1010
0000
1001
0000
1010
0100
0011
0100
1001
0000
0101
0000
1100
0010
,
1000
0000
1000
0100
0010
0100
0010
0001
,
1001
0000
0001
0000
0101
0000
0011
0100
0010
1000
0010
0000
0101
0000
0010
0100
,
1001
0000
0100
0000
0101
0000
1000
0010
1100
0001
0100
0000
1001
0000
0010
0100
,
0011
0000
0010
0000
1100
0000
0011
0100
0010
0100
0011
0100
2010
0000
0010
0100
,
3011
0000
0001
0000
1001
0000
0001
0100
0010
0100
0010
0000
0011
0000
0001
0000
,
0101
0000
0100
0000
0101
0000
0100
0010
1000
0010
0101
0000
1010
0000
1000
0100
,
0011
0000
0001
0000
1001
0000
1000
0010
0100
0001
1100
0000
0011
0000
0001
0100
,
0001
0000
0001
0000
1001
0000
0000
0010
1000
0001
0100
0010
1001
0000
0000
0000
;

//---------------dance-single - ----------------
#NOTES:
     dance-single:
     :
     Hard:
     12:
     1.000,1.000,1.000,0.020,1.000,994.000,229.000,3.000,0.000,3.000:
0000
0000
0000
0000
,
0001
0010
0100
1000
0000
0000
0010
0000
,
0100
0000
0000
0000
,
1000
0000
0100
0010
0000
0000
0010
0001
,
0100
0000
0000
0000
0010
0100
1000
0000
,
0001
1000
0001
1000
0001
1000
0001
1000
,
0001
1000
0001
1000
0001
1000
0001
1000
,
0001
1000
0001
1000
0001
1000
0001
1000
0001
1000
0001
1000
0001
1000
0001
1000
,
0002
0000
0000
0000
,
1013
0000
1000
0000
1001
0000
0001
0100
0010
0100
0001
0000
1001
0000
1000
0100
,
0011
0000
0001
0000
1001
0000
1000
0010
0100
0010
1000
0000
1001
0000
0001
0000
,
0110
0000
0000
0110
0000
0000
0110
0000
0000
0110
0000
0000
0110
0000
0110
0000
,
1001
0000
0100
0000
1001
0000
0100
0010
1000
0010
0100
0000
0101
0000
0001
0000
,
1001
0000
1000
0000
1010
0000
0010
0100
0001
0100
0010
0000
0110
0000
0100
0010
,
1001
0000
0001
0000
0101
0000
0100
0010
1000
0010
0100
0000
0101
0000
0001
0000
,
0110
0000
0000
0110
0000
0000
0110
0000
0000
0110
0000
0000
0110
0000
0110
0000
,
1001
0000
0010
0000
1001
0000
0010
0100
0001
0100
0010
0000
1010
0000
1000
0000
,
1000
0000
1000
0100
0010
0100
0010
0001
,
1001
0000
0001
0000
0101
0000
0001
0100
0010
1000
0010
0000
0101
0000
0010
0100
,
1001
0000
0100
0000
0101
0000
1000
0010
0100
0001
0100
0000
1001
0000
0010
0100
,
0011
0000
0010
0000
1100
0000
0010
0100
0010
0100
0010
0000
1010
0000
0010
0100
,
0011
0000
0001
0000
0101
0000
0001
0100
0010
0100
0010
0000
0110
0000
0010
0001
,
0100
0000
0100
0000
0101
0000
0001
1000
0010
0100
0010
0000
1010
0000
1000
0100
,
0010
0000
0010
0000
1010
0000
1000
0010
0100
0001
0100
0000
0101
0000
0001
0100
,
0012
0010
0010
0010
0100
0100
0100
0100
,
1013
0000
0101
0000
0110
0000
0010
0100
0001
0100
0010
0000
0101
0000
0100
0010
,
1100
0000
0100
0000
0101
0000
0001
1000
0001
0100
0010
0000
1010
0000
1000
0100
,
0011
0000
0100
0010
0100
0000
0001
0100
0010
0100
0001
0000
0110
0000
0001
0100
,
0011
0000
0001
0000
1001
0000
0001
0100
0010
0100
0001
0000
0101
0000
0100
0010
,
1100
0000
0101
0000
1100
0000
0010
0100
0001
0100
0010
0000
1010
0000
0010
0100
,
0011
0000
0001
0000
1001
0000
1000
0010
0100
0010
1000
0000
1010
0000
0100
0010
,
0100
0000
0010
0100
0011
0000
0001
0100
0010
0100
0001
0000
0101
0000
0100
0010
,
1100
1000
1001
1100
0110
0011
0110
1100
,
1000
0000
1000
0100
0010
0100
0010
0001
,
1001
0000
0001
0000
0101
0000
0001
0100
0010
0100
0001
0000
0101
0000
0010
0100
,
0001
0000
0100
0000
0101
0000
1000
0001
0100
0001
1000
0000
1001
0000
0010
0100
,
0011
0000
0010
0000
1100
0000
0001
0100
0010
1000
0010
0100
0001
0000
0001
0010
,
0001
0000
0001
0000
1001
0000
0000
1000
0010
0100
0001
0000
1010
0000
0010
1000
,
0100
0000
0100
0000
0101
0000
0001
1000
0010
0100
0010
0000
1010
0000
0010
0100
,
0010
0000
0010
0000
1010
0000
0010
1000
0010
0100
0001
0000
0101
0000
0100
0001
,
0010
0000
0010
0000
0001
0100
0010
1000
0001
0100
0010
1000
0001
0100
0010
1000
,
0000
0000
0000
0000
,
1001
0000
0010
1100
0000
0010
1000
0010
0100
0011
0000
1000
,
0001
0000
0001
1100
0000
1000
0010
0100
0001
1100
0000
0100
,
0001
0000
0001
0110
0000
0100
0010
1000
0010
0100
0001
0100
,
0001
1000
0010
0100
0001
1000
0010
0100
0001
1000
0010
0100
,
0001
0000
0001
0110
0000
1000
0001
0100
0010
1001
0000
0100
,
0001
0000
0001
1100
0000
1000
0001
0100
0010
1001
0000
0100
,
0001
0000
0001
0110
0000
0100
0010
1000
0010
0100
0001
0100
,
1010
0000
0000
0101
0000
0000
0110
0000
0110
1010
0000
0000
,
0011
0000
0000
1100
0000
1010
0101
0000
0101
1010
0000
0000
,
1100
0000
1100
0011
0000
0011
0101
0000
0101
1010
0000
1010
,
0110
0000
0110
0101
0000
0000
0011
0000
0000
0000
0000
0000
,
0001
0100
0010
1000
0001
0100
0010
1000
0001
0100
0010
1000
,
0001
0000
0001
0110
0000
1000
0010
0100
0001
0110
0000
0100
,
0001
0000
0001
1010
0000
0100
0010
1000
0001
1100
0000
0100
,
0001
0000
0001
0110
0000
0100
0010
1000
0010
0100
0010
1000
,
0001
0000
0001
1100
0000
1000
0010
0100
0001
0110
0000
1000
,
0001
0000
0001
1100
0000
1000
0010
0100
0001
1100
0000
0001
,
1000
0000
0100
1010
0000
0100
0010
1000
0001
0110
0000
0001
,
1000
0000
0010
1001
0000
0010
1000
0001
0100
0010
1000
0010
,
0100
0000
0100
0011
0000
0010
0100
0001
1000
0101
0000
0010
,
1000
0000
0010
1100
0000
0001
1000
0010
0100
1001
0000
1000
,
0010
0000
0010
1001
0000
0010
1000
0010
0100
1001
0000
0010
,
1000
0000
0010
1100
0000
0010
1000
0001
0100
0011
0000
1000
,
0010
0000
0010
1100
0000
0100
0001
1000
0001
0110
0000
1000
,
0001
0000
0001
0110
0000
1000
0001
0100
0010
1001
0000
0100
,
0001
0000
0001
1010
0000
1000
0001
0100
0010
1001
0000
0100
,
0010
0000
1000
0101
0000
0010
1000
0001
0100
1010
0000
0100
,
0001
0000
1000
0000
0100
0000
0010
0000
0001
1000
0100
0000
0010
0000
0001
0010
,
0100
0000
1000
0000
0100
0000
0010
0000
0001
0010
0100
0000
1000
0000
0100
0010
,
0001
0100
0001
0100
0001
0100
0001
0100
0001
0100
0001
0100
0001
0100
0001
0100
,
0001
1000
0001
1000
0001
0100
0010
1000
0010
0100
0001
0100
0000
0000
0000
0000
,
0001
0010
0100
0010
0000
0000
0100
0000
,
1100
0000
0100
0000
0101
0000
0001
1000
0001
0100
0010
0000
1010
0000
1000
0100
,
0011
0000
0100
0010
0100
0000
0001
0100
0010
0100
0001
0000
0110
0000
0001
0100
,
0011
0000
0001
0000
1001
0000
0001
0100
0010
0100
0001
0000
0101
0000
0100
0010
,
1100
0000
0101
0000
1100
0000
0010
0100
0001
0100
0010
0000
1010
0000
0010
0100
,
0011
0000
0001
0000
1001
0000
1000
0010
0100
0010
1000
0000
1010
0000
0100
0010
,
0100
0000
0010
0100
0011
0000
0001
0100
0010
0100
0001
0000
0101
0000
0100
0010
,
1100
1000
1001
1100
0110
0011
0110
1100
,
1000
0000
1000
0100
0010
0100
0010
0001
,
1001
0000
0001
0000
0101
0000
0001
0100
0010
0100
0001
0000
0101
0000
0010
0100
,
0001
0000
0100
0000
0101
0000
1000
0001
0100
0001
1000
0000
1001
0000
0010
0100
,
0011
0000
0010
0000
1100
0000
0001
0100
0010
1000
0010
0100
0001
0000
0001
0010
,
0001
0000
0001
0000
1001
0000
0000
1000
0010
0100
0001
0000
1010
0000
0010
1000
,
0100
0000
0100
0000
0101
0000
0001
1000
0010
0100
0010
0000
1010
0000
0010
0100
,
0010
0000
0010
0000
1010
0000
0010
1000
0010
0100
0001
0000
1001
0000
1000
0100
,
0012
0010
0010
0010
0100
0100
0100
0100
,
1013
0000
0101
0000
0110
0000
0010
0100
0001
0100
0010
0000
0101
0000
0100
0010
,
1100
0000
0100
0000
0101
0000
0001
1000
0001
0100
0010
0000
1010
0000
1000
0100
,
0011
0000
0100
0010
0100
0000
0001
0100
0010
0100
0001
0000
0110
0000
0001
0100
,
0011
0000
0001
0000
1001
0000
0001
0100
0010
0100
0001
0000
0101
0000
0100
0010
,
1100
0000
0101
0000
1100
0000
0010
0100
0001
0100
0010
0000
1010
0000
0010
0000
,
0011
0000
0001
0000
1001
0000
1000
0010
0100
0010
1000
0000
1010
0000
0100
0010
,
0100
0000
0100
0000
0101
0000
0001
0100
0010
0100
0001
0000
0101
0000
0100
0010
,
1100
1000
1001
1100
0110
0011
0110
1100
,
1000
0000
1000
0100
0010
0100
0010
0001
,
1001
0000
0001
0000
0101
0000
0001
0100
0010
0100
0001
0000
0101
0000
0010
0100
,
0001
0000
0100
0000
0101
0000
1000
0001
0100
0001
1000
0000
1001
0000
0010
0100
,
0011
0000
0010
0000
1100
0000
0001
0100
0010
1000
0010
0100
0001
0000
0001
0010
,
0001
0000
0001
0000
1001
0000
0000
1000
0010
0100
0001
0000
1010
0000
0010
1000
,
0100
0000
0100
0000
0101
0000
0001
1000
0010
0100
0010
0000
1010
0000
0010
0100
,
0010
0000
0010
0000
1010
0000
0010
1000
0010
0100
0001
0000
0101
0000
0100
0001
,
1000
0000
1000
0000
0001
0000
0000
1000
0100
0010
0001
0100
0010
0000
0000
0000
;
