#TITLE:Toccata & Fugue;
#SUBTITLE:;
#ARTIST:Beautiful Day;
#TITLETRANSLIT:;
#SUBTITLETRANSLIT:;
#ARTISTTRANSLIT:;
#CREDIT:;
#BANNER:Toccata & Fugue.png;
#BACKGROUND:Toccata & Fugue-bg.png;
#LYRICSPATH:;
#CDTITLE:NVLM-cdtitle.png;
#MUSIC:Toccata & Fugue.mp3;
#OFFSET:-0.477;
#SAMPLESTART:50.924;
#SAMPLELENGTH:12.000;
#SELECTABLE:YES;
#DISPLAYBPM:70.000:140.000;
#BPMS:0.000=120.000,36.000=140.000,124.000=70.000,132.000=140.000,164.000=70.000,168.000=140.000,216.000=70.000,220.000=140.000,232.000=70.000,236.000=140.000,244.000=280.000,248.000=105.000,264.000=140.000;
#STOPS:34.875=1.600
;
#BGCHANGES:;
// cache tags:
#FIRSTBEAT:3.250;
#LASTBEAT:321.000;
#SONGFILENAME:Songs/hard shit/Toccata & Fugue/Toccata & Fugue.sm;
#HASMUSIC:1;
#HASBANNER:1;
#MUSICLENGTH:156.395;
// end cache tags

//---------------dance-single - ----------------
#NOTES:
     dance-single:
     :
     Hard:
     14:
     1.000,1.000,0.844,0.934,1.000,911.000,132.000,146.000,0.000,46.000:  // measure 1
0000
0000
0000
0000
,  // measure 2
0000
0000
0000
0000
,  // measure 3
0000
0000
0000
0000
0000
1000
0100
2200
0000
0000
0000
0000
0000
0000
0000
3300
,  // measure 4
0000
0000
0000
0110
0000
1001
0000
0101
0000
2020
0000
0000
0000
0000
0000
0000
,  // measure 5
0000
3030
0000
0000
0000
2200
0000
0000
0000
0000
0000
0000
0000
0020
0000
0000
,  // measure 6
0000
0002
0000
3000
0000
2000
0000
0003
0000
0002
0000
0300
0000
0200
0000
0030
,  // measure 7
0000
0020
0000
0000
0000
0000
0000
0000
0000
3333
0000
0000
0000
0000
0000
0000
,  // measure 8
0000
0000
0000
0000
0000
2112
0000
0000
0000
0000
0000
0000
0000
0200
0000
0000
,  // measure 9
0000
0000
0000
0000
0000
0020
0000
0000
0000
0000
0000
0330
3003
0000
1100
0000
,  // measure 10
1001
0001
0100
0010
0100
0001
1000
0100
1000
0010
0100
1000
0100
0001
0010
0100
,  // measure 11
1000
0100
0010
0001
0010
0100
1000
0010
0100
0001
1000
0100
1000
0010
0100
0001
,  // measure 12
0101
0100
0010
1000
0010
1000
0100
0001
0100
0010
0001
0100
0001
1000
0010
0001
,  // measure 13
0010
0100
1000
0100
1000
0100
0001
0010
2002
0000
0000
0000
3003
0000
0000
0000
,  // measure 14
1100
1000
0001
0100
0010
0001
0010
1000
0100
0001
0100
1000
0100
0010
0001
1000
,  // measure 15
1001
0100
0220
0331
1000
0100
0022
1033
,  // measure 16
1001
0010
0100
0100
0001
0100
0001
1000
0100
0001
0100
0010
0100
1000
0100
0010
,  // measure 17
1001
1000
0220
0331
0001
1000
0022
1033
,  // measure 18
1100
0001
0100
0010
1000
0100
1000
1000
0001
0100
0010
0100
0010
1000
0100
0010
,  // measure 19
0001
0100
1000
0100
0001
1000
0010
1000
0100
0010
0001
0100
1000
0100
0010
1000
,  // measure 20
1001
0100
0022
1033
0001
0100
2020
3031
,  // measure 21
1001
0010
0100
1000
1000
0100
0010
0001
0100
1000
0100
0001
0010
0100
1000
0010
,  // measure 22
0101
0001
0220
1330
1000
0100
0022
1033
,  // measure 23
1001
0000
0000
0000
0000
0000
0000
0000
0000
0000
0000
0000
0000
1001
0000
0000
,  // measure 24
1010
0010
0100
1000
0100
0001
0010
0100
1000
1000
0100
0010
0001
0100
1000
0100
,  // measure 25
0001
1000
1000
0010
0100
1000
0100
1000
0100
0001
0010
0100
1000
0010
0001
0001
,  // measure 26
0010
0100
0001
1000
0100
0010
0001
0001
0010
0100
1000
0010
0100
0001
1000
0100
,  // measure 27
0001
0100
0100
1000
0010
0100
0001
0010
0100
1000
0100
0010
2002
0000
3003
0000
,  // measure 28
1100
0100
0001
0100
0010
1000
0010
0001
0100
1000
0100
0010
0100
0001
0010
0100
,  // measure 29
1000
0001
0220
1330
0001
0100
0022
1033
,  // measure 30
0110
1000
1001
0100
0010
0001
0010
0100
1000
0001
0100
1000
0100
0010
1000
0001
,  // measure 31
0010
0100
2002
3013
0100
1001
0022
0133
,  // measure 32
1001
1000
0100
0010
0001
0001
0100
1000
0100
0010
1000
0001
0010
0100
1000
1000
0100
0010
1000
0010
0001
0100
0001
0100
0010
1000
0010
1000
0100
0001
0100
0001
,  // measure 33
0010
0100
0010
0100
0001
1000
0001
1000
0100
0001
0100
0010
1000
0100
0010
0001
0100
1000
0100
0010
1000
0001
0010
0100
1001
0000
0000
0000
0000
0000
0000
0000
,  // measure 34
0110
0100
0001
0010
0100
0010
0001
1000
0100
0010
0100
1000
0001
0100
1000
0100
,  // measure 35
0001
1000
0010
0001
0010
1000
0100
0010
0001
1000
0001
1000
0100
0010
0100
0010
,  // measure 36
1001
0001
0100
1000
0100
0010
1000
0001
0001
0010
0100
1000
1000
0100
0010
0001
,  // measure 37
0100
1000
0100
0001
0010
0001
0100
0010
1000
0100
0001
0010
0100
1000
0010
0100
,  // measure 38
1000
0001
1001
0000
0010
0100
0110
0000
1000
0100
1100
0000
0001
0010
0011
0000
,  // measure 39
0100
0010
0110
0000
1000
0001
1001
0000
0010
0100
0110
0000
1000
0010
1010
0000
,  // measure 40
0001
0100
0101
0000
0100
0010
0110
0000
1000
0100
1100
0000
0001
0010
0011
0000
,  // measure 41
1001
0000
1010
0000
0110
0000
1100
0000
1001
0000
0011
0000
0110
1000
1100
0000
,  // measure 42
2001
0000
3200
0000
0320
0001
0032
0000
0203
0000
2300
0000
3200
0000
0320
0000
2030
0001
3002
0000
0023
0000
0230
0000
1300
0001
1000
0001
1000
0001
1000
0100
,  // measure 43
1020
0000
0032
0000
0203
0000
2300
0000
3020
0000
0230
0000
0302
1000
2003
0000
,  // measure 44
3200
0000
0302
0000
0023
0000
0230
0000
0302
0000
2003
0000
3200
0001
0302
0000
,  // measure 45
0023
0000
0230
0000
2300
0000
3020
0000
0032
0000
0203
0000
0320
0001
0032
0000
,  // measure 46
0203
0000
2300
0000
3020
0000
0230
1000
2300
0000
3020
0000
2032
0000
3003
0000
,  // measure 47
2200
3301
2020
3130
0022
0133
2202
3303
,  // measure 48
2200
3301
0220
1330
0022
0133
2202
3303
,  // measure 49
1001
0001
0100
0010
1000
0001
0100
0010
1000
0100
0010
0001
1000
0100
0010
0001
,  // measure 50
0001
0010
0100
1000
0010
0100
0001
0010
0100
1000
0010
0100
2002
0000
3003
0000
,  // measure 51
0110
1000
0100
0001
0010
0100
1000
1000
0010
0100
0001
1000
0100
0010
1000
0010
,  // measure 52
0001
0100
0010
1000
0001
0001
0100
0010
0001
0100
1000
0100
0010
1000
0001
0010
,  // measure 53
0100
1000
1000
0100
0010
1000
0010
0001
0100
0010
0010
0001
0100
0010
1000
0001
,  // measure 54
0010
0010
0100
0100
1000
1000
0010
0100
2002
0000
0000
0000
3003
0000
0000
0000
,  // measure 55
1100
0101
0011
0110
1100
1010
0110
0101
1001
1100
0110
0011
2002
0000
3003
0000
,  // measure 56
0101
0100
0010
0010
1000
1000
0001
0001
0010
0010
0100
0100
1000
1000
0010
0010
,  // measure 57
0100
0001
0100
1000
0100
0001
0100
1000
0010
0001
0010
1000
0010
0001
0010
1000
,  // measure 58
0100
0010
0001
0010
0100
0010
0001
0010
0100
1000
0010
1000
0100
1000
0010
1001
,  // measure 59
0000
1101
0000
0111
0000
1110
0000
1011
,  // measure 60
1010
0100
0001
0100
1000
0100
0001
0100
1000
0100
0001
0100
1000
0100
0001
0100
,  // measure 61
1000
0010
0001
0010
0100
0010
0001
0010
0100
0010
0001
0010
0100
0010
0001
0110
,  // measure 62
0000
0000
0000
0000
,  // measure 63
1001
0100
0010
0001
0001
0100
0100
0010
1000
0010
0001
0010
0100
0001
1000
0100
,  // measure 64
0011
0001
0100
1000
0100
0010
1000
0001
0010
0100
0100
0010
0001
1000
0010
0100
,  // measure 65
0101
0001
0010
0100
0001
1000
0100
0010
0001
0001
0010
0100
1000
0010
0100
0001
,  // measure 66
0011
0100
1000
0100
0010
0001
0100
1000
0100
0010
1000
0001
0010
0100
1100
0000
,  // measure 67
2002
3103
0220
0331
2200
3310
0001
0110
,  // measure 68
2200
3310
0202
1303
2200
3301
0010
1001
,  // measure 69
1100
0100
0001
0100
0010
0001
0010
0100
0001
1000
0100
0010
1000
0010
0001
0100
,  // measure 70
1000
0100
0010
1000
0001
0100
0010
0001
1000
0100
0010
1000
0001
0010
0100
1000
,  // measure 71
1000
0100
0010
0001
0100
0100
0010
0010
1000
1000
0001
0001
0010
0010
0100
0001
,  // measure 72
0100
0000
0010
0000
0001
0000
1000
0000
0010
0000
1000
0000
0100
0000
0010
0000
1001
0000
0000
0000
1000
0010
1000
0010
1000
0000
0000
0000
0110
0000
0000
0000
,  // measure 73
0011
0000
0000
0000
0001
0100
0001
1000
0100
0000
0000
0000
0110
0000
0000
0000
1001
0000
0000
0000
1000
0010
1000
0010
0100
0000
0000
0000
0101
0000
0000
0000
,  // measure 74
1001
0000
0000
0000
0010
0100
0010
0100
1000
0000
0000
0000
1010
0000
0000
0000
0110
0000
0000
0000
0001
0100
0001
0100
0001
0000
0000
0000
1100
0000
0000
0000
,  // measure 75
2010
0001
3200
0001
0320
1000
0032
0103
,  // measure 76
2202
0000
3303
0000
2220
0000
3330
1001
,  // measure 77
1020
0100
0032
1000
0203
0010
2300
3001
,  // measure 78
2220
3330
0222
0333
,  // measure 79
2112
0000
0000
0000
,  // measure 80
0000
0000
0000
0000
,  // measure 81
3113
0000
0000
0000
;

//---------------dance-single - ----------------
#NOTES:
     dance-single:
     :
     Challenge:
     17:
     1.000,1.000,1.000,1.000,1.000,1054.000,636.000,325.000,0.000,236.000:  // measure 1
0000
0000
0000
0000
0000
0000
0000
0000
0000
0000
0000
0000
0000
1010
0110
0101
,  // measure 2
0011
2220
0000
0000
3330
2202
0000
0000
0000
0000
0000
0000
0000
0000
0000
0000
,  // measure 3
3303
0000
0000
0000
0000
1100
0110
2022
0000
0000
0000
0000
0000
0000
0000
3033
,  // measure 4
0000
0000
0000
0220
0330
2002
3003
0202
0303
2220
0000
0000
0000
0000
0000
0000
,  // measure 5
0000
0000
3330
0000
0000
2200
0000
0000
0000
0000
0000
0000
0000
0020
0000
0000
,  // measure 6
0000
0002
0000
3000
0000
2000
0000
0003
0000
0002
0000
0300
0000
0200
0000
0030
,  // measure 7
0000
0020
0000
0000
0000
0000
0000
0000
0000
0000
0000
0000
0000
0000
0000
3333
,  // measure 8
0000
0000
0000
0000
0000
2222
0000
0000
0000
0000
0000
0000
0300
0200
0000
0000
,  // measure 9
0000
0000
0000
0000
0030
0020
0000
0000
0000
0000
0000
0000
3333
0000
1111
0000
,  // measure 10
2100
0010
0001
3100
0010
1000
1001
0100
0110
0001
0100
1010
1000
0100
0001
0010
,  // measure 11
0110
1000
0001
0100
0010
0001
1100
0010
1002
1000
0100
0013
1000
0001
0010
0100
,  // measure 12
1100
0001
1000
0100
0100
0010
1001
0001
0110
1000
0100
0010
1000
0001
0010
0100
,  // measure 13
1001
1000
0100
0010
0001
0100
0110
1000
2222
0000
0000
0000
3333
0000
0000
0000
,  // measure 14
1100
0110
0011
0101
0110
1010
1100
0101
1001
1010
0110
0101
1001
1100
0110
0011
,  // measure 15
2002
0100
3103
0000
0220
0001
0331
0000
2002
0100
3103
0000
0022
1000
1033
0000
,  // measure 16
1100
0110
1010
0101
0011
0110
1100
1010
0110
0101
1001
0110
1100
1010
0110
0101
,  // measure 17
2002
0010
3013
0000
0220
0001
0331
0000
2002
0100
3103
0000
0022
1000
1033
0000
,  // measure 18
1100
1100
1001
1001
0011
0011
0110
0110
1100
1010
0110
0101
1001
1100
0110
1010
,  // measure 19
0101
0011
0110
1100
1001
0110
0011
0101
0110
1100
1010
0110
0101
1001
1100
0110
,  // measure 20
2002
0100
3103
0000
0022
1000
1033
0000
0022
0100
0133
0000
2020
0001
3031
0000
,  // measure 21
1100
0110
1010
1100
0011
0110
1100
1010
0110
0101
1001
1100
0110
0011
1001
1100
,  // measure 22
0202
0010
0313
0000
0220
1000
1330
0000
2002
0100
3103
0000
0022
1000
1033
0100
,  // measure 23
2222
0000
0000
0000
3333
0000
0000
0000
0000
0000
0000
0000
0000
2002
0000
3003
,  // measure 24
1010
0101
1010
0101
0011
1100
0011
1100
0110
1001
0110
1001
1100
0011
1100
0011
,  // measure 25
0101
1010
0101
1010
1001
0110
1001
0110
1100
0011
1100
0011
1001
0110
1001
0110
,  // measure 26
1100
0011
1100
0011
0101
1010
0101
1010
1001
0110
1001
0110
1010
0101
1010
0101
,  // measure 27
0011
1100
0011
1100
0110
1001
0110
1001
1100
0011
1100
0011
2222
0000
3333
0000
,  // measure 28
0110
1010
1100
0101
0011
0110
1100
1010
0110
0101
1001
0110
1001
1100
0110
0011
,  // measure 29
2002
0100
3103
0000
0220
1000
1330
0000
2002
0010
3013
0000
0022
1000
1033
0000
,  // measure 30
0110
0101
1001
1100
0110
0011
1100
1010
0110
1001
0011
1100
0110
0011
1001
1010
,  // measure 31
0220
0001
0331
0000
2002
0010
3013
0000
0220
1000
1330
0000
0022
0100
0133
0001
,  // measure 32
1100
1010
0110
0011
0110
1100
1010
0101
1010
0101
0011
1100
0011
1100
1010
1100
0110
0011
0101
0110
1010
1100
0101
0011
0110
1100
1010
0110
0101
1100
1010
0110
,  // measure 33
0011
0101
0110
1010
1100
0110
0011
1001
1010
0110
1100
1001
0011
0110
0101
1100
1010
0110
0011
0110
1100
1010
0110
0101
2002
0000
0000
0000
3003
0000
0110
0000
,  // measure 34
1220
0001
1000
0001
1000
0001
1330
0001
2201
0010
0001
0010
0001
0010
3301
0010
,  // measure 35
1022
0100
1000
0100
1000
0100
1033
0100
0212
1000
0010
1000
0010
1000
0313
1000
,  // measure 36
2012
0100
0010
0100
0010
0100
3013
0100
2120
0001
0100
0001
0100
0001
3130
0001
,  // measure 37
2012
0100
0010
0100
0010
0100
3013
0000
2210
0001
0010
0001
0001
0010
3310
0001
,  // measure 38
1001
0110
1001
0110
1100
0011
1100
0011
0101
1010
0101
1010
1001
0110
1001
0110
,  // measure 39
1100
0011
1100
0011
0101
1010
0101
1010
1001
0110
1001
0110
0011
1100
0011
1100
,  // measure 40
1010
0101
1010
0101
0011
1100
0011
1100
0110
1001
0110
1001
1100
0011
1100
0011
,  // measure 41
2002
3103
2020
3031
0220
0331
2200
3310
2002
3103
0022
1033
0220
0331
2200
3310
,  // measure 42
2001
0010
3201
0010
2301
0010
3201
0010
2301
0010
3201
0010
2301
0010
3201
0010
2301
0010
3201
0010
2301
0010
3201
0010
2301
0010
3201
0010
2301
0010
3201
0010
,  // measure 43
1320
0100
0032
1000
0203
0010
2300
0001
3020
0001
0230
1000
0302
0010
2003
0010
,  // measure 44
3210
0001
0302
1000
0023
0001
0230
1000
0302
0010
2003
0010
3200
0001
0302
1000
,  // measure 45
1023
0001
0230
0010
2300
0001
3020
0100
0032
1000
0203
1000
0320
0101
0032
1000
,  // measure 46
1203
0010
2300
0001
3020
0001
0230
1010
2300
0001
3020
0100
2032
0100
3013
0100
,  // measure 47
2200
0001
3301
0000
2020
0100
3130
0000
0022
1000
1033
0000
2202
0010
3313
0001
,  // measure 48
2200
0001
3301
0000
0220
1000
1330
0000
0022
0100
0133
0000
2202
0010
3313
0100
,  // measure 49
1001
0010
0100
1000
1001
0100
0010
0001
1001
0010
0100
1000
1001
0100
0010
0001
,  // measure 50
1001
1000
0010
0100
1001
1000
0010
0100
1001
1000
0010
0100
2202
0000
3303
0000
,  // measure 51
1100
0011
0101
0110
1010
1100
0101
1100
0101
0011
1010
0011
1010
0110
0101
0110
,  // measure 52
0101
1001
0110
1001
0110
1100
1010
1100
0101
0011
0110
1100
1010
0110
0101
1001
,  // measure 53
1100
0110
0011
0101
1100
1010
0110
1001
0110
1001
0110
0101
1100
0011
1100
0011
,  // measure 54
0110
1100
1001
0110
0011
1001
1100
0110
2002
0100
0010
0010
3103
0010
0001
1000
,  // measure 55
2200
3300
0202
0303
0022
0033
0220
0330
2200
3300
2020
3030
0220
0330
0202
0303
2002
3003
2200
3300
0220
0330
0022
0033
2222
0000
0000
0000
3333
0000
0000
0000
,  // measure 56
2010
0100
0001
0010
0100
0001
3100
0010
1002
1000
0100
0010
0100
1000
0013
0100
,  // measure 57
1200
0010
0001
1000
0010
0001
1300
0010
0021
0100
1000
0001
0100
0100
0031
1000
,  // measure 58
2100
0001
0010
0100
0100
0010
3001
0100
1002
0010
0100
1000
0010
0100
1003
1110
,  // measure 59
0000
2222
3333
2222
3333
2222
3333
1221
,  // measure 60
2332
0010
3103
0010
2002
0100
3013
0100
2002
0010
3103
0010
2002
0100
3013
0100
,  // measure 61
0220
1000
0331
1000
0220
0001
1330
0001
0220
1000
0331
1000
0220
0001
1330
2222
,  // measure 62
0000
0000
0000
0000
0000
3333
0000
0000
0000
0000
0000
0000
0000
0000
0000
0000
,  // measure 63
1100
1010
1100
1010
0011
0101
0011
0101
0110
1001
0110
1001
1100
0011
1100
0011
,  // measure 64
1001
1001
0110
0110
1100
1100
1010
1010
0110
0110
0101
0101
1001
1001
1100
1100
,  // measure 65
0110
0011
0110
1100
0110
0011
0110
1100
0110
0011
0110
1100
0110
0011
1001
1010
,  // measure 66
0110
1001
0110
1001
1100
0011
1100
0011
0101
0110
0101
0110
1010
1100
1111
0000
,  // measure 67
2002
0100
3103
0000
0220
0001
0331
0000
2200
0010
3310
0000
2002
0100
3113
0000
,  // measure 68
2200
0010
3310
0000
0202
1000
1303
0010
2200
0001
3301
0000
0220
1000
1331
0000
,  // measure 69
0110
1001
0110
1001
1100
0011
1100
0011
0101
1010
0101
1010
1001
0110
1001
0110
,  // measure 70
1100
1010
0110
0011
0101
1100
1010
0110
0101
1001
1100
0110
0011
0110
1100
1001
,  // measure 71
0011
1100
0011
1100
1010
0101
1010
0101
0110
1001
0110
1001
1100
0011
1100
0011
,  // measure 72
0110
0000
1100
0000
1001
0000
0101
0000
0110
0000
1010
0000
1100
0000
0110
0000
1001
0000
0001
0000
1000
0100
0010
0001
1000
0100
0010
0000
1001
0000
0100
0000
,  // measure 73
0011
0000
1000
0000
0001
0010
0100
1000
0001
0010
0100
0000
1001
0000
0010
0000
0110
0000
0001
0000
1000
0100
0010
0001
1000
0100
0010
0000
1001
0000
0100
0000
,  // measure 74
0011
0000
0001
0000
1000
0100
0010
0001
1000
0100
0010
0000
1001
0000
0100
0000
0110
0000
1000
0000
0001
0010
0100
1000
0001
0010
0100
0000
1100
0000
0001
0000
,  // measure 75
2120
0000
3031
0000
2200
0000
3310
0000
0202
0000
1303
0000
0022
0000
0133
1000
,  // measure 76
2222
0000
3333
1111
2222
0000
3333
1111
,  // measure 77
2020
0000
3130
0000
0022
0000
1033
0000
0220
0000
0331
0000
2200
0000
3301
0010
,  // measure 78
2222
0000
3333
1111
2222
0000
3333
1111
,  // measure 79
2222
0000
0000
0000
,  // measure 80
0000
0000
0000
0000
0000
0000
0000
3333
,  // measure 81
2222
3333
0000
0000
0000
0000
0000
0000
;

//---------------dance-double - ----------------
#NOTES:
     dance-double:
     :
     Hard:
     14:
     1.000,1.000,0.838,0.940,1.000,912.000,131.000,147.000,0.000,48.000:  // measure 1
00000000
00000000
00000000
00000000
,  // measure 2
00000000
00000000
00000000
00000000
,  // measure 3
00000000
00000000
00000000
00000000
00000000
10000000
01000000
22000000
00000000
00000000
00000000
00000000
00000000
00000000
00000000
33000000
,  // measure 4
00000000
00000000
00000000
01100000
00000000
00110000
00000000
00011000
00000000
00002020
00000000
00000000
00000000
00000000
00000000
00000000
,  // measure 5
00000000
00003030
00000000
00000000
00000000
00022200
00000000
00000000
00000000
00000000
00000000
00030000
00000000
00200000
00000000
00000000
,  // measure 6
00000000
00020000
00000000
00000300
00000000
00000200
00000000
00030000
00000000
00020000
00000000
00003000
00000000
00002000
00000000
00300000
,  // measure 7
00000000
00200000
00000000
00000000
00000000
00000000
00000000
00000000
00000000
00333300
00000000
00000000
00000000
00000000
00000000
00000000
,  // measure 8
00000000
00000000
00000000
00000000
00000000
00122100
00000000
00000000
00000000
00000000
00000000
00000000
00000000
00200000
00000000
00000000
,  // measure 9
00000000
00000000
00000000
00000000
00000000
00000200
00000000
00000000
00000000
00000000
00000000
00300300
00033000
00000000
00010100
00000000
,  // measure 10
00011000
00010000
01000000
00100000
01000000
00010000
00001000
00000100
00000010
00000001
00001000
00000001
00001000
00000100
00010000
00001000
,  // measure 11
00100000
00010000
00100000
00010000
00100000
01000000
10000000
00100000
01000000
00010000
10000000
01000000
10000000
00100000
01000000
00010000
,  // measure 12
01010000
01000000
00100000
00010000
00001000
00000100
00000010
00000001
00000010
00000001
00001000
00000010
00010000
00001000
00100000
00010000
,  // measure 13
00100000
01000000
10000000
01000000
10000000
01000000
00010000
00100000
00022000
00000000
00000000
00000000
00033000
00000000
00000000
00000000
,  // measure 14
11000000
10000000
00010000
01000000
00100000
00010000
00001000
00000100
00000010
00000001
00000001
00000010
00000100
00001000
00010000
00100000
,  // measure 15
00110000
01000000
02200000
03310000
00001000
00000100
00000022
00001033
,  // measure 16
00001100
00000100
00010000
00001000
00010000
01000000
00010000
00001000
01000000
00010000
01000000
00100000
01000000
10000000
01000000
00100000
,  // measure 17
10010000
10000000
02200000
03310000
00001000
00000001
00000220
00001330
,  // measure 18
00011000
00010000
01000000
00100000
01000000
10000000
01000000
00010000
00100000
01000000
00100000
01000000
00100000
00010000
00001000
00000100
,  // measure 19
00000010
00000001
00001000
00000001
00000100
00000010
00001000
00000100
00010000
00001000
00100000
00010000
01000000
00100000
10000000
01000000
,  // measure 20
10010000
01000000
00220000
00331000
00000010
00000100
00002002
00003103
,  // measure 21
00001100
00010000
00001000
00100000
00010000
01000000
00100000
00010000
00001000
00000100
00000010
00000001
00000001
00000010
00000100
00001000
,  // measure 22
00011000
00100000
02200000
13300000
10000000
01000000
00220000
00331000
,  // measure 23
00001100
00000000
00000000
00000000
00000000
00000000
00000000
00000000
00000000
00000000
00000000
00000000
00000000
00011000
00000000
00000000
,  // measure 24
00110000
00100000
00001000
00010000
00000100
00001000
00000100
00000100
00000010
00000001
00001000
00000001
00001000
00000100
00010000
00000100
,  // measure 25
00010000
00001000
01000000
00001000
01000000
00100000
00010000
00100000
00010000
00001000
00000100
00001000
00000100
00000010
00000001
00001000
,  // measure 26
00000010
00010000
00001000
01000000
00100000
10000000
01000000
10000000
00010000
01000000
00001000
01000000
00010000
00100000
00010000
00001000
,  // measure 27
00000100
00000010
00000001
00001000
00000010
00010000
00001000
01000000
00100000
10000000
01000000
00100000
20020000
00000000
30030000
00000000
,  // measure 28
11000000
00100000
00010000
00001000
00000010
00000001
00000100
00001000
00010000
00100000
01000000
10000000
01000000
00010000
00100000
00001000
,  // measure 29
00010000
00000100
00002020
00003031
00000100
00001000
00220000
01330000
,  // measure 30
01100000
10000000
11000000
01000000
00100000
00010000
00001000
00000100
00000010
00000001
00001000
00000010
00000100
00001000
00010000
00100000
,  // measure 31
01000000
10000000
02020000
03130000
00001000
00010100
00002020
00003031
,  // measure 32
00001001
00000100
00000010
00000001
00001000
00000100
00000010
00000001
00001000
00000100
00010000
00001000
00100000
00010000
01000000
00100000
10000000
01000000
00100000
00010000
10000000
01000000
00100000
00010000
00001000
00000100
00000010
00000001
00001000
00000100
00000010
00000001
,  // measure 33
00000001
00000010
00000100
00001000
00000001
00000010
00000100
00001000
00010000
00100000
01000000
10000000
00010000
00100000
01000000
10000000
10000000
01000000
00100000
00010000
00001000
00000100
00000010
00000001
00001001
00000000
00000000
00000000
00000000
00000000
00000000
00000000
,  // measure 34
00011000
00001000
00010000
00100000
01000000
00100000
00010000
00000100
00000010
00000001
00000100
00001000
00010000
00100000
01000000
10000000
,  // measure 35
00010000
01000000
00100000
00010000
00001000
00000100
00000010
00000001
00000100
00001000
00010000
00100000
01000000
10000000
01000000
00100000
,  // measure 36
10010000
00010000
01000000
10000000
01000000
00100000
10000000
00010000
00100000
00001000
00000100
00000010
00000001
00000100
00001000
00010000
,  // measure 37
00100000
10000000
01000000
00010000
00100000
00001000
00010000
00000100
00000010
00000001
00000100
00001000
00010000
00100000
01000000
10000000
,  // measure 38
00100000
00010000
00110000
00000000
00001000
00010000
00011000
00000000
00000100
00000010
00000110
00000000
00000001
00001000
00001001
00000000
,  // measure 39
00010000
00000100
00010100
00000000
00001000
00100000
00101000
00000000
00010000
01000000
01010000
00000000
10000000
00100000
10100000
00000000
,  // measure 40
00010000
00001000
00011000
00000000
00000100
00000010
00000110
00000000
00001000
00010000
00011000
00000000
00010000
00100000
00110000
00000000
,  // measure 41
10010000
00000000
10100000
00000000
01100000
00000000
01001000
00000000
00011000
00000000
00110000
00000000
01100000
10000000
11000000
00000000
,  // measure 42
20010000
00000000
32000000
00000000
03200000
00010000
00320000
00000000
00030200
00000000
00000320
00000000
00000032
00000000
00000203
00000000
00002300
00010000
00023000
00000000
00230000
00000000
02300000
00000000
13000000
00010000
00100000
00010000
00100000
00001000
00010000
00001000
,  // measure 43
00210000
00000000
00320000
00000000
00032000
00000000
00003200
00000000
00000320
00000000
00000032
00000000
00000203
00001000
00002300
00000000
,  // measure 44
02003000
00000000
03020000
00000000
00230000
00000000
02300000
00000000
03020000
00000000
00032000
00000000
00003200
00010000
00020300
00000000
,  // measure 45
00230000
00000000
02300000
00000000
23000000
00000000
30200000
00000000
00320000
00000000
00030200
00000000
00002300
00010000
00023000
00000000
,  // measure 46
02030000
00000000
03200000
00000000
00320000
00000000
02030000
10000000
23000000
00000000
30200000
00000000
00322000
00000000
00033000
00000000
,  // measure 47
00002020
00003031
00002200
00013300
00220000
01330000
22020000
33030000
,  // measure 48
02200000
03310000
00002200
00003310
00002002
00003103
00222000
00333000
,  // measure 49
10010000
00010000
01000000
00100000
00010000
00001000
00000100
00000010
00000001
00000100
00000010
00010000
00001000
01000000
00100000
00010000
,  // measure 50
00001000
00000100
00000010
00000001
00000100
00001000
00010000
00100000
01000000
10000000
00100000
01000000
20020000
00000000
30030000
00000000
,  // measure 51
01100000
10000000
01000000
00010000
00100000
00001000
00010000
00100000
01000000
10000000
00010000
10000000
01000000
00100000
00001000
00010000
,  // measure 52
00000100
00000010
00000001
00000100
00001000
00010000
01000000
00100000
00010000
01000000
00100000
10000000
01000000
00100000
00010000
00001000
,  // measure 53
00000100
00000001
00000010
00000100
00001000
00010000
00100000
01000000
10000000
00100000
00100000
00010000
00001000
00000010
00000001
00000100
,  // measure 54
00001000
00100000
00010000
01000000
10000000
01000000
00100000
00010000
20020000
00000000
00000000
00000000
31030000
00000000
00000000
00000000
,  // measure 55
11000000
01010000
00110000
00101000
00011000
00010100
00000110
00000011
00001001
00001100
00010100
00110000
22000000
00000000
33000000
00000000
,  // measure 56
10000000
10000000
01000000
01000000
00100000
00100000
00010000
00010000
00001000
00001000
00000100
00000100
00000010
00000010
00000001
00000001
,  // measure 57
00001000
00000100
00010000
00000010
00001000
00000100
00010000
00000010
00001000
00000100
00010000
00000010
00001000
00000100
00010000
00000010
,  // measure 58
01000000
00100000
00010000
00001000
00000100
00001000
00010000
00100000
01000000
10000000
00100000
01000000
00001000
00100000
00010000
00011000
,  // measure 59
00000000
11010000
00000000
00111000
00000000
11010000
00000000
00111000
,  // measure 60
10010000
00001000
00100000
00000100
00010000
00001000
00100000
00000100
00010000
00001000
00100000
00000100
00010000
00001000
00100000
00000100
,  // measure 61
00001000
00010000
00100000
00010000
00001000
00000100
00001000
00010000
00100000
00010000
00001000
00000100
00000010
00000001
00001000
00000110
,  // measure 62
00000000
00000000
00000000
00000000
,  // measure 63
10010000
01000000
00100000
00010000
00010000
00001000
00000100
00000010
00000001
00000100
00001000
00000100
00000001
00001000
00000010
00001000
,  // measure 64
00001100
00010000
01000000
00100000
10000000
01000000
00100000
00010000
00100000
00001000
01000000
00100000
00010000
00001000
00000100
00000010
,  // measure 65
00000011
00000001
00000100
00000010
00000001
00000010
00000100
00001000
00000010
00000100
00001000
00010000
00100000
01000000
10000000
00010000
,  // measure 66
00110000
01000000
00001000
01000000
00100000
00010000
00000100
00000010
00000001
00000100
00001000
00010000
00100000
01000000
11000000
00000000
,  // measure 67
20020000
31030000
02200000
03310000
00002200
00103300
00010000
00011000
,  // measure 68
00000220
00000331
00002200
00013300
00220000
01330000
00100000
10010000
,  // measure 69
11000000
01000000
00010000
01000000
00100000
00010000
00001000
00000100
00000010
00000001
00000100
00001000
00010000
00100000
00010000
00001000
,  // measure 70
01000000
00100000
10000000
01000000
00010000
01000000
00100000
00010000
00001000
00000100
00000010
00000001
00000100
00001000
00010000
00100000
,  // measure 71
01000000
10000000
00100000
00010000
01000000
01000000
00100000
00100000
10000000
10000000
00010000
00010000
00100000
00100000
00001000
00010000
,  // measure 72
01000000
00000000
00100000
00000000
00010000
00000000
00001000
00000000
00000100
00000000
00000010
00000000
00000001
00000000
00000100
00000000
00001100
00000000
00000000
00000000
00010000
00100000
00010000
00100000
00010000
00000000
00000000
00000000
01100000
00000000
00000000
00000000
,  // measure 73
11000000
00000000
00000000
00000000
00010000
01000000
00010000
10000000
01000000
00000000
00000000
00000000
01100000
00000000
00000000
00000000
00011000
00000000
00000000
00000000
00000100
00001000
00000100
00001000
00000001
00000000
00000000
00000000
00000011
00000000
00000000
00000000
,  // measure 74
00001100
00000000
00000000
00000000
00010000
00100000
00010000
00100000
01000000
00000000
00000000
00000000
10100000
00000000
00000000
00000000
01100000
00000000
00000000
00000000
00010000
00001000
00010000
00001000
00010000
00000000
00000000
00000000
00001010
00000000
00000000
00000000
,  // measure 75
00000012
00000100
00002003
00010000
00203000
10000000
00320000
01030000
,  // measure 76
22020000
00000000
33030000
00000000
00222000
00000000
00333000
10010000
,  // measure 77
10200000
01000000
00320000
00001000
00030020
00000100
00002030
00013000
,  // measure 78
22200000
33300000
00222000
00333000
,  // measure 79
00122100
00000000
00000000
00000000
,  // measure 80
00000000
00000000
00000000
00000000
,  // measure 81
00133100
00000000
00000000
00000000
;

//---------------dance-single - ----------------
#NOTES:
     dance-single:
     :
     Medium:
     13:
     0.955,1.000,0.748,0.812,0.975,789.000,117.000,127.000,0.000,19.000:  // measure 1
0000
0000
0000
0000
,  // measure 2
0000
0000
0000
0000
,  // measure 3
0000
0000
0000
0000
0000
1000
0100
2200
0000
0000
0000
0000
0000
0000
0000
3300
,  // measure 4
0000
0000
0000
0110
0000
1001
0000
0101
0000
2020
0000
0000
0000
0000
0000
0000
,  // measure 5
0000
3030
0000
0000
0000
2200
0000
0000
0000
0000
0000
0000
0000
0020
0000
0000
,  // measure 6
0000
0002
0000
3000
0000
2000
0000
0003
0000
0002
0000
0300
0000
0200
0000
0030
,  // measure 7
0000
0020
0000
0000
0000
0000
0000
0000
0000
3333
0000
0000
0000
0000
0000
0000
,  // measure 8
0000
0000
0000
0000
0000
2112
0000
0000
0000
0000
0000
0000
0000
0200
0000
0000
,  // measure 9
0000
0000
0000
0000
0000
0020
0000
0000
0000
0000
0000
0330
3003
0000
1100
0000
,  // measure 10
1001
0100
1000
0010
0100
0001
0010
0001
0010
0100
1000
0100
1000
1000
0010
0100
,  // measure 11
0010
0100
0001
1000
0100
0001
0100
1000
0100
0010
0001
0010
1000
0010
0001
0100
,  // measure 12
0010
1000
0100
1000
0001
0100
0010
0100
0001
1000
0010
0100
0010
1000
0100
0010
,  // measure 13
0001
1000
0100
0010
0001
0010
0100
1000
2002
0000
0000
0000
3003
0000
0000
0000
,  // measure 14
0100
0010
0100
0010
1000
0100
1000
0100
0010
0001
0010
0001
1000
0010
1000
0010
,  // measure 15
0100
0001
2002
3003
1000
0010
0220
0330
,  // measure 16
1000
0001
1000
0001
0010
0100
0010
0100
1000
0010
1000
0010
0100
0001
0100
0001
,  // measure 17
1000
0100
0220
0330
0001
1000
0220
0330
,  // measure 18
1000
0001
1000
0100
0010
0001
1000
0001
0010
0100
0010
0100
1000
0010
1000
0000
,  // measure 19
0001
0001
0100
0001
1000
0100
0010
0001
0010
0100
1000
0001
1000
0100
0010
0001
,  // measure 20
0100
0010
2002
3003
0010
0100
2002
3003
,  // measure 21
0100
0010
0100
1000
0100
0001
1000
0010
1000
0100
1000
0100
0010
0001
0010
0100
,  // measure 22
1000
0001
0220
0330
1000
0100
0022
0033
,  // measure 23
1001
0000
0000
0000
,  // measure 24
1000
0010
1000
0100
0010
0001
0010
0001
0010
0100
1000
0010
0100
0001
0100
0001
,  // measure 25
1000
0100
0010
0001
0001
0010
0100
1000
0010
0100
0001
0100
0001
1000
0100
0001
,  // measure 26
0100
0010
0001
0010
0100
1000
0001
0010
0100
1000
0010
0100
0001
1000
0010
0100
,  // measure 27
0001
1000
0100
0010
0001
1000
0100
0010
0001
1000
0100
0010
2002
0000
3003
0000
,  // measure 28
0010
0100
0001
1000
0100
0010
0001
1000
0100
1000
0001
0010
0001
0100
0010
1000
,  // measure 29
0100
0010
0022
0033
0100
0001
2002
3003
,  // measure 30
0100
0010
1000
0001
0010
0100
1000
0100
0010
0001
1000
0010
1000
0100
0010
0001
,  // measure 31
0010
0100
2002
3003
0100
0010
2002
3003
,  // measure 32
1100
0000
1010
0000
0110
0101
0101
0000
1100
0000
0011
0000
0110
1100
1100
0000
,  // measure 33
1010
0000
0110
0000
0101
1001
1001
0000
1100
0000
1001
1001
0110
0000
0000
0000
,  // measure 34
2100
0001
0100
3010
1002
0100
1000
0013
,  // measure 35
0210
1000
0001
0310
2100
0001
0100
3010
,  // measure 36
0012
0100
1000
0103
0120
0001
1000
0130
,  // measure 37
0210
0001
1000
0310
2001
0100
0010
3001
,  // measure 38
0100
0010
0100
0001
0100
0010
0100
1000
0100
0010
0100
0001
0100
0010
0100
1000
,  // measure 39
0010
0001
0010
0100
0010
1000
0010
0100
0010
0001
0010
0100
0010
1000
0010
0100
,  // measure 40
0001
0010
0001
0100
0001
1000
0001
0100
0001
0010
0001
0100
0001
1000
0001
0100
,  // measure 41
1001
0110
1001
0110
1100
0011
1100
0011
,  // measure 42
2002
3003
0100
0100
,  // measure 43
2010
3200
0302
0023
0230
2300
3002
0203
,  // measure 44
0320
0032
0203
2300
3200
0320
2030
3002
,  // measure 45
0023
0230
0302
2003
3200
0320
0032
0203
,  // measure 46
2300
3200
0320
2030
3002
0023
0230
1300
,  // measure 47
0110
0001
2002
3003
0110
1000
2200
3300
,  // measure 48
0011
0100
0220
0330
1001
0100
0022
0033
,  // measure 49
1000
0100
1000
0000
0001
0010
0100
0000
1000
0010
0001
0000
0001
0010
1000
0000
,  // measure 50
0100
0010
0001
0000
0100
0010
1000
0000
0001
0010
0100
1000
2002
0000
3003
0000
,  // measure 51
0100
0010
0100
0001
0010
0100
1000
1000
0100
0010
0001
1000
0010
1000
0100
1000
,  // measure 52
0100
0010
0001
0010
0001
0100
0010
0100
1000
0100
0001
0010
0100
1000
0100
1000
,  // measure 53
0010
0100
0001
0100
0001
1000
0100
1000
0010
0100
0001
1000
0100
0001
0100
0001
,  // measure 54
0100
1000
0010
0100
0001
0010
0100
1000
0220
0000
0000
0000
0330
0000
0000
0000
,  // measure 55
1100
0110
0011
0110
1100
0110
0011
0110
1100
0110
0011
0110
2200
0000
3300
0000
,  // measure 56
0001
0010
0001
0010
0100
0001
0100
0001
1000
0100
1000
0100
0010
1000
0010
1000
,  // measure 57
0001
0100
0010
1000
0100
0010
0001
0100
0010
1000
0001
0010
0100
1000
0010
0100
,  // measure 58
0001
1000
0001
1000
0100
0010
0100
0010
0001
0100
0010
1000
0100
1000
0001
0010
,  // measure 59
0000
1101
0000
1011
0000
1101
0000
1011
,  // measure 60
1000
0100
0001
0100
1000
0100
0001
0100
1000
0100
0001
0100
1000
0100
0001
0100
,  // measure 61
1000
0010
0001
0010
1000
0010
0001
0010
1000
0010
0001
0010
1000
0010
0001
0011
,  // measure 62
0000
0000
0000
0000
,  // measure 63
1001
0001
0100
0010
1000
0100
0010
0001
0010
0100
1000
0010
0100
0001
1000
0000
,  // measure 64
0010
0001
0010
0100
0001
1000
0100
0010
0001
0100
0010
1000
0100
0010
0001
0000
,  // measure 65
0010
0100
1000
0001
0100
1000
0100
0001
1000
0010
1000
0100
0010
0001
0100
0000
,  // measure 66
0010
1000
0001
0010
0100
0001
0100
0010
0001
1000
0100
0010
0001
0100
1001
0000
,  // measure 67
1100
0010
2002
3003
0110
1000
2200
3300
,  // measure 68
0101
0010
2200
3300
1001
0100
0022
0033
,  // measure 69
1000
0010
1000
0100
0001
0010
0100
1000
0100
0010
0001
0100
1000
0100
0010
1000
,  // measure 70
0001
0010
0100
1000
1000
0100
0010
1000
0010
0001
0100
1000
0100
0010
1000
0001
,  // measure 71
0010
0100
1000
0010
0100
0001
1000
0100
0010
1000
0010
0001
0100
1000
0100
0010
,  // measure 72
1000
0001
0010
0100
1000
0010
0100
0001
1001
0000
1000
0100
0010
0001
0011
0000
,  // measure 73
0101
0000
0100
0010
1000
0010
1010
0000
0011
0000
0001
0010
0100
1000
1100
0000
,  // measure 74
1001
0000
0001
0100
0010
1000
1010
0000
0110
0000
0100
0001
0010
0100
0110
0000
,  // measure 75
2001
0000
3200
0000
0320
0000
0031
1000
,  // measure 76
2202
3303
2220
3330
,  // measure 77
1200
0000
0320
0000
0032
0000
1003
0100
,  // measure 78
2220
3330
0222
0333
,  // measure 79
2112
0000
0000
0000
,  // measure 80
0000
0000
0000
0000
,  // measure 81
3113
0000
0000
0000
;

//---------------dance-single - ----------------
#NOTES:
     dance-single:
     :
     Easy:
     12:
     0.852,1.000,0.582,0.742,0.796,718.000,91.000,116.000,0.000,21.000:  // measure 1
0000
0000
0000
0000
,  // measure 2
0000
0000
0000
0000
,  // measure 3
0000
0000
0000
0000
0000
1000
0100
2200
0000
0000
0000
0000
0000
0000
0000
3300
,  // measure 4
0000
0000
0000
0110
0000
1001
0000
0101
0000
2020
0000
0000
0000
0000
0000
0000
,  // measure 5
0000
3030
0000
0000
0000
2200
0000
0000
0000
0000
0000
0000
0000
0020
0000
0000
,  // measure 6
0000
0002
0000
3000
0000
2000
0000
0003
0000
0002
0000
0300
0000
0200
0000
0030
,  // measure 7
0000
0020
0000
0000
0000
0000
0000
0000
0000
3333
0000
0000
0000
0000
0000
0000
,  // measure 8
0000
0000
0000
0000
0000
2112
0000
0000
0000
0000
0000
0000
0000
0200
0000
0000
,  // measure 9
0000
0000
0000
0000
0000
0020
0000
0000
0000
0000
0000
0330
3003
0000
1100
0000
,  // measure 10
1001
0001
0100
0010
0100
0010
1000
0100
1000
0100
0010
0001
0010
0100
1000
0001
,  // measure 11
0100
0001
0100
0010
1000
0010
1000
0100
1000
0100
0010
0001
0010
0001
0100
0010
,  // measure 12
0100
1000
0100
0001
0010
0100
1000
0001
0010
0100
1000
0010
0100
0001
1000
0010
,  // measure 13
0100
0001
1000
0100
1000
0100
0010
0001
0220
0000
0000
0000
0330
0000
0000
0000
,  // measure 14
0100
0010
0100
0010
1000
0100
1000
0100
0010
0001
0010
0001
1000
0010
1000
0010
,  // measure 15
1000
0100
0022
0033
0001
0100
2020
3030
,  // measure 16
0100
0001
0100
0001
0010
0100
0010
0100
1000
0010
1000
0010
0100
0001
0100
0001
,  // measure 17
0010
0100
2002
3003
0100
0010
2002
3003
,  // measure 18
0100
0010
0100
0000
0001
0010
0100
1000
0100
1000
0010
0100
0001
1000
0001
0000
,  // measure 19
0100
0010
1000
0100
1000
0100
0010
0001
0010
0001
1000
0010
1000
0010
0100
0000
,  // measure 20
0001
0010
2200
3300
1000
0010
0202
0303
,  // measure 21
1000
0010
1000
0010
0100
0001
0100
0010
1000
0100
1000
0100
0010
0001
0010
0001
,  // measure 22
0100
0001
0220
0330
1000
0100
0022
0033
,  // measure 23
1001
0000
0000
0000
,  // measure 24
1000
0100
0010
0000
0010
0001
1000
0000
0001
0010
0100
1000
0100
1000
0010
0000
,  // measure 25
0100
0001
1000
0000
1000
0100
0010
0000
0001
0010
0100
1000
0010
0100
0001
0000
,  // measure 26
0100
0010
1000
0000
1000
0001
0010
0000
0100
1000
0100
0010
0001
0100
0010
0000
,  // measure 27
1000
0001
0100
0000
0100
1000
0010
0000
0100
0001
0010
0100
2002
0000
3003
0000
,  // measure 28
1000
0100
1000
0100
0010
0001
0010
0001
0100
0010
0100
1000
0100
0001
0010
0100
,  // measure 29
1000
0001
0220
0330
1000
0100
0022
0033
,  // measure 30
0100
0010
1000
0000
0001
0010
0100
0000
1000
0100
0010
0000
0001
0100
1000
0000
,  // measure 31
0010
0100
2002
3003
0100
0010
2002
3003
,  // measure 32
2002
0000
0200
0000
0320
0000
0230
3303
,  // measure 33
0220
0000
2000
0000
3002
0330
0113
0000
,  // measure 34
2000
0010
0100
3001
0020
0100
1000
0130
,  // measure 35
0002
1000
0010
0103
2000
0010
0100
3001
,  // measure 36
0020
0100
0001
1030
0200
0001
0010
1300
,  // measure 37
0002
0010
0100
1003
0020
0100
0001
1030
,  // measure 38
0100
0010
0100
0000
0010
0001
1000
0000
0001
0010
0100
0000
1000
0100
0010
0000
,  // measure 39
0001
0100
0010
0000
1000
0100
1000
0000
0001
0010
0010
0000
0100
1000
0100
0000
,  // measure 40
1000
0010
0100
0000
0001
1000
0100
0000
0010
0001
0100
0000
0010
1000
0001
0000
,  // measure 41
1001
0110
1001
0110
1100
0011
1100
0011
,  // measure 42
2002
0000
3003
0000
,  // measure 43
2010
3200
0302
0023
0230
2300
3002
0203
,  // measure 44
0320
0032
0203
2300
3200
0320
2030
3002
,  // measure 45
0023
0230
0302
2003
3200
0320
0032
0203
,  // measure 46
2300
3200
0320
2030
3002
0023
0230
1300
,  // measure 47
1010
0110
0101
1001
,  // measure 48
1010
0011
0110
1100
,  // measure 49
1000
0010
1000
0010
1000
0100
0010
0000
0001
0100
0001
1000
0001
0100
0010
0000
,  // measure 50
1000
0100
1000
0010
1000
0100
0010
0000
0001
0010
0100
1000
0220
0000
0330
0000
,  // measure 51
1000
0100
1000
0010
0100
0001
0100
0001
0100
1000
0100
0010
1000
0001
0010
0000
,  // measure 52
0100
1000
1000
0010
0100
0001
0010
0100
1000
0100
0010
0001
1000
0010
1000
0000
,  // measure 53
0001
0100
0010
0001
0010
1000
0100
0001
0100
1000
0010
0100
0010
0100
0001
0000
,  // measure 54
1000
0100
0010
0001
0100
0010
1000
0100
0022
0000
0000
0000
0033
0000
0000
0000
,  // measure 55
1100
1100
0110
0110
0011
0011
0101
0101
0110
0110
1010
1010
2200
0000
3300
0000
,  // measure 56
0010
0001
0010
0000
0010
0001
0010
0000
0100
1000
0001
0100
0010
1000
0100
0010
,  // measure 57
0001
1000
0001
0000
0001
0100
0001
0000
0010
0100
1000
0010
0100
0001
1000
0100
,  // measure 58
0010
0001
0010
0000
0010
1000
0010
0000
0001
0100
0010
1000
0100
0010
0001
0100
,  // measure 59
0000
1101
0000
1011
0000
1101
0000
1011
,  // measure 60
1000
0100
1000
0100
1000
0100
1000
0100
0010
0001
0010
0001
0010
0100
1000
0001
,  // measure 61
1000
0100
0010
0001
1000
0100
0010
0001
1000
0100
0010
0001
1000
0100
0010
1001
,  // measure 62
0000
0000
0000
0000
,  // measure 63
1000
0010
0010
0000
0100
0001
0001
0000
1000
0100
1000
0100
0010
0000
0001
0000
,  // measure 64
0010
0100
0100
0000
1000
0010
0010
0000
0100
0001
0100
0001
0010
0000
1000
0000
,  // measure 65
0001
0010
0010
0000
0100
1000
1000
0000
0010
0100
0010
0100
0001
0000
1000
0000
,  // measure 66
0100
0010
0010
0000
0001
1000
1000
0000
0010
0100
0010
0001
1000
0000
0100
0000
,  // measure 67
0110
0011
0101
1100
,  // measure 68
1010
0110
1100
1001
,  // measure 69
0100
0010
0100
0001
0010
0100
1000
0001
0010
0100
1000
0010
0100
0001
1000
0100
,  // measure 70
0010
0001
0100
0010
1000
0001
0010
0100
1000
0100
0010
0001
1000
0010
1000
0100
,  // measure 71
0010
0001
0010
0100
1000
0001
1000
0100
0010
0001
0100
0010
1000
0100
0010
0001
,  // measure 72
0100
1000
0100
0001
0010
0100
1000
0010
0110
0000
0100
0001
0100
0000
1001
0000
,  // measure 73
0011
0000
0010
0100
1000
0000
1100
0000
0110
0000
0010
0001
1000
0000
1100
0000
,  // measure 74
0110
0000
0010
0001
1000
0000
1100
0000
0110
0000
0010
0001
1000
0000
1010
0000
,  // measure 75
2001
0000
3200
0000
0320
0000
0031
1000
,  // measure 76
2200
0000
3300
0010
2002
0000
3003
0000
,  // measure 77
1200
0000
0320
0000
0032
0000
1003
0100
,  // measure 78
0220
0000
0330
0100
2002
0000
3003
0000
,  // measure 79
2112
0000
0000
0000
,  // measure 80
0000
0000
0000
0000
,  // measure 81
3113
0000
0000
0000
;

//---------------dance-double - ----------------
#NOTES:
     dance-double:
     :
     Challenge:
     17:
     1.000,1.000,1.000,1.000,1.000,1052.000,306.000,329.000,0.000,258.000:  // measure 1
00000000
00000000
00000000
00000000
,  // measure 2
00000000
00000000
00000000
00000000
,  // measure 3
00000000
00000000
00000000
00000000
00000000
10011001
01100110
22022000
00000000
00000000
00000000
00000000
00000000
00000000
00000000
33033000
,  // measure 4
00000000
00000000
00000000
02200000
03300000
00220000
00330000
00022000
00033000
02022020
00000000
00000000
00000000
00000000
00000000
00000000
,  // measure 5
00000000
03033030
00000000
00000000
00000000
00222202
00000000
00000000
00000000
00000000
00000000
00330000
00000000
00200000
00000000
00000000
,  // measure 6
00000000
00020000
00000000
00000300
00000000
00000200
00000000
00030000
00000000
00020000
00000000
00003000
00000000
00002000
00000000
00300000
,  // measure 7
00000000
00200000
00000000
00000000
00000000
00000000
00000000
00000000
00000000
00000000
00000000
00000000
00333303
00000000
00000000
00000000
,  // measure 8
00000000
00000000
00000000
00000000
00000000
00222202
00000000
00000000
00000000
00000000
00000000
00300000
00000000
00200000
00000000
00000000
,  // measure 9
00000000
00000000
00000000
00000300
00000000
00000200
00000000
00000000
00000000
00000000
00000003
00300300
00033000
00000000
00111101
00000000
,  // measure 10
00011000
00010000
01000000
00100000
01000000
00010000
10011000
00000100
22000010
00000001
00001000
00000001
33001000
00000100
00010000
00001000
,  // measure 11
00101000
00010000
00100000
00010000
00100000
01000000
10001100
00100000
01000220
00010000
10000000
01000000
10000330
00100000
01000000
00010000
,  // measure 12
01010000
01000000
00100000
00010000
00001000
00000100
11000010
00000001
22000010
00000001
00001000
00000010
33010000
00001000
00100000
00010000
,  // measure 13
00100010
01000000
10000000
01000000
10000000
01000000
00010011
00100000
00222202
00000000
00000000
00000000
00333303
00000000
00111100
00000000
,  // measure 14
11000000
10000000
00010000
01000000
00100000
00010000
00001000
00000100
00000010
00000001
00000001
00000010
00001100
00001000
00010000
00100000
,  // measure 15
00220000
01000000
01330000
00000000
02200000
00010000
03310000
00000000
00022000
00000100
00033100
00000000
00000022
00001000
00001033
00100000
,  // measure 16
00001100
00000100
00010000
00001000
00010000
01000000
00010000
00001000
01000000
00010000
01000000
00100000
01000000
10000000
01010000
00100000
,  // measure 17
10022000
01000000
10033000
00000000
02200000
00010000
03310000
00000000
00002200
00000001
00003301
00000000
00000220
00001000
00001330
10000000
,  // measure 18
00011000
00010000
01000000
00100000
01000010
10000000
01000000
00010010
00100100
01000000
00100000
01000100
00100000
00010000
00001000
00000100
,  // measure 19
00010010
00000001
00001000
00000001
00000100
00000010
00001000
00000100
00010000
00001000
00100000
00010000
01000000
00100000
10000000
01000000
,  // measure 20
20020000
00100000
31030000
00000000
00220000
00001000
00331000
00000000
00000022
00000100
00000133
00000000
00002002
00000100
00003103
00100000
,  // measure 21
00001100
00010000
00001000
00100000
00010000
01000000
00100000
00010000
00001000
00010100
00000010
00000001
00000001
00000010
00000100
00001000
,  // measure 22
00022000
00100000
00133000
00000000
02200000
10000000
13300000
00000000
20020000
01000000
31030000
00000000
00220000
00001000
00331000
00000010
,  // measure 23
00222202
00000000
00000000
00000000
00333303
00000000
00000000
00000000
00000000
00000000
00000000
00000000
00000000
00222202
00000000
00333303
,  // measure 24
00110000
00100000
00001000
00010000
00000100
00001000
00000100
00000100
00010010
00000001
00001000
00000001
00001000
00000100
00010000
00000100
,  // measure 25
00110000
00001000
01000000
00001000
01000000
00100000
00010000
00100000
10010000
00001000
00000100
00001000
00000100
00000010
00000001
00001000
,  // measure 26
00001010
00010000
00001000
01000000
00100000
10000000
01000000
10000000
00110000
01000000
00001000
01000000
00010000
00100000
00010000
00001000
,  // measure 27
00010100
00000010
00000001
00001000
00000010
00010000
00001000
01000000
00110000
10000000
01000000
00100000
22022202
00000000
33033303
00000000
,  // measure 28
11000000
00100000
00010000
00001000
00000010
00000001
00000100
00001000
00011000
00100000
01000000
10000000
01000000
00010000
00100000
00001000
,  // measure 29
00022000
00000100
00033100
00000000
00002020
00000001
00003031
00000000
00000220
00001000
00001330
00000000
00220000
01000000
01330000
00001000
,  // measure 30
01100000
10000000
11000000
01000000
00100000
00010000
00001000
00000100
00000010
00000001
00001000
00000010
00000100
00001000
00010000
00100000
,  // measure 31
02200000
10000000
13300000
00000000
02020000
00100000
03130000
00000000
00022000
00000100
00033100
00100000
00002020
00000001
00003031
00010000
,  // measure 32
00021001
00000100
00000010
00000001
00031000
00000100
00000010
00000001
00011000
00000100
00010000
00001000
00100000
00010000
01000000
00100000
10002000
01000000
00100000
00010000
10003000
01000000
00100000
00010000
00021000
00000100
00000010
00000001
00031000
00000100
00000010
00000001
,  // measure 33
00020001
00000010
00000100
00001000
00030001
00000010
00000100
00001000
00012000
00100000
01000000
10000000
00013000
00100000
01000000
10000000
10001000
01000000
00100000
00010000
00001000
00000100
00000010
00000001
22022202
00000000
00000000
00000000
33033303
00000000
00000000
00000000
,  // measure 34
20011000
00001000
00010000
00100000
31000000
00100000
00010000
00000100
02000010
00000001
00000100
00001000
03010000
00100000
01000000
10000000
,  // measure 35
00010020
01000000
00100000
00010000
00001030
00000100
00000010
00000001
20000100
00001000
00010000
00100000
31000000
10000000
01000000
00100000
,  // measure 36
10012000
00010000
01000000
10000000
01003000
00100000
10000000
00010000
02100000
00001000
00000100
00000010
03000001
00000100
00001000
00010000
,  // measure 37
00100020
10000000
01000000
00010000
00100030
00001000
00010000
00000100
02000010
00000001
00000100
00001000
03010000
00100000
01000000
10000000
,  // measure 38
10100000
00010000
00110000
01000000
00001000
00010000
00011000
00100000
00000100
00000010
00000110
00010000
00000001
00001000
00001001
00000010
,  // measure 39
00010000
00000100
00010100
00000010
00001000
00100000
00101000
00000100
00010000
01000000
01010000
00001000
10000000
00100000
10100000
01000000
,  // measure 40
01010000
00001000
00011000
00100000
00000100
00000010
00000110
00000001
00001000
00010000
00011000
01000000
00010000
00100000
00110000
01000000
,  // measure 41
10010010
00001000
10100000
00000001
01100000
00010000
01001000
00000010
00011000
00000100
00110000
00001000
01100000
10000100
11000000
00000010
,  // measure 42
20012002
01000000
32000000
00100000
03203003
00010000
00320000
00000100
00030200
00000010
00000320
00000001
00000032
00000100
00000203
00001000
00002300
00010000
00023000
00100000
00230000
01000000
02300000
10000000
13000000
00010000
00100000
00010000
00100000
00001000
00010000
00001000
,  // measure 43
00210002
01000000
00320003
00001000
02032000
00000100
23003200
00000010
30200320
00000001
02300032
00000100
03020203
00001000
20032300
00000000
,  // measure 44
32003020
00010000
03020032
00100000
00230203
01000000
02300320
00010000
03020032
00001000
20032003
00000100
32003200
00010000
03020320
00000001
,  // measure 45
00230032
01000000
02300023
00000100
23000230
00100000
30202300
00010000
00323020
00000100
20030230
00100000
30202300
00010000
00323000
01000000
,  // measure 46
02030020
00100000
03200032
00000100
00320203
01000000
02030320
10000000
23002030
00100000
30203000
00000100
02322200
00000000
03033300
00000000
,  // measure 47
00002020
00000001
00003031
00000000
00002200
00010000
00013300
00000000
00220001
01000100
01330001
00000100
22020001
00000100
33030001
00000100
,  // measure 48
02200010
00010000
03311000
00000000
00002200
00000010
10003310
01000000
10002002
01000100
10003103
01000000
00222000
00000000
00333000
01000000
,  // measure 49
10010000
00010000
01000000
00100000
00010000
00001000
01000100
00000010
20001001
00000100
00000010
00010000
30001000
01000000
00100000
00010000
,  // measure 50
00011000
01000100
20000010
00000001
00000100
00001000
30010000
00100000
01001000
10000000
00100000
01000000
22020000
00000000
33030000
00000000
,  // measure 51
01100000
10000000
01000001
00010000
00100010
00001000
00010100
00100000
01002000
10000000
00010000
10000000
01003000
00100000
00001000
00010000
,  // measure 52
00001100
00000010
20000001
00000100
00001000
00010000
31000000
00100000
00012000
01000000
00100000
10000000
01003000
00100000
00010000
00001000
,  // measure 53
00001100
00000001
20000010
00000100
00001000
00010000
30100000
01000000
10000200
00100000
00100000
00010000
00001300
00000010
00000001
00000100
,  // measure 54
00011000
00100000
00010100
01000000
10000010
01000000
00100001
00010000
20020120
00000000
00001000
00000000
31130030
00000000
01010000
00000000
,  // measure 55
11000000
01010000
00110000
00101000
00011000
00010100
00100110
01000011
10001001
00101100
01010100
00110000
22022202
00000000
33033303
00000000
,  // measure 56
10010020
10000000
01000032
01000000
00100203
00100000
00010320
00010000
02001030
00001000
23000100
00000100
30200010
00000010
02300001
00000001
,  // measure 57
03101000
00000100
20010002
01000010
30021003
00000100
01030002
00100010
20001003
00000100
30100002
00010010
02001003
00000100
03010000
10000010
,  // measure 58
11000002
00100000
00010023
00001000
00000130
00001000
00010002
00100000
01000203
10000000
00100320
01000000
00001030
00100000
00010200
00011000
,  // measure 59
00000300
22020220
33030330
00222202
00333303
22020220
33030330
00111010
,  // measure 60
10011001
01001000
00100010
10000100
00010001
01001000
00100010
10000100
00010001
01001000
00100010
10000100
00010001
01001000
00100010
10000100
,  // measure 61
10011000
00010000
00100000
00010000
01001000
00000100
00001000
00010000
01100000
00010000
00001000
00000100
10000010
01000001
00101000
00110110
,  // measure 62
00000000
00000000
00000000
00000000
,  // measure 63
10011101
01000000
00100000
00010000
00110000
00001000
10000100
00000010
02001001
00000100
00001000
00000100
00010001
00001000
03000010
00001000
,  // measure 64
00001100
00010000
01000001
00100000
10010020
01000000
00100000
00010000
00110000
00001000
01000030
00100000
00011000
00001000
00000100
00000010
,  // measure 65
20000011
00000001
01000100
00000010
00010001
00000010
00000100
00001000
30001010
00000100
00001000
00010000
00101000
01000000
10000000
00010000
,  // measure 66
00110000
01000000
00001000
01000000
21100000
00010000
00000100
00000010
00001001
00000100
30001000
00010000
00110000
01000000
11000000
00000000
,  // measure 67
20020000
01000000
31030000
00000000
02200000
00010000
03310000
00000000
00002200
00100000
00103300
00000000
00010000
00001000
00011000
00000000
,  // measure 68
00000220
00000001
00000331
00000000
00002200
00010000
00013300
00000000
00220000
01000000
01330000
00000000
00100000
10000000
10010000
00000000
,  // measure 69
11000000
01000000
00010000
01000000
00100000
00010000
00001000
00000100
02000010
00000001
00000100
00001000
03010000
00100000
00010000
00001000
,  // measure 70
01000000
00100000
10000000
01000000
00010000
01000000
00100000
00010000
02001000
00000100
00000010
00000001
03000100
00001000
00010000
00100000
,  // measure 71
01000000
10000000
00100000
00010010
01000100
01000000
00100001
00100000
10000020
10000000
00010000
00010000
00100030
00100000
00001000
00010000
,  // measure 72
01000000
00000000
00100000
00000000
00010000
00000000
00001000
00000000
20000100
00000000
00000010
00000000
00000001
00000000
00000100
00000000
30001200
00000000
01000000
00000000
00010000
00100000
00010000
00100000
00010000
00100000
00010000
00000000
01100300
00000000
00000000
00000000
,  // measure 73
11000002
00000000
00100000
00000000
00010000
01000000
00010000
10000000
01000000
00100000
01000000
00000000
01100003
00000000
00000010
00000000
02011000
00000000
00000000
00000000
00000100
00001000
00000100
00001000
00000001
00001000
00000001
00000000
03000011
00000000
00010000
00000000
,  // measure 74
00001200
00000000
10000000
00000000
00010000
00100000
00010000
00100000
01000000
10000000
01000000
00000000
10100300
00000000
00001000
00000000
02100000
00000000
00000001
00000000
00010000
00001000
00010000
00001000
00010000
00000100
00010000
00000000
03001010
00000000
00000100
00000000
,  // measure 75
10010012
00000000
00000100
00000000
00002003
00010000
00010000
00000000
00203000
10000000
10000000
00000000
00320000
01000000
01030000
00000100
,  // measure 76
22020000
00000000
00000000
00000000
33030000
00000000
11010000
00000010
00222000
00000000
00000000
00000000
00333000
00000000
11010000
00000001
,  // measure 77
10200101
00000000
01000000
00000000
00320000
00001000
00001000
00000000
00030020
00000000
00000100
00000000
00002030
00010000
00013000
00000001
,  // measure 78
22200000
00000000
00000000
00000000
33300000
00000000
11010000
00000100
00222000
00000000
00000000
00000000
00333000
00000000
01011010
00000000
,  // measure 79
00222200
00000000
00000000
00000000
,  // measure 80
00000000
00000000
00000000
00000000
00000000
00000000
00000000
00333300
,  // measure 81
22022202
33033303
00000000
00000000
;
