#TITLE:Holy Thunderforce;
#SUBTITLE:;
#ARTIST:Rhapsody;
#TITLETRANSLIT:;
#SUBTITLETRANSLIT:;
#ARTISTTRANSLIT:;
#CREDIT:Arvin;
#BANNER:../bn-Rhapsody.png;
#BACKGROUND:../Rhapsody-bg.png;
#LYRICSPATH:;
#CDTITLE:;
#MUSIC:07 - Holy Thunderforce.ogg;
#OFFSET:-0.210;
#SAMPLESTART:33.293;
#SAMPLELENGTH:12.000;
#SELECTABLE:YES;
#BPMS:0.000=179.990;
#STOPS:;
#BGCHANGES:;
// cache tags:
#FIRSTBEAT:16.000;
#LASTBEAT:769.000;
#SONGFILENAME:Songs/Rhapsody of Fire/Holy Thunderforce - [Arvin]/holythunder.sm;
#HASMUSIC:1;
#HASBANNER:1;
#MUSICLENGTH:262.164;
// end cache tags

//---------------dance-single - Blank----------------
#NOTES:
     dance-single:
     Blank:
     Challenge:
     15:
     1.000,1.000,0.496,0.446,1.000,2069.000,130.000,117.000,214.000,0.000:

0000
0000
0000
0000
,
0000
0000
0000
0000
,
0000
0000
0000
0000
,
0000
0000
0000
0000
,
1000
0100
1000
0001
0010
0001
1000
0010
1000
0001
0100
0001
1000
0100
0010
0001
,
1000
0010
1000
0001
0100
0001
1000
0100
1000
0001
0010
0001
1000
0010
0100
0001
,
2000
0000
0000
3010
0000
0000
0110
0000
,
0101
0000
0001
0000
0000
0000
0001
0000
1000
0010
1000
0010
1000
0001
0010
0001
,
1000
0100
1000
0001
0010
0001
1000
0010
1000
0001
0100
0001
1000
0100
0010
0001
,
1000
0010
1000
0001
0100
0001
1000
0100
1000
0001
0010
0001
1000
0010
0100
0001
,
1000
0100
0010
0001
1000
0001
1000
0100
0010
0001
0100
0010
1000
0100
0010
0001
,
1000
0001
1000
0010
0100
0001
0010
0100
1000
0001
1000
0001
0010
0100
1000
0001
,
1000
0010
1000
0001
0100
0001
1000
0100
1000
0001
0010
0001
1000
0010
0100
0001
,
1000
0100
1000
0001
0010
0001
1000
0010
1000
0001
0100
0001
1000
0100
0010
0001
,
1000
0010
0100
0001
1000
0001
1000
0010
0100
0001
0010
0100
1000
0010
0100
0001
,
1000
0001
1000
0100
0010
0001
0100
0010
1000
0001
1000
0001
0100
0010
1000
0001
,
1000
0100
1000
0100
0010
0000
0001
0100
0001
0100
0010
0000
1000
0001
1000
0001
,
0100
0010
1000
0010
1000
0001
0010
0001
4000
0000
0000
0000
3001
0010
0001
0010
,
0100
0000
1000
0010
1000
0010
0100
0000
0001
1000
0001
1000
0010
0100
0010
0100
,
0002
0000
0003
0001
1001
0000
1010
0000
,
1000
0010
1000
0010
0100
0000
0001
0010
0001
0010
0100
0000
1000
0001
1000
0001
,
0010
0100
1000
0100
1000
0001
0100
0001
4000
0000
0000
0000
3001
0100
0001
0100
,
0010
0000
1000
0100
1000
0100
0010
0000
0001
1000
0001
1000
0100
0010
0100
0010
,
0002
0000
0003
1MM1
0000
0000
1M1M
0000
,
2MM2
0000
3003
M1M1
0000
0000
1MM1
0000
,
2000
0002
0000
0000
0000
0000
0000
3003
,
1010
0010
1000
0001
0020
0000
0130
0000
,
1100
0100
1000
0010
0200
0000
0301
0000
,
2M2M
3030
1MMM
0000
2MM2
3003
MMM1
0000
,
MM22
0033
MM2M
0000
0130
1000
0001
0100
,
0101
0001
1000
0010
0200
0000
0310
0000
,
1010
0010
1000
0010
0200
0000
0301
0000
,
M2M2
0303
MMM1
0000
2MM2
3003
1MMM
0000
,
22MM
0000
0000
0000
0000
0000
0000
3300
,
1001
0001
1000
0010
1010
0000
1000
0000
,
1001
1000
0001
0100
0101
0000
0001
0000
,
2M2M
3030
1MMM
0000
22MM
3300
1MMM
0000
,
2MM2
3003
MMM2
0000
1003
0100
0010
0001
,
1001
1000
0010
0100
0101
0000
0100
0000
,
1001
0001
0100
0010
1010
0000
0010
0000
,
2M2M
3030
1MMM
0000
22MM
3300
1MMM
0000
,
2MM2
0000
3003
0000
1000
0100
1000
0100
1000
0100
1000
0100
1000
0100
1000
0100
,
1000
0010
1000
0001
0010
0100
1000
0001
0100
0001
1000
0100
0010
0001
1000
0100
,
1000
0001
0010
0100
1000
0001
0010
0001
1000
0100
0010
0001
1000
0010
1000
0001
,
1000
0100
0010
0001
0010
0100
1000
0010
0100
0001
0010
0100
1000
0100
0010
0001
,
1000
0001
0100
0010
1000
0100
1000
0010
0100
0001
0010
0100
1000
0001
0100
0010
,
1000
0100
1000
0001
0100
0010
1000
0001
0010
0001
1000
0010
0100
0001
1000
0010
,
1000
0001
0100
0010
1000
0001
0100
0001
1000
0010
0100
0001
1000
0100
1000
0001
,
1000
0010
0100
0001
0100
0010
1000
0100
0010
0001
0100
0010
1000
0010
0100
0001
,
1000
0001
0010
0100
1000
0010
1000
0100
0010
0001
0100
0010
1000
0001
0010
0100
,
1000
0010
0100
0001
0010
0100
1000
0001
1000
0010
0100
0010
1000
0100
0010
0001
,
1000
0100
1000
0100
0010
0000
0001
0100
0001
0100
0010
0000
1000
0001
1000
0001
,
0100
0010
1000
0010
1000
0001
0010
0001
4000
0000
0000
0000
3001
0010
0001
0010
,
0100
0000
1000
0010
1000
0010
0100
0000
0001
1000
0001
1000
0010
0100
0010
0100
,
0002
0000
0003
0001
1001
0000
1010
0000
,
1000
0010
1000
0010
0100
0000
0001
0010
0001
0010
0100
0000
1000
0001
1000
0001
,
0010
0100
1000
0100
1000
0001
0100
0001
4000
0000
0000
0000
3001
0100
0001
0100
,
0010
0000
1000
0100
1000
0100
0010
0000
0001
1000
0001
1000
0100
0010
0100
0010
,
0002
0000
0003
1MM1
0000
0000
1M1M
0000
,
2MM2
0000
3003
M1M1
0000
0000
1MM1
0000
,
2000
0002
0000
0000
0000
0000
0000
3003
,
0101
0100
0001
1000
0200
0000
0310
0000
,
0011
0010
0001
0100
0010
0100
0001
0000
,
M2M2
0303
MMM1
0000
2MM2
3003
1MMM
0000
,
22MM
3300
M2MM
0000
0310
0001
1000
0010
,
1010
1000
0001
0100
0020
0000
0130
0000
,
0101
0100
0001
0100
0020
0000
1030
0000
,
2M2M
3030
1MMM
0000
2MM2
3003
MMM1
0000
,
MM22
0000
0033
0000
0001
0010
0001
1000
0100
1000
0010
0100
0001
0100
0001
0000
,
1001
1000
0001
0100
0101
0000
0001
0000
,
1001
0001
1000
0010
1010
0000
1000
0000
,
M2M2
0303
MMM1
0000
MM22
0033
MMM1
0000
,
2MM2
3003
2MMM
0000
3001
0010
0100
1000
,
1001
0001
0100
0010
1010
0000
0010
0000
,
1001
1000
0010
0100
0101
0000
0100
0000
,
M2M2
0303
MMM1
0000
MM22
0033
MMM1
0000
,
2MM2
0000
3003
0000
0001
0010
0001
0010
0001
0010
0001
0010
0001
0010
0001
0010
,
0001
0100
0001
1000
0100
0010
0001
1000
0010
1000
0001
0010
0100
1000
0001
0010
,
0001
1000
0100
0010
0001
1000
0100
1000
0001
0010
0100
1000
0001
0100
0001
1000
,
0001
0010
0100
1000
0100
0010
0001
0100
0010
1000
0100
0010
0001
0010
0100
1000
,
0001
1000
0010
0100
0001
0010
0001
0100
0010
1000
0100
0010
0001
1000
0010
0100
,
0001
0010
0001
1000
0010
0100
0001
1000
0100
1000
0001
0100
0010
1000
0001
0100
,
0001
1000
0010
0100
0001
1000
0010
1000
0001
0100
0010
1000
0001
0010
0001
1000
,
0001
0100
0010
1000
0010
0100
0001
0010
0100
1000
0010
0100
0001
0100
0010
1000
,
0001
1000
0100
0010
0001
0100
0001
0010
0100
1000
0010
0100
0001
1000
0100
0010
,
0001
0100
0010
1000
0100
0010
0001
1000
0001
0100
0010
0100
0001
0010
0100
1000
,
0001
0010
0001
1000
0100
1000
0001
0100
0001
1000
0010
1000
0001
0010
0100
1000
,
0001
0100
0001
1000
0010
1000
0001
0010
0001
1000
0100
1000
0001
0100
0010
1000
,
0002
0000
0000
0103
0000
0000
0110
0000
,
1010
1000
0000
2000
0000
0000
0000
3000
,
0001
0100
0001
1000
0010
1000
0001
0010
0001
1000
0100
1000
0001
0100
0010
1000
,
0001
0010
0001
1000
0100
1000
0001
0100
0001
1000
0010
1000
0001
0010
0100
1000
,
0002
0000
0000
0013
0000
0000
0110
0000
,
1100
0000
1000
0000
0001
0010
0001
1000
0001
0100
0001
1000
0100
1000
0010
1000
,
0001
0010
0001
1000
0100
1000
0001
0100
0001
1000
0010
1000
0001
0010
0100
1000
,
0001
0100
0001
1000
0010
1000
0001
0010
0001
1000
0100
1000
0001
0100
0010
1000
,
0001
0010
0100
1000
0001
1000
0001
0010
0100
1000
0010
0100
0001
0010
0100
1000
,
0001
1000
0001
0100
0010
1000
0100
0010
0001
1000
0001
1000
0100
0010
0001
1000
,
0001
0100
0001
1000
0010
1000
0001
0010
0001
1000
0100
1000
0001
0100
0010
1000
,
0001
0010
0001
1000
0100
1000
0001
0100
0001
1000
0010
1000
0001
0010
0100
1000
,
0001
0100
0010
1000
0001
1000
0001
0100
0010
1000
0100
0010
0001
0100
0010
1000
,
0001
1000
0001
0010
0100
1000
0010
0100
0001
1000
0001
1000
0010
0100
0001
1000
,
0001
0000
0010
0000
0001
0000
1000
0000
0100
0000
1000
0000
1001
0000
0000
0001
0000
0000
0010
0000
0000
0100
0000
0000
,
1000
0000
0100
0000
1000
0000
0001
0000
0010
0000
0001
0000
1001
0000
0000
1000
0000
0000
0100
0000
0000
0010
0000
0000
,
0001
0010
0100
1000
0100
0010
0001
0010
0100
1000
0100
0010
0001
0010
0100
1000
,
0001
0100
0010
1000
0010
0100
0001
0100
0010
1000
0010
0100
0001
0100
0010
1000
,
0001
0100
0001
1000
0001
0010
0001
1000
0001
0100
0001
0010
0001
1000
0001
0100
,
0001
0010
0001
1000
0001
0100
0001
1000
0001
0010
0001
0100
0001
1000
0001
0010
,
0002
0000
0000
0000
1003
0100
1000
0100
0020
0000
0000
0000
0031
0100
0001
0100
,
0010
1000
0010
0000
0100
0000
0001
0000
0101
0000
0000
0000
0001
0010
0001
0010
,
0100
0000
1000
0000
0100
0000
0010
0000
0002
0000
0000
0000
1003
0010
1000
0010
,
0100
0000
0001
0000
0010
0000
0100
0000
1000
0001
1000
0001
1000
0001
1000
0001
,
1000
0010
1000
0001
0010
0001
1000
0100
1000
0100
0010
0100
1000
0010
0100
0010
,
1000
0001
0010
0001
1000
0010
0100
0010
1000
0001
0100
0001
0010
0100
0010
0001
,
1000
0100
0010
0001
0010
0100
1000
0001
1000
0100
0010
0001
0100
0010
1000
0001
,
1000
0001
0010
0100
1000
0010
0100
0001
1000
0010
1000
0001
0010
0001
1000
0100
,
1000
0010
0100
0001
0010
0100
1000
0001
1000
0010
0100
0010
1000
0100
0010
0100
,
1000
0001
0100
0001
1000
0100
0010
0100
1000
0001
0010
0001
0100
0010
0100
0001
,
1000
0010
0100
0001
0100
0010
1000
0001
1000
0001
1000
0001
1000
0001
1000
0001
,
1000
0010
1000
0010
1000
0010
1000
0010
0100
0001
0100
0001
0100
0001
0100
0001
,
1000
0100
1000
0100
1000
0100
1000
0100
0010
0001
0010
0001
0010
0001
0010
0001
,
1000
0000
0000
0010
0000
0000
1000
0000
0000
0010
0000
0000
1000
0000
0000
0010
0000
0000
1000
0000
0000
0010
0000
0000
1000
0000
0000
0000
0100
0000
0000
0000
1000
0000
0000
0000
0001
0000
0000
0000
0010
0000
0000
0000
0001
0000
0000
0000
,
1001
0000
0000
1000
0000
0000
0100
0000
0000
0010
0000
0000
0001
0000
0010
0000
0001
0000
1000
0000
0100
0000
1000
0000
,
1001
0000
0001
0000
0010
0000
0100
0000
1000
0100
0010
0001
0010
0100
1000
0100
,
0010
0001
0010
0100
1000
0100
0010
0001
1000
0010
0100
0001
0100
0010
1000
0010
,
0100
0001
0100
0010
1000
0010
0100
0001
1000
0010
1000
0001
1000
0100
1000
0001
,
1000
0010
1000
0100
1000
0001
1000
0010
1000
0100
1000
0001
1000
0010
1000
0001
,
1000
0100
1000
0010
1000
0001
1000
0100
2000
0000
0000
0000
3001
0010
0001
0010
,
0200
0000
0000
0000
1300
0010
1000
0010
0100
0001
0100
0000
0010
0000
1000
0000
,
1010
0000
0000
0000
1000
0100
1000
0100
0010
0000
0001
0000
0010
0000
0100
0000
,
2000
0000
0000
0000
3001
0100
0001
0100
0010
0000
1000
0000
0100
0000
0010
0000
,
0001
1000
0010
1000
0001
0010
0001
1000
0100
0010
0001
0100
0010
0100
0010
1000
,
0001
0100
0001
1000
0200
0000
0310
0000
,
0011
0010
0001
0100
0020
0000
1030
0000
,
M2M2
0303
MMM1
0000
2MM2
3003
1MMM
0000
,
22MM
3300
M2MM
0000
0310
0001
1000
0010
,
1010
1000
0001
0100
0020
0000
0130
0000
,
0101
0100
0001
0100
0020
0000
1030
0000
,
2M2M
3030
1MMM
0000
2MM2
3003
MMM1
0000
,
MM22
0000
0000
0033
1001
1000
1001
0001
,
1001
1000
0001
0100
0101
0000
0001
0000
,
1001
0001
1000
0010
1010
0000
1000
0000
,
M2M2
0303
MMM1
0000
MM22
0033
MMM1
0000
,
2MM2
3003
2MMM
0000
3001
0010
0100
1000
,
1001
0001
0100
0010
1010
0000
0010
0000
,
1001
1000
0010
0100
0101
0000
0100
0000
,
M2M2
0303
MMM1
0000
MM22
0033
MMM1
0000
,
2MM2
0000
0000
3003
,
1000
0010
1000
0001
0010
0100
1000
0001
0100
0001
1000
0100
0010
0001
1000
0100
,
1000
0001
0010
0100
1000
0001
0010
0001
1000
0100
0010
0001
1000
0010
1000
0001
,
1000
0100
0010
0001
0010
0100
1000
0010
0100
0001
0010
0100
1000
0100
0010
0001
,
1000
0001
0100
0010
1000
0100
1000
0010
0100
0001
0010
0100
1000
0001
0100
0010
,
1000
0100
1000
0001
0100
0010
1000
0001
0010
0001
1000
0010
0100
0001
1000
0010
,
1000
0001
0100
0010
1000
0001
0100
0001
1000
0010
0100
0001
1000
0100
1000
0001
,
1000
0010
0100
0001
0100
0010
1000
0100
0010
0001
0100
0010
1000
0010
0100
0001
,
1000
0001
0010
0100
1000
0010
1000
0100
0010
0001
0100
0010
1000
0001
0010
0100
,
1000
0010
0100
0001
0010
0100
1000
0001
1000
0010
0100
0010
1000
0100
0010
0001
,
1000
0000
1MM1
0000
,
MM11
0000
11MM
0000
,
M11M
0000
M1M1
0000
,
1M1M
0000
0000
0000
,
M1M1
0000
1MM1
0000
,
11MM
0000
MM11
0000
,
M11M
0000
1M1M
0000
,
M2M2
0000
0000
0000
0000
0000
0000
0303
,
2MM2
0000
0000
3003
,
0001
0100
0001
1000
0100
0010
0001
1000
0010
1000
0001
0010
0100
1000
0001
0010
,
0001
1000
0100
0010
0001
1000
0100
1000
0001
0010
0100
1000
0001
0100
0001
1000
,
0001
0010
0100
1000
0100
0010
0001
0100
0010
1000
0100
0010
0001
0010
0100
1000
,
0001
1000
0010
0100
0001
0010
0001
0100
0010
1000
0100
0010
0001
1000
0010
0100
,
0001
0010
0001
1000
0010
0100
0001
1000
0100
1000
0001
0100
0010
1000
0001
0100
,
0001
1000
0010
0100
0001
1000
0010
1000
0001
0100
0010
1000
0001
0010
0001
1000
,
0001
0100
0010
1000
0010
0100
0001
0010
0100
1000
0010
0100
0001
0100
0010
1000
,
0001
1000
0100
0010
0001
0100
0001
0010
0100
1000
0010
0100
0001
1000
0100
0010
,
0001
0100
0010
1000
0100
0010
0001
1000
0001
0100
0010
0100
0001
0010
0100
1000
,
0001
0010
0001
1000
0100
1000
0001
0100
0001
1000
0010
1000
0001
0010
0100
1000
,
0001
0100
0001
1000
0010
1000
0001
0010
0001
1000
0100
1000
0001
0100
0010
1000
,
0001
0010
0100
1000
0001
1000
0001
0010
0100
1000
0010
0100
0001
0010
0100
1000
,
0001
1000
0001
0100
0010
1000
0100
0010
0001
1000
0001
1000
0100
0010
0001
1000
,
0001
0100
0001
1000
0010
1000
0001
0010
0001
1000
0100
1000
0001
0100
0010
1000
,
0001
0010
0001
1000
0100
1000
0001
0100
0001
1000
0010
1000
0001
0010
0100
1000
,
0001
0100
0010
1000
0001
1000
0001
0100
0010
1000
0100
0010
0001
0100
0010
1000
,
0001
1000
0001
0010
0100
1000
0010
0100
0001
1000
0001
1000
0010
0100
0001
1000
,
0001
0010
0001
1000
0100
1000
0001
0100
0001
1000
0010
1000
0001
0010
0100
1000
,
0001
0100
0001
1000
0010
1000
0001
0010
0001
1000
0100
1000
0001
0100
0010
1000
,
0001
0000
0100
0010
0100
0000
0101
0000
0000
0000
0100
0000
0110
0000
0000
0000
,
1010
0000
1000
0000
0000
0000
1000
0000
1001
0000
0000
0000
1000
0001
1000
0001
,
1000
0100
1000
0001
0010
0001
1000
0010
1000
0001
0100
0001
1000
0100
0010
0001
,
1000
0010
1000
0001
0100
0001
1000
0100
1000
0001
0010
0001
1000
0010
0100
0001
,
1000
0000
0100
0010
0100
0000
1100
0000
0000
0000
0100
0000
0110
0000
0000
0000
,
0011
0000
0000
0101
0000
0000
0110
0000
,
1001
0000
0000
1010
0000
0000
1100
0000
,
2MM2
3MM3
0000
0000
;
