#TITLE:Honjitsu, Mankai Watashi-Iro!;
#SUBTITLE:Hayate no goyoku! 2nd ED theme;
#ARTIST:Katsura Hinagiku with hakuo three;
#TITLETRANSLIT:;
#SUBTITLETRANSLIT:;
#ARTISTTRANSLIT:;
#CREDIT:ALICE_;
#BANNER:Mankai.png;
#BACKGROUND:Mankai.jpg;
#LYRICSPATH:;
#CDTITLE:cdtitle.png;
#MUSIC:Mankai.mp3;
#OFFSET:0.710;
#SAMPLESTART:55.880;
#SAMPLELENGTH:20.220;
#SELECTABLE:YES;
#BPMS:0.000=173.000;
#STOPS:;
#BGCHANGES:2.125=Mankai.avi=1.000=0=0=1,
257.000=Mankai.jpg=1.000=1=0=1,
99999=-nosongbg-=1.000=0=0=0 // don't automatically add -songbackground-
;
// cache tags:
#FIRSTBEAT:4.000;
#LASTBEAT:257.000;
#SONGFILENAME:Songs/alice 4th complete step/Mankai/Mankai.sm;
#HASMUSIC:1;
#HASBANNER:1;
#MUSICLENGTH:89.713;
// end cache tags

//---------------dance-single - ----------------
#NOTES:
     dance-single:
     :
     Hard:
     8:
     0.699,0.641,0.268,0.390,0.000,380.000,24.000,35.000,0.000,0.000:
0000
0000
0000
0000
,
2000
3000
0000
0000
0000
0000
0000
0000
0000
0000
0000
0000
0000
0000
0000
0000
0002
0003
0000
0000
0000
0000
0000
0000
0000
0000
0000
0000
0000
0000
0000
0000
0200
0300
0000
0000
0000
0000
0000
0000
0000
0000
0000
0000
0000
0000
0000
0000
0020
0030
0000
0000
0000
0000
0000
0000
0000
0000
0000
0000
0000
0000
0000
0000
,
1000
0000
0000
0000
0000
0000
0000
0000
0100
0000
0000
0000
0000
0000
0000
0000
0001
0000
0000
0000
0000
0000
0000
0000
0010
0000
0000
0000
0000
0000
0000
0000
0000
0000
0000
0000
0000
0000
0000
0000
0110
0000
0000
0000
0000
0000
0000
0000
2002
3003
0000
0000
0000
0000
0000
0000
0000
0000
0000
0000
0000
0000
0000
0000
,
1000
0100
0010
0001
0000
1000
0010
0100
,
0001
0000
0100
0010
1000
0010
0100
0000
,
0001
0010
0100
1000
0000
0001
0100
0010
,
1000
0000
0001
0010
0100
0010
0001
0000
,
1000
0000
1100
0000
0001
0001
0100
0010
,
1000
0000
0000
0000
0000
0000
0000
0000
0001
0000
0000
0000
0000
0000
0000
0000
0010
0000
0000
0000
0000
0000
0000
0000
0100
0000
0000
0000
0000
0000
0000
0000
0000
0000
0000
0000
0000
0000
0000
0000
0020
0030
0000
0000
0000
0000
0000
0000
0020
0030
0000
0000
0000
0000
0000
0000
0000
0000
0000
0000
0000
0000
0000
0000
,
0001
0000
0101
0000
1000
1000
0001
0100
,
0010
1000
0100
0010
0001
0100
0010
0000
,
1000
0000
1001
0000
0100
0010
0100
0001
,
1000
0000
0000
0000
0000
0000
0000
0000
0001
0000
0000
0000
0000
0000
0000
0000
0100
0000
0000
0000
0000
0000
0000
0000
0010
0000
0000
0000
0000
0000
0000
0000
0000
0000
0000
0000
0000
0000
0000
0000
2000
3000
0000
0000
0000
0000
0000
0000
2000
3000
0000
0000
0000
0000
0000
0000
0000
0000
0000
0000
0000
0000
0000
0000
,
0001
0000
0011
0000
0100
1000
0010
0100
,
0001
1000
0010
0100
1000
0100
0010
0200
,
0000
0000
0000
0300
,
0001
0001
0000
0000
0000
0000
0000
0000
,
1000
1000
0000
0000
0000
0000
0000
0000
,
0010
0010
0000
0000
0000
0000
0000
0000
,
1000
1000
0000
0000
0000
0000
0110
0000
,
1001
1000
0100
0000
0100
0000
0100
0000
,
0001
0001
0100
0000
0100
0000
0100
0000
,
1000
1000
0010
0000
0010
0100
1001
0000
,
0001
0100
0001
1000
0100
0001
0100
0000
,
1000
0010
1000
0010
1000
0100
1000
0100
,
1000
0010
0100
0001
0010
0001
0100
0000
,
0001
0010
0001
0010
0001
0100
0001
0100
,
0001
0010
0100
1000
0010
0100
0001
0000
,
1000
0100
1000
0100
0001
0100
1000
0010
,
0100
0001
0010
0100
1000
0010
0100
0000
,
0001
0010
0001
0010
1000
0010
0001
0100
,
0000
1000
0010
1000
0001
1000
0010
0100
,
0001
0001
1000
0000
0010
0100
0101
0000
,
1000
1000
0001
0101
0000
0010
0100
0000
,
1000
1000
0001
0000
0100
0010
1010
0000
,
0001
0001
1000
1100
0000
0010
0100
0000
,
0101
0000
1001
0000
0101
1000
0001
0100
,
0001
1000
0100
1000
0001
0010
0100
0000
,
1000
0010
0100
0001
0100
0010
1000
0100
,
0020
0000
0000
0000
0000
0000
0000
0000
0000
0000
0000
0000
0000
0000
0000
0000
0031
0000
0000
0000
0000
0000
0000
0000
0200
0300
0000
0000
0000
0000
0000
0000
0000
0000
0000
0000
0000
0000
0000
0000
1000
0000
0000
0000
0000
0000
0000
0000
0100
0000
0000
0000
0000
0000
0000
0000
0002
0003
0000
0000
0000
0000
0000
0000
,
0000
0000
0000
0000
0000
0000
0000
0000
0010
0000
0000
0000
0000
0000
0000
0000
0100
0000
0000
0000
0000
0000
0000
0000
2000
3000
0000
0000
0000
0000
0000
0000
0000
0000
0000
0000
0000
0000
0000
0000
0010
0000
0000
0000
0000
0000
0000
0000
1000
0000
0000
0000
0000
0000
0000
0000
0001
0000
0000
0000
0000
0000
0000
0000
,
0100
1000
0100
0010
0100
0001
0010
0100
,
1000
0010
0100
0001
1000
0100
1000
2100
,
0000
0000
0000
0000
0000
0000
0000
0000
3010
0000
0000
0000
0000
0000
0000
0000
0100
0000
0000
0000
0000
0000
0000
0000
0001
0000
0000
0000
0000
0000
0000
0000
0100
0000
0000
0000
0000
0000
0000
0000
1000
0000
0000
0000
0000
0000
0000
0000
0100
0000
0000
0000
0000
0000
0000
0000
0020
0030
0000
0000
0000
0000
0000
0000
,
0000
0000
0000
0000
0000
0000
0000
0000
2000
3000
0000
0000
0000
0000
0000
0000
0000
0000
0000
0000
0000
0000
0000
0000
0002
0003
0000
0000
0000
0000
0000
0000
0000
0000
0000
0000
0000
0000
0000
0000
0000
0000
0000
0000
0000
0000
0000
0000
0010
0000
0000
0000
0000
0000
0000
0000
1000
0000
0000
0000
0000
0000
0000
0000
,
0000
0010
0001
0100
0010
0000
0100
1000
,
0000
0100
0001
0010
0100
0000
1000
0010
,
0000
0100
1000
0100
0001
0010
0100
2000
,
3000
0001
0001
0202
0303
1000
1000
0010
,
0100
1000
0100
0001
0010
0100
0010
0001
,
0100
0001
1000
0010
0100
0001
0100
0102
,
0000
1003
0010
1000
0100
1000
0001
0100
,
0000
0010
1000
0002
0003
0100
0001
0020
,
0000
0030
1001
0000
1100
0001
1000
0100
,
1000
0001
0100
0001
1000
0010
0100
0000
,
0001
0010
1000
0010
0000
0001
0100
0020
,
0000
0000
0000
0130
,
0001
1000
0100
0010
0001
1000
0010
0001
,
0020
0030
0000
0000
0000
0000
0000
0000
0000
0000
0000
0000
0000
0000
0000
0000
0000
0000
0000
0000
0000
0000
0000
0000
2000
3000
0000
0000
0000
0000
0000
0000
0000
0000
0000
0000
0000
0000
0000
0000
0000
0000
0000
0000
0000
0000
0000
0000
0100
0000
0000
0000
0000
0000
0000
0000
0220
0330
0000
0000
0000
0000
0000
0000
,
0000
0000
0000
0000
0000
0000
0000
0000
1000
0000
0000
0000
0000
0000
0000
0000
0010
0000
0000
0000
0000
0000
0000
0000
0002
0003
0000
0000
0000
0000
0000
0000
0000
0000
0000
0000
0000
0000
0000
0000
1000
0000
0000
0000
0000
0000
0000
0000
0100
0000
0000
0000
0000
0000
0000
0000
0002
0003
0000
0000
0000
0000
0000
0000
,
0000
0000
0000
0000
0000
0000
0000
0000
0010
0000
0000
0000
0000
0000
0000
0000
0100
0000
0000
0000
0000
0000
0000
0000
2000
3000
0000
0000
0000
0000
0000
0000
0000
0000
0000
0000
0000
0000
0000
0000
0010
0000
0000
0000
0000
0000
0000
0000
0100
0000
0000
0000
0000
0000
0000
0000
0002
0003
0000
0000
0000
0000
0000
0000
,
0000
0100
0001
1000
0010
0100
0001
0100
,
0010
1000
0100
0010
0100
1000
2000
0000
,
3000
0001
0100
0000
1010
0000
0100
1001
;

//---------------dance-single - ----------------
#NOTES:
     dance-single:
     :
     Challenge:
     11:
     1.000,1.000,1.000,0.490,0.128,477.000,220.000,44.000,0.000,8.000:
0000
0000
0000
0000
,
1100
0101
1010
0011
,
1000
0010
0100
0001
0000
0110
1001
0000
,
0011
1000
0110
0001
1001
0100
0110
0001
,
1001
0000
0010
0000
0110
0000
1000
0000
0101
0000
0010
1000
0101
0000
0010
0000
,
1001
0100
1010
0001
0101
1000
0110
0001
,
1001
0000
0100
0000
0010
0000
0110
0000
0010
1000
0001
0100
1001
0000
0000
0000
,
1010
0010
0011
0010
1010
0100
0011
1000
,
1010
0001
0110
0001
1010
0011
1100
0010
,
1100
0100
0101
0100
1100
0010
0101
1000
,
1001
0000
0001
0000
1001
0000
0110
0000
0100
0000
0110
0000
1010
0000
0100
0100
,
1001
0001
0101
0001
1010
0100
1001
0100
,
1010
0100
1001
0100
0011
1100
1010
0100
,
1010
1000
1001
1000
1100
0010
0202
0303
,
1001
0001
1001
0110
0010
0110
1001
0200
,
0001
0010
0001
1000
0010
0001
1000
0310
,
1001
1001
0100
1000
0100
0010
0100
1000
,
1001
0000
1001
0000
0100
0000
0001
0100
0001
0000
0100
0000
0020
0000
0030
0000
,
1001
1001
0100
1000
0100
0010
0100
1000
,
1001
1001
0100
0001
0100
0010
2020
3030
,
0101
0000
0101
0000
1000
0000
0010
0001
0010
0000
1000
0000
0010
0000
0100
0000
,
1010
1010
0001
0100
1000
0100
0020
0030
,
0101
0000
0101
0000
1000
0000
0010
0000
1000
0000
0100
0000
0010
0010
0100
0000
,
1001
0000
0011
0000
0000
0000
0101
0000
0000
0000
1100
0000
1010
0000
0100
0001
,
0010
1000
0101
1000
0010
1000
0101
1000
,
0001
0100
1010
0100
0001
0100
1010
0100
,
1001
1000
1010
1000
1001
1000
1010
0100
,
0101
0001
1001
0100
1010
1000
1001
0010
,
0101
0001
0101
1000
1100
0010
0101
1000
,
0011
0000
0010
0000
0110
0000
0010
0000
1100
0000
0100
0000
0110
0000
0100
0001
,
1010
1000
0101
0001
1001
0100
0110
1002
,
0100
0000
0010
0000
1000
0000
0010
0003
0100
0001
1000
0100
0010
1000
0100
0000
,
0011
0011
1001
0000
0101
0101
1001
0000
,
1010
1010
1001
0101
0010
1100
0022
0033
,
2001
0100
0011
3100
1002
1100
1010
0103
,
1001
0000
0000
0000
0100
0000
2012
0000
0000
3003
0110
0000
0110
0000
0000
0000
,
1100
0000
1001
0000
1100
0001
1000
0010
,
1000
0001
0100
0001
1000
0010
0110
0000
,
0001
1100
0011
1100
0011
1100
0011
1100
,
0220
0000
0000
0330
0001
0000
1001
0000
0000
0000
1100
0000
1010
0000
0101
0000
,
0000
0000
0011
0000
0101
0000
1010
0000
0000
0000
0100
0001
1000
0010
0100
0001
,
0010
1000
0100
1000
0001
0100
0010
1000
,
0001
0000
0010
0000
0100
0000
1000
0000
0012
0003
0200
0300
1002
0003
0200
0300
,
1010
0100
1001
0100
0101
0010
0110
1001
,
0000
0000
1001
0000
0000
0000
1001
0000
0200
0300
0021
0030
1200
0300
0020
0030
,
1001
0100
1100
0100
1100
0011
0201
0310
,
1001
0100
0101
0100
0101
1010
1200
0302
,
1000
0010
0100
0113
1001
0010
1100
1010
,
0100
0000
0011
0000
1000
0000
1010
0000
0100
0000
0110
0000
1001
0000
0010
0100
,
0001
0010
0001
0100
1000
0010
0100
0001
,
1000
0000
0100
0000
0010
0000
0001
0000
2100
3000
0020
0030
2001
3000
0020
0030
,
0101
0010
1001
0010
1010
0100
0110
1001
,
0000
0110
1000
1001
0000
0110
0001
1001
,
0100
0000
0000
0000
2020
0000
0000
3030
0001
0000
0100
0000
1010
0000
0100
0000
,
0001
0010
1001
0100
0011
1000
0110
0000
,
1010
1010
1001
1001
0000
0101
0101
2002
,
0000
0000
0000
3113
,
1000
1000
0010
0010
0100
0100
0001
0001
2000
3000
0002
0003
0200
0300
0020
0030
,
0110
0000
0000
0110
0000
0001
0110
1010
,
0100
0001
1100
1010
0100
0010
1001
0011
,
0100
0000
1010
0000
1010
0000
1100
0000
0001
0010
0001
0100
0001
0010
2002
0000
,
3003
1000
0011
1000
0110
1000
0011
0100
,
1001
0010
1001
0210
0000
0011
0311
0000
,
0000
0110
1001
0000
1001
0000
1001
2002
,
0000
3003
0000
0000
;

//---------------dance-single - ----------------
#NOTES:
     dance-single:
     :
     Medium:
     7:
     0.535,0.536,0.234,0.178,0.000,299.000,21.000,16.000,0.000,0.000:
0000
0000
0000
0000
,
2000
3000
0000
0000
0000
0000
0000
0000
0000
0000
0000
0000
0000
0000
0000
0000
0002
0003
0000
0000
0000
0000
0000
0000
0000
0000
0000
0000
0000
0000
0000
0000
0200
0300
0000
0000
0000
0000
0000
0000
0000
0000
0000
0000
0000
0000
0000
0000
0020
0030
0000
0000
0000
0000
0000
0000
0000
0000
0000
0000
0000
0000
0000
0000
,
1000
0000
0000
0000
0000
0000
0000
0000
0001
0000
0000
0000
0000
0000
0000
0000
0100
0000
0000
0000
0000
0000
0000
0000
0010
0000
0000
0000
0000
0000
0000
0000
0000
0000
0000
0000
0000
0000
0000
0000
2000
3000
0000
0000
0000
0000
0000
0000
2000
3000
0000
0000
0000
0000
0000
0000
0000
0000
0000
0000
0000
0000
0000
0000
,
0001
0000
1000
0100
1000
0010
0100
0000
,
0001
0010
0001
0010
0001
0010
0100
0000
,
1000
0000
0001
0010
0001
0100
0010
0000
,
1000
0100
1000
0100
0010
0100
1000
0001
,
0100
0100
0010
1000
,
0001
0100
0001
0000
1000
0100
1000
0000
,
0010
0010
0100
0001
,
1100
0000
0000
0101
0000
0000
1001
0000
,
0110
0010
1000
0001
,
1000
0100
1000
0000
0001
0100
0001
0000
,
0010
0010
0100
1000
,
0101
0000
0000
1100
0000
0000
0001
0020
,
0000
0000
0000
0030
,
0100
0100
0000
0000
0000
0000
0000
0000
,
1000
0001
0000
0000
0000
0000
0000
0000
,
0010
0010
0000
0000
0000
0000
0000
0000
,
0001
1000
0000
0000
0000
0000
1001
0000
,
0100
1000
0000
0000
0000
0000
0000
0000
,
0001
0100
0000
0000
0000
0000
0001
0000
,
0010
0100
0000
0000
0000
1000
0010
0000
,
0100
1001
0000
0100
0000
0010
0000
0000
,
1000
0000
1000
0000
0001
0100
0001
0000
,
1000
0100
0001
0100
1000
0000
0010
0100
,
0001
0000
0001
0000
1000
0100
1000
0000
,
0001
0100
1000
0100
0001
0000
0010
0100
,
1000
1001
0100
1100
,
0001
1001
0100
0010
,
1000
0000
0001
0100
1000
0100
0010
2000
,
0000
3000
0110
1001
,
1000
0000
0101
0000
1000
0001
0100
0000
,
0010
1000
0001
0010
0100
1000
0001
0000
,
2000
0000
3002
0000
,
0103
0000
0001
1000
0000
0100
0100
0010
,
0100
0000
1001
0000
0100
0010
0100
0001
,
0100
0000
1001
0000
0100
1000
0010
0000
,
0100
0001
0100
0001
1000
0100
1000
0100
,
1000
0000
0010
0100
0000
0001
0010
0100
,
0000
1000
0010
0100
0000
0001
1000
0001
,
1001
0001
1000
0010
,
1000
0100
0010
0001
1000
0010
0100
0020
,
0000
0030
1000
0000
0001
0000
0100
0010
,
0000
1000
0000
0002
0000
0000
0003
0100
,
0000
0100
0001
0000
1000
0000
0000
0100
,
0000
0100
1000
0001
0010
0000
0000
0001
,
0000
1000
0100
1000
0001
0100
0001
1000
,
0000
0001
0001
0100
0000
0000
1010
0000
,
0001
0100
0001
1000
,
0001
0010
0100
1000
0001
0100
0010
2000
,
0000
3000
0001
0000
0100
0000
0001
1000
,
0000
0010
0100
0001
0000
0010
0100
1000
,
0000
0000
0002
0000
0000
0003
0000
0000
,
1000
1000
0001
0100
,
0010
1000
0100
1000
0000
0001
0100
0001
,
0000
0000
0000
1001
,
1000
0000
0010
0100
0001
1000
0001
1000
,
0100
0000
0000
1000
0000
0000
0010
0100
,
0000
0001
0010
0001
0000
1000
0010
1000
,
0000
0001
0010
0001
0000
1000
0100
1000
,
0000
0010
0100
0001
0000
0010
0100
1000
,
0000
0001
0100
1000
0000
0100
0002
0000
,
0000
1003
1001
0000
1001
0000
0100
0020
,
0000
0030
0000
0000
0000
0000
0000
0000
;

//---------------dance-single - ----------------
#NOTES:
     dance-single:
     :
     Easy:
     3:
     0.275,0.320,0.033,0.067,0.000,164.000,3.000,6.000,0.000,0.000:
0000
0000
0000
0000
,
0000
0000
0000
0000
,
0000
0000
0000
0000
,
1000
1000
0001
0001
,
0100
0000
1001
0000
,
0001
0001
1000
1000
,
0200
0000
0000
0310
,
0001
0001
1000
1000
,
0010
0100
0010
0000
,
1000
1000
0001
0001
,
0100
0000
0000
0010
,
1000
0001
1000
0001
,
0100
0010
1000
0000
,
0001
1000
0001
1000
,
0100
0000
0000
0010
,
0001
1000
0100
0010
,
0001
0000
0000
0000
,
1000
0000
0000
0000
,
0010
0000
0000
0000
,
1000
0000
0000
0000
,
0100
0000
0000
0000
,
1000
0000
0000
0000
,
0001
0000
0000
0000
,
0100
0000
0010
0100
,
0001
0010
0000
0001
,
0000
1000
0000
0010
,
0000
1000
0000
0100
,
0000
0001
0000
1000
,
0000
0010
0000
0100
,
0000
0001
0000
1000
,
0010
0001
0010
0100
,
0000
0001
1000
0001
,
0000
0001
0000
0001
,
0000
1000
0000
1000
,
0000
0001
0000
0001
,
0100
0010
1000
0000
,
0001
0100
0001
0000
,
1000
0100
1000
0000
,
0010
0100
0001
1000
,
0020
0000
0000
0000
,
0030
0000
0000
0000
,
1000
1000
0001
0001
,
0100
0010
1000
0000
,
0001
0001
1000
1000
,
0100
0010
0001
0000
,
1000
0100
0001
0000
,
1000
0100
0010
0000
,
0001
0100
1000
0100
,
0010
0000
0100
0000
,
0001
0001
1000
1000
,
0001
0100
0001
0000
,
1000
1000
0001
0001
,
0100
0010
1000
0100
,
0020
0000
0000
0030
,
1000
0100
1000
0001
,
0100
0100
0100
0100
,
0000
0000
0000
0000
,
1000
0001
0100
0010
,
2002
0000
0000
3003
,
0100
1000
0100
0010
,
0001
0100
0001
0010
,
0100
1000
0001
0100
,
0010
2000
0000
3000
,
0000
0001
0000
0000
1000
0000
0000
0110
;
