#TITLE:I Say Drink That Shit;
#SUBTITLE:;
#ARTIST:Loffciamcore;
#TITLETRANSLIT:;
#SUBTITLETRANSLIT:;
#ARTISTTRANSLIT:;
#CREDIT:Rynker;
#BANNER:Bn-Drink.png;
#BACKGROUND:Bg-Drink.png;
#LYRICSPATH:;
#CDTITLE:;
#MUSIC:I Say Drink That Shit.ogg;
#OFFSET:-0.044;
#SAMPLESTART:19.642;
#SAMPLELENGTH:12.000;
#SELECTABLE:YES;
#BPMS:0.000=240.000;
#STOPS:;
#BGCHANGES:;
// cache tags:
#FIRSTBEAT:46.000;
#LASTBEAT:410.000;
#SONGFILENAME:Songs/SPEEEDCOOOORE/I Say Drink That Shit - [Aoreo & Rynker]/I Say Drink That Shit.sm;
#HASMUSIC:1;
#HASBANNER:1;
#MUSICLENGTH:103.914;
// end cache tags

//---------------dance-single - J. Nero vs R. Konkul----------------
#NOTES:
     dance-single:
     J. Nero vs R. Konkul:
     Challenge:
     14:
     1.000,1.000,0.443,0.096,0.669,732.000,46.000,10.000,2.000,0.000:

0000
0000
0000
0000
,
0000
0000
0000
0000
,
0000
0000
0000
0000
,
0000
0000
0000
0000
,
0000
0000
0000
0000
,
0000
0000
0000
0000
,
0000
0000
0000
0000
,
0000
0000
0000
0000
,
0000
0000
0000
0000
,
0000
0000
0000
0000
,
0000
0000
0000
0000
,
0000
0000
0000
0000
1001
0000
0001
0100
,
0000
0000
0001
0000
1000
0001
1000
0001
1000
0000
0001
0000
1000
0000
1000
0000
,
0100
0000
0000
0010
0000
0000
0100
0000
0000
0000
0000
0000
0010
0000
0001
0000
0010
0000
0001
0000
0000
0000
0000
0000
0010
0000
0000
0000
0000
0000
0000
0000
0000
0000
0000
0000
0001
0000
0000
0000
0000
0000
0100
0000
0000
0000
0000
0000
,
0000
0000
0010
0000
1000
0100
1000
0100
0010
0000
0001
0010
0001
0000
1000
0000
,
0100
0000
0000
1000
0000
0000
0100
0000
0000
0000
0000
0000
1000
0000
0001
0000
1000
0000
0001
0000
0000
0000
0000
0000
1000
0000
0000
0000
0000
0000
0000
0000
0000
0000
0000
0000
0010
0000
0000
0000
0000
0000
0100
0000
0000
0000
0000
0000
,
0000
0000
0001
0000
0010
0100
0010
0100
1000
0000
0000
0000
0010
0000
0100
0000
,
0000
0000
0001
0000
0100
0001
0100
0000
0001
0000
1000
0000
1100
0000
0100
0000
,
1000
0001
0100
0000
0010
0100
0000
0010
0200
0000
0000
0000
0302
0000
0000
0000
,
0023
0000
0230
0000
1300
0100
1000
0010
,
0100
0001
0010
0100
1000
0001
1000
0010
,
0100
0001
0010
0100
0110
0000
1001
0000
,
0110
0000
1000
0001
0011
0000
1100
0000
,
1001
0000
0000
0000
0001
0100
0001
0100
0010
1000
0010
1000
0010
0000
1000
0000
,
0100
0010
0100
1000
0001
0100
0001
0100
,
0010
0000
1000
0000
0010
0000
0100
0000
0001
0010
0001
0010
0100
1000
0100
1000
,
0001
0000
0000
0000
0000
0000
0000
0000
1010
0000
0010
0000
0400
0000
0301
1000
,
0001
0000
1000
0000
0100
0000
0100
0000
1000
0010
1000
0010
0100
0000
0010
0000
,
1000
0001
0010
0100
0010
0100
1000
0100
,
1000
0000
0000
0000
0000
0000
0001
0000
0000
0100
0000
0000
0001
0000
0000
0000
0000
0000
1000
0000
0001
0000
1000
0000
0001
0000
0000
0000
0000
0000
1000
0000
0000
0000
0000
0000
1010
0000
0000
0000
0000
0000
0000
0000
0000
0000
0000
0000
,
0101
0000
0001
1000
0010
0000
0100
0010
,
0000
0010
0400
0300
0001
1000
0100
1000
,
0010
0100
0001
0100
0010
1000
0100
0010
,
0100
0000
1000
0000
0001
0000
1000
0001
1000
0000
0000
0000
1001
0000
0000
0000
,
0101
0000
0000
0000
0400
0304
0003
4000
,
3000
0000
0000
0000
0000
0000
0000
0000
1001
0000
0001
0000
0100
0000
0010
1000
,
0010
0000
1000
0000
0100
1000
0100
0000
1000
0000
0000
0000
1000
0000
0010
0000
,
0000
0000
0010
0000
0400
0000
0301
1000
0001
0000
0000
0000
1000
0000
0100
0000
,
0000
0100
1000
1100
0000
1001
0001
0101
,
0100
0000
0010
0100
0040
0000
1030
0000
0001
0000
0010
0000
0100
0000
1000
0000
,
0010
0100
0010
0000
0100
0010
0100
0000
0001
0000
0000
0000
0010
0000
0100
0000
,
0000
0000
0100
0000
1000
0001
1000
0000
0001
0000
0000
0000
0100
0000
0000
0000
,
0110
0000
0010
0100
0001
1000
0001
0000
,
1000
0010
0100
0001
0101
0000
0001
0010
,
0000
0000
0010
0000
0100
1000
0100
1000
0001
0000
0100
0000
0010
0000
0010
0000
,
1000
0000
0000
0001
0000
0000
1000
0000
0000
0000
0000
0000
0001
0000
0100
0000
0001
0000
0100
0000
0000
0000
0000
0000
0001
0000
0000
0000
0000
0000
0000
0000
0000
0000
0000
0000
0010
0000
0000
0000
0000
0000
0100
0000
0000
0000
0000
0000
,
0000
0000
0100
0000
1000
0100
1000
0100
0010
0000
0000
0000
0001
0000
0100
0000
,
0010
0100
0010
0100
0001
1000
0001
1000
0100
0000
0000
0000
1000
0000
0010
0000
,
0000
0000
0010
0000
0100
0001
0100
0001
1000
0000
0100
0000
1000
0000
0010
0000
,
0100
0000
0001
0000
1000
0100
1000
0000
0001
0000
0100
0000
0100
0000
0010
0000
,
1000
0100
0100
1000
0002
0000
0203
0000
,
0310
0000
0000
0000
1000
0000
0001
1000
0001
0000
1000
0000
0100
0000
0010
0000
,
0100
1000
0001
0100
0001
0100
0010
1000
,
0100
0000
0010
0000
0001
0000
0100
0000
0101
0000
0001
0000
1000
0001
1000
0001
,
1000
0000
0001
0000
0010
0001
0010
0001
0010
0000
0000
0000
0001
1000
0001
1000
,
0001
0000
1000
1000
0001
0010
0100
0010
,
0001
1000
0010
0100
0010
1000
0001
0100
,
0010
0000
0100
0000
0001
0000
0010
0000
0110
0000
0100
1000
0100
0000
1000
0001
,
1000
0000
0001
0100
0001
0100
0001
0100
0001
0000
0000
0000
0000
0000
0000
0000
,
0100
0000
0010
1000
0010
1000
0100
0000
0010
0001
0010
0000
0001
1000
0001
0000
,
1000
0001
0010
0100
0010
0100
1000
0100
,
1000
0010
0100
0010
1010
0000
0101
0000
,
0011
0010
0001
1000
1010
0000
0110
0000
,
1001
0000
0000
0000
0001
0100
0001
0100
0010
1000
0010
1000
0001
0000
0010
0000
,
0100
1000
0010
0100
0001
1000
0100
0010
,
0100
0000
1000
0001
1000
0000
0001
0100
0001
0000
0100
0000
0110
0000
0000
0000
,
1001
0001
0010
0001
1000
0000
1001
0000
,
1001
0000
0001
0001
0100
0000
0010
1000
,
0000
0000
1000
0000
0100
0010
0100
0010
0001
0000
0100
0000
0010
0000
0010
0000
,
1000
0000
0000
0010
0000
0000
1000
0000
0000
0000
0000
0000
0001
0000
1000
0000
0001
0000
1000
0000
0000
0000
0000
0000
0001
0000
0000
0000
0000
0000
0000
0000
0000
0000
0000
0000
0010
0000
0000
0000
0000
0000
0100
0000
0000
0000
0000
0000
,
0000
0000
0100
0000
1000
0001
1000
0001
0100
0000
0010
0000
0010
0000
1000
0000
,
0001
0000
0000
0001
0000
0000
0100
0001
0100
0001
0000
0000
0100
0000
0000
0000
0000
0000
0001
0000
0000
0100
0000
0000
,
0000
0000
0100
0000
0010
1000
0010
1000
0001
0000
0010
0000
0100
0000
1000
0000
,
0010
0000
0100
0000
0001
0010
0001
0000
0100
0000
0000
0000
0010
0000
1000
0000
,
0000
1000
0100
0100
0020
0000
0032
0000
,
2003
0000
0000
0000
3MM0
0000
0000
0000
0001
0010
0001
0010
0100
1000
0100
1000
,
0010
1000
0010
0100
0001
0100
0010
1000
0010
0000
0000
0000
1000
0000
0100
0000
,
0000
0000
0100
0000
0040
0000
0031
1000
0001
0000
0000
0000
1000
0000
0010
0000
,
0000
0010
0100
0001
0010
0100
0010
0001
,
1000
0010
0100
0001
1000
0000
0001
0001
,
0010
0001
0010
0000
0001
1000
0001
0000
4000
0000
3040
0000
0130
0000
0010
0000
,
0000
0000
0010
0000
1000
0100
1000
0100
0010
0000
0000
0000
0001
0000
0000
0000
,
1001
0000
1000
0010
0100
0000
0000
0000
,
0010
0000
0100
0000
0010
0000
0100
0000
0001
1000
0001
1000
0001
0000
1000
0000
,
0100
0010
0100
1000
0001
1000
0001
0100
,
0010
0000
1000
0010
1000
0000
0001
1000
0001
0000
0010
0000
0110
0000
0000
0000
,
1001
0000
0001
0000
0100
0000
0001
0000
1000
0001
1000
0001
1000
0001
1000
0001
,
1000
0000
0001
0001
0100
0010
1000
0100
,
0010
0100
1000
0001
0100
0010
0100
0001
,
4000
3004
0043
0430
1301
0000
1010
0000
,
0101
0000
0000
0000
0110
0000
0101
0001
,
0000
0100
0001
0000
0001
1000
0100
0010
,
0100
1000
0001
0100
0010
0100
0001
1000
,
0010
0000
0100
0000
0001
1000
0001
1000
0001
0000
0010
0000
0110
0000
0100
0000
,
1000
0010
1000
0010
0100
0001
0100
0001
1000
0000
0100
0000
0100
0000
0010
0000
,
0001
0000
1000
0001
4000
0000
3000
0000
0001
1000
0001
1000
0001
0000
1000
0000
,
0100
0010
0100
1000
0001
0100
0010
1000
,
0100
0000
0010
0000
0001
1000
0001
0000
1000
0010
1000
0010
0100
0001
0100
0001
,
1000
0000
0000
0000
1001
0000
1000
0010
,
0000
0000
0010
0000
1000
0001
1000
0000
0001
0010
0001
0010
0100
1000
0100
1000
,
0001
1000
0001
0100
0001
0100
0010
0100
0010
1000
0001
0010
0100
1000
0001
0010
,
0100
1000
0001
1000
0010
0100
0001
1000
0002
0000
0000
0000
0000
0000
0000
0000
,
0000
0000
0003
0000
;
