#TITLE:Crying In The Rain;
#SUBTITLE:;
#ARTIST:DJ THT & Nordic Stars feat. Nightcore;
#TITLETRANSLIT:;
#SUBTITLETRANSLIT:;
#ARTISTTRANSLIT:;
#CREDIT:owenviau1;
#BANNER:../owenviau1 Simfiles 5-bn.png;
#BACKGROUND:../owenviau1 Simfiles 5-bg.png;
#LYRICSPATH:;
#CDTITLE:../ov1_title.png;
#MUSIC:Nightcore - Crying In The Rain.mp3;
#OFFSET:-0.279;
#SAMPLESTART:58.404;
#SAMPLELENGTH:29.999;
#SELECTABLE:YES;
#DISPLAYBPM:172.800;
#BPMS:0.000=172.794,1.000=172.817,2.000=172.794,3.000=172.817,4.000=172.794,5.000=172.817,6.000=172.794,7.000=172.817,8.000=172.794,9.000=172.817,10.000=172.794,11.000=172.817,12.000=172.794,13.000=172.817,14.000=172.794,15.000=172.817,16.000=172.794,17.000=172.817,18.000=172.794,19.000=172.817,20.000=172.794,21.000=172.817,22.000=172.794,23.000=172.817,24.000=172.794,25.000=172.817,26.000=172.794,27.000=172.817,28.000=172.794,29.000=172.817,30.000=172.794,31.000=172.817,32.000=172.794,33.000=172.806,34.000=172.794,35.000=172.806,36.000=172.794,37.000=172.806,38.000=172.794,39.000=172.806,40.000=172.794,41.000=172.806,42.000=172.794,43.000=172.806,44.000=172.794,45.000=172.806,46.000=172.794,47.000=172.806,48.000=172.794,49.000=172.806,50.000=172.794,51.000=172.806,52.000=172.794,53.000=172.806,54.000=172.794,55.000=172.806,56.000=172.794,57.000=172.806,58.000=172.794,59.000=172.806,60.000=172.794,61.000=172.806,62.000=172.794,63.000=172.806,64.000=172.794,65.000=172.806,66.000=172.794,67.000=172.806,68.000=172.794,69.000=172.806,70.000=172.794,71.000=172.806,72.000=172.794,73.000=172.806,74.000=172.794,75.000=172.806,76.000=172.794,77.000=172.806,78.000=172.794,79.000=172.806,80.000=172.794,81.000=172.806,82.000=172.794,83.000=172.806,84.000=172.794,85.000=172.806,86.000=172.794,87.000=172.806,88.000=172.794,89.000=172.806,90.000=172.794,91.000=172.806,92.000=172.794,93.000=172.806,94.000=172.794,95.000=172.806,96.000=172.794,97.000=172.806,98.000=172.794,99.000=172.806,100.000=172.794,101.000=172.806,102.000=172.794,103.000=172.806,104.000=172.794,105.000=172.806,106.000=172.794,107.000=172.806,108.000=172.794,109.000=172.806,110.000=172.794,111.000=172.806,112.000=172.794,113.000=172.806,114.000=172.794,115.000=172.806,116.000=172.794,117.000=172.806,118.000=172.794,119.000=172.806,120.000=172.794,121.000=172.806,122.000=172.794,123.000=172.806,124.000=172.794,125.000=172.806,126.000=172.794,127.000=172.806,128.000=172.794,129.000=172.806,130.000=172.794,131.000=172.806,132.000=172.794,133.000=172.806,134.000=172.794,135.000=172.806,136.000=172.794,137.000=172.806,138.000=172.794,139.000=172.806,140.000=172.794,141.000=172.806,142.000=172.794,143.000=172.806,144.000=172.794,145.000=172.806,146.000=172.794,147.000=172.806,148.000=172.794,149.000=172.806,150.000=172.794,151.000=172.806,152.000=172.794,153.000=172.806,154.000=172.794,155.000=172.806,156.000=172.794,157.000=172.806,158.000=172.794,159.000=172.806,160.000=172.794,161.000=172.806,162.000=172.794,163.000=172.806,164.000=172.794,165.000=172.806,166.000=172.794,167.000=172.806,168.000=172.794,169.000=172.806,170.000=172.794,171.000=172.806,172.000=172.794,173.000=172.806,174.000=172.794,175.000=172.806,176.000=172.794,177.000=172.806,178.000=172.794,179.000=172.806,180.000=172.794,181.000=172.806,182.000=172.794,183.000=172.806,184.000=172.794,185.000=172.806,186.000=172.794,187.000=172.806,188.000=172.794,189.000=172.806,190.000=172.794,191.000=172.806,192.000=172.794,193.000=172.806,194.000=172.794,195.000=172.806,196.000=172.794,197.000=172.806,198.000=172.794,199.000=172.806,200.000=172.794,201.000=172.806,202.000=172.794,203.000=172.806,204.000=172.794,205.000=172.806,206.000=172.794,207.000=172.806,208.000=172.794,209.000=172.806,210.000=172.794,211.000=172.806,212.000=172.794,213.000=172.806,214.000=172.794,215.000=172.806,216.000=172.794,217.000=172.806,218.000=172.794,219.000=172.806,220.000=172.794,221.000=172.806,222.000=172.794,223.000=172.806,224.000=172.794,225.000=172.806,226.000=172.794,227.000=172.806,228.000=172.794,229.000=172.806,230.000=172.794,231.000=172.806,232.000=172.794,233.000=172.806,234.000=172.794,235.000=172.806,236.000=172.794,237.000=172.806,238.000=172.794,239.000=172.806,240.000=172.794,241.000=172.806,242.000=172.794,243.000=172.806,244.000=172.794,245.000=172.806,246.000=172.794,247.000=172.806,248.000=172.794,249.000=172.806,250.000=172.794,251.000=172.806,252.000=172.794,253.000=172.806,254.000=172.794,255.000=172.806,256.000=172.794,257.000=172.806,258.000=172.794,259.000=172.806,260.000=172.794,261.000=172.806,262.000=172.794,263.000=172.806,264.000=172.794,265.000=172.806,266.000=172.794,267.000=172.806,268.000=172.794,269.000=172.806,270.000=172.794,271.000=172.806,272.000=172.794,273.000=172.806,274.000=172.794,275.000=172.806,276.000=172.794,277.000=172.806,278.000=172.794,279.000=172.806,280.000=172.794,281.000=172.806,282.000=172.794,283.000=172.806,284.000=172.794,285.000=172.806,286.000=172.794,287.000=172.806,288.000=172.794,289.000=172.806,290.000=172.794,291.000=172.806,292.000=172.794,293.000=172.806,294.000=172.794,295.000=172.806,296.000=172.794,297.000=172.806,298.000=172.794,299.000=172.806,300.000=172.794,301.000=172.806,302.000=172.794,303.000=172.806,304.000=172.794,305.000=172.806,306.000=172.794,307.000=172.806,308.000=172.794,309.000=172.806,310.000=172.794,311.000=172.806,312.000=172.794,313.000=172.806,314.000=172.794,315.000=172.806,316.000=172.794,317.000=172.806,318.000=172.794,319.000=172.806,320.000=172.794,321.000=172.806,322.000=172.794,323.000=172.806,324.000=172.794,325.000=172.806,326.000=172.794,327.000=172.806,328.000=172.794,329.000=172.806,330.000=172.794,331.000=172.806,332.000=172.794,333.000=172.806,334.000=172.794,335.000=172.806,336.000=172.794,337.000=172.806,338.000=172.794,339.000=172.806,340.000=172.794,341.000=172.806,342.000=172.794,343.000=172.806,344.000=172.794,345.000=172.806,346.000=172.794,347.000=172.806,348.000=172.794,349.000=172.806,350.000=172.794,351.000=172.806,352.000=172.794,353.000=172.806,354.000=172.794,355.000=172.806,356.000=172.794,357.000=172.806,358.000=172.794,359.000=172.806,360.000=172.794,361.000=172.806,362.000=172.794,363.000=172.806,364.000=172.794,365.000=172.806,366.000=172.794,367.000=172.806,368.000=172.794,369.000=172.806,370.000=172.794,371.000=172.806,372.000=172.794,373.000=172.806,374.000=172.794,375.000=172.806,376.000=172.794,377.000=172.806,378.000=172.794,379.000=172.806,380.000=172.794,381.000=172.806,382.000=172.794,383.000=172.806,384.000=172.794,385.000=172.806,386.000=172.794,387.000=172.806,388.000=172.794,389.000=172.806,390.000=172.794,391.000=172.806,392.000=172.794,393.000=172.806,394.000=172.794,395.000=172.806,396.000=172.794,397.000=172.806,398.000=172.794,399.000=172.806,400.000=172.794,401.000=172.806,402.000=172.794,403.000=172.806,404.000=172.794,405.000=172.806,406.000=172.794,407.000=172.806,408.000=172.794,409.000=172.806,410.000=172.794,411.000=172.806,412.000=172.794,413.000=172.806,414.000=172.794,415.000=172.806,416.000=172.794,417.000=172.806,418.000=172.794,419.000=172.806,420.000=172.794,421.000=172.806,422.000=172.794,423.000=172.806,424.000=172.794,425.000=172.806,426.000=172.794,427.000=172.806,428.000=172.794,429.000=172.806,430.000=172.794,431.000=172.806,432.000=172.794,433.000=172.806,434.000=172.794,435.000=172.806,436.000=172.794,437.000=172.806,438.000=172.794,439.000=172.806,440.000=172.794,441.000=172.806,442.000=172.794,443.000=172.806,444.000=172.794,445.000=172.806,446.000=172.794,447.000=172.806,448.000=172.794,449.000=172.806,450.000=172.794,451.000=172.806,452.000=172.794,453.000=172.806,454.000=172.794,455.000=172.806,456.000=172.794,457.000=172.806,458.000=172.794,459.000=172.806,460.000=172.794,461.000=172.806,462.000=172.794,463.000=172.806,464.000=172.794,465.000=172.806,466.000=172.794,467.000=172.806,468.000=172.794,469.000=172.806;
#STOPS:;
#BGCHANGES:;
// cache tags:
#FIRSTBEAT:36.000;
#LASTBEAT:458.000;
#SONGFILENAME:Songs/owenviau1 Simfiles 5/Crying In the Rain - [owenviau1] v1.3/Crying In The Rain.sm;
#HASMUSIC:1;
#HASBANNER:1;
#MUSICLENGTH:163.813;
// end cache tags

//---------------dance-single - ----------------
#NOTES:
     dance-single:
     :
     Hard:
     8:
     0.710,0.629,0.165,0.214,0.003,752.000,27.000,35.000,3.000,3.000:
0000
0000
0000
0000
,
0000
0000
0000
0000
,
0000
0000
0000
0000
,
0000
0000
0000
0000
,
0000
0000
0000
0000
,
0000
0000
0000
0000
,
0000
0000
0000
0000
,
0000
0000
0000
0000
,
0000
0000
0000
0000
,
2MMM
0000
3002
0023
0000
0230
0000
2300
,
0000
3020
0000
0230
0000
0302
0000
0000
,
0203
0000
0320
2030
0000
3200
0000
0320
,
0000
0000
0000
0030
0002
0000
0023
2030
,
3101
0110
1100
1001
,
0110
0000
0101
0000
1001
0000
1100
0010
,
0001
1000
0010
0100
0001
1000
0100
0010
,
0002
0000
0000
0000
,
1003
0001
1000
0010
0100
0001
0010
0001
,
0100
0010
1000
0100
0010
0001
0100
0010
,
1000
0001
1000
0001
0100
0010
0100
0001
,
0010
0001
1000
0001
0100
0010
1000
0001
,
0100
0010
0100
0001
0010
0100
1000
0010
,
1000
0001
0100
0010
1000
0001
0100
0001
,
0010
0001
0100
0010
1000
0100
1000
0010
,
0100
0001
1000
0010
0100
0001
0010
0100
,
1001
0100
0010
0001
0010
0100
1000
0010
,
0100
0001
1000
0001
0010
0100
1000
0010
,
0100
0001
0010
0001
1000
0001
0100
0010
,
0100
0001
0010
0100
1000
0010
1000
0100
,
0010
0001
0100
0001
1000
0010
0100
0010
,
1000
0100
0010
0001
0100
0001
0010
0100
,
1000
0010
0100
0001
1000
0001
0100
0010
,
1000
0100
1000
0010
0100
0001
0010
0100
,
1001
0010
0100
1000
0010
0100
0001
1000
,
0001
0100
0010
1000
0100
0010
0001
0100
,
0001
0010
0100
1000
0010
0100
0001
0010
,
0001
1000
0010
0100
0001
0010
0100
1000
,
0010
1000
0001
0010
0100
1000
0010
0100
,
0001
0010
0001
1000
0010
0100
0001
0010
,
0100
1000
0010
0100
0001
0010
0001
1000
,
0010
0100
0001
0010
0001
0100
0010
1000
,
1001
0100
0010
0001
1000
0001
0100
0010
,
0100
0001
0010
0100
1000
0010
1000
0100
,
0010
0001
1000
0001
0100
0010
1000
0100
,
1000
0001
0010
0100
1000
0010
0100
0001
,
0010
0001
1000
0001
0100
0010
1000
0100
,
0010
0001
0100
0001
0010
0100
1000
0010
,
1000
0100
0010
0001
0100
0001
0010
0100
,
1000
0010
0100
0001
1000
0100
0010
0001
,
0101
1000
0010
1000
0100
0010
0001
0100
,
0001
0010
0100
1000
0010
1000
0001
1000
,
0010
0100
0001
0010
0001
1000
0010
0100
,
0001
1000
0100
0010
0001
0100
0010
1000
,
0100
0010
0001
0100
0001
1000
0100
1000
,
0010
0100
0001
0010
0001
1000
0010
1000
,
0001
0100
0010
1000
0100
1000
0010
0100
,
0002
0000
0000
0000
,
0113
0001
1000
0100
0010
0001
0100
0010
,
0100
0001
1000
0100
0010
0001
0100
0010
,
0100
0001
1000
0100
0010
0100
1000
0010
,
0100
0001
1000
0100
0010
0001
0100
0010
,
1001
1000
0001
0100
1000
0001
0010
0001
,
1000
0010
0100
0001
1000
0100
0010
0001
,
0100
0010
1000
0100
1000
0001
0100
0010
,
2000
0000
0000
0000
0000
0000
0000
3001
,
0020
0000
2030
3002
0000
0203
0000
2300
,
0000
3020
0000
0230
0000
0302
0000
0000
,
0203
0000
0320
2030
0000
3002
0000
0203
,
0000
0000
0000
0300
0010
0000
0000
0000
,
1001
0110
1100
1001
,
0110
0000
0101
0000
1001
0000
1100
0100
,
0010
0001
0100
0001
1000
0100
0010
0001
,
0200
0000
0000
0000
,
1301
0001
1000
0010
0100
0001
0010
0001
,
0100
0010
1000
0100
0010
0001
0100
0010
,
1000
0001
0100
0001
1000
0010
0100
0001
,
0010
0001
1000
0001
0100
0010
1000
0001
,
0100
0010
0100
0001
0010
0100
1000
0010
,
1000
0001
0100
0010
1000
0001
0100
0001
,
0010
0001
0100
0010
1000
0100
1000
0010
,
0100
0001
1000
0010
0100
0001
0010
1000
,
1001
0001
0100
0001
0010
0100
1000
0010
,
0100
0001
1000
0001
0010
0100
1000
0010
,
0100
0001
0010
0001
1000
0001
0100
0010
,
0100
0001
0010
0100
1000
0010
1000
0100
,
0010
0001
0100
0001
1000
0010
0100
0010
,
1000
0100
0010
0001
0100
0001
0010
0100
,
1000
0010
0100
0001
1000
0001
0100
0010
,
1000
0100
1000
0010
0100
0001
0010
0100
,
1001
0010
0100
1000
0010
0100
0001
1000
,
0001
0100
0010
1000
0100
0010
0001
0100
,
0001
0010
0100
1000
0010
0100
0001
0010
,
0001
1000
0010
0100
0001
0010
0100
1000
,
0010
1000
0001
0010
0100
1000
0010
0100
,
0001
0010
0001
1000
0010
0100
0001
0010
,
0100
1000
0010
0100
0001
0010
0001
1000
,
0010
0100
0001
0010
0001
0100
0010
1000
,
1001
0100
0010
0001
1000
0001
0100
0010
,
0100
0001
0010
0100
1000
0010
1000
0100
,
0010
0001
1000
0001
0100
0010
1000
0100
,
1000
0001
0010
0100
1000
0010
0100
0001
,
0010
0001
1000
0001
0100
0010
1000
0100
,
0010
0001
0100
0001
0010
0100
1000
0010
,
1000
0100
0010
0001
0100
0001
0010
0100
,
1000
0010
0100
0001
1000
0100
0010
0001
,
0101
1000
0010
1000
0100
0010
0001
0100
,
0001
0010
0100
1000
0010
1000
0001
1000
,
0010
0100
0001
0010
0001
1000
0010
0100
,
0001
1000
0100
0010
0001
0100
0010
1000
,
0100
0010
0001
0100
0001
1000
0100
1000
,
0010
0100
0001
0010
0001
1000
0010
1000
,
0001
0100
0010
1000
0100
1000
0010
0100
,
0002
0000
0000
0000
0000
0000
0000
0000
0000
0000
0000
0000
0000
0000
0000
1003
,
0002
0000
0000
0000
,
0000
0000
0003
0000
,
0000
0000
0000
0000
,
0000
0000
0000
0000
,
0000
0000
0000
0000
;

//---------------dance-single - ----------------
#NOTES:
     dance-single:
     :
     Challenge:
     11:
     1.000,1.000,1.000,0.208,0.290,856.000,386.000,34.000,0.000,2.000:
0000
0000
0000
0000
,
0000
0000
0000
0000
,
0000
0000
0000
0000
,
0000
0000
0000
0000
,
0000
0000
0000
0000
,
0000
0000
0000
0000
,
0000
0000
0000
0000
,
0000
0000
0000
0000
,
0000
0000
0000
0000
,
2001
0000
3002
0023
0000
0230
0000
2300
,
0000
3020
0000
0230
0000
0302
0000
0000
,
0203
0000
0320
2030
0000
3200
0000
0020
,
0000
0000
0000
0330
1002
0000
0023
2030
,
3101
0110
1100
1001
,
0110
0000
0000
0000
0101
0000
0000
0000
1001
0000
0000
0000
1100
0000
0010
1000
,
0101
0000
0000
0010
0000
0000
0100
0000
0000
1000
0000
0000
0001
0000
0000
0100
0000
0000
0001
0000
0000
1000
0000
0000
0010
0000
0000
1000
0000
0000
0100
0000
0000
0010
0000
0000
0001
0000
0000
0100
0000
0000
0010
0000
1000
0000
0001
0000
,
2000
0000
0000
0000
0000
0000
0000
0000
0000
0000
0000
0000
0000
0000
3100
0010
,
1001
1000
0110
1000
0101
0010
1100
0001
,
0110
0100
1001
1000
0110
1000
0011
0001
,
1100
0001
0110
0100
1001
0100
0011
1000
,
0110
0001
1010
0001
1100
0001
0011
0100
,
1001
0010
0110
1000
0101
0010
1100
0010
,
0101
0010
1001
0001
0110
0001
1010
0001
,
1100
1000
0011
1000
0110
0001
1010
0010
,
0101
1000
0011
0010
1100
0001
0110
0100
,
1001
0010
0101
1000
0011
0100
1100
0010
,
1001
1000
0110
0010
0101
1000
0011
0100
,
1001
0010
1100
0001
1010
0001
0110
1000
,
0011
0000
0001
0000
1100
0000
0001
0000
0110
0000
1000
0000
0101
0000
1000
0010
,
1001
0000
0100
0000
0011
0000
0100
0000
1001
0000
1000
0000
0110
0000
1000
0010
,
0101
0000
0010
0000
1100
0000
0001
0000
0110
0000
0001
0000
1010
0000
0100
0001
,
0110
0000
0000
1000
0000
0000
0001
0000
0000
1000
0000
0000
0010
0000
0000
0100
0000
0000
0001
0000
0000
1000
0000
0000
0010
0000
0000
1000
0000
0000
0100
0000
0000
0010
0000
0000
0001
0000
0000
0100
0000
0000
0010
0000
1000
0000
0001
0000
,
0010
0100
0010
0100
0010
1000
0010
1000
0001
0100
0001
0100
0001
0010
0100
1000
,
0101
1000
0110
0001
1100
0010
0101
0010
,
1100
0000
0110
0000
0011
0000
1000
0000
0101
0000
0010
0000
1000
0100
0010
0001
,
1010
0100
0011
0010
1100
0001
0110
0100
,
1001
0000
1010
0000
0110
0000
0101
0000
1001
0000
0100
0000
0010
0100
0001
1000
,
0101
0010
1100
0001
0110
1000
0011
1000
,
0101
0000
0110
0000
1010
0000
0100
0000
1001
0000
0010
0000
0001
0100
0010
1000
,
0101
0010
1100
0001
0110
0100
1001
0010
,
1100
0000
0101
0000
0110
0000
1010
0000
1001
0000
0010
0100
1000
0001
0100
0010
,
1001
1000
0110
0001
1100
0010
0101
0010
,
1100
0000
0110
0000
0011
0000
1000
0000
0101
0000
0010
0000
1000
0100
0010
0001
,
1010
0100
0011
0010
1100
0001
0110
0100
,
1001
0000
1010
0000
0110
0000
0101
0000
1001
0000
0100
0000
0010
0100
0001
1000
,
0101
0010
1100
0001
0110
1000
0011
1000
,
0101
0000
0110
0000
1010
0000
0100
0000
1001
0000
0010
0000
0001
0100
0010
1000
,
0101
0010
1100
0001
0110
0100
1001
0010
,
1100
0000
0101
0000
0110
0000
1010
0000
1001
0000
0010
0000
1000
0001
0100
0010
,
1001
1000
0110
0001
1100
0010
0101
0010
,
1001
0000
0110
0000
1010
0000
1000
0000
0101
0000
0010
0000
0001
1000
0010
0100
,
1001
0100
0011
0010
1100
0001
0110
0100
,
1001
0000
1010
0000
0110
0000
0101
0000
1001
0000
0100
0000
0010
0100
0001
1000
,
0101
0010
1100
0001
0110
1000
0011
1000
,
0101
0000
0110
0000
1010
0000
0100
0000
1001
0000
0010
0000
0001
0100
0010
1000
,
0101
0010
1100
0001
0110
0100
1001
0010
,
1100
0101
0110
1010
1001
0100
1010
0010
,
1001
0001
0110
1000
0101
0010
1100
0001
,
0110
0100
1001
1000
0110
1000
0011
0001
,
1100
0001
0110
0100
1001
0100
0011
1000
,
0110
0000
0001
0000
1010
0000
0001
0000
1100
0000
0001
0000
0011
0000
0100
0010
,
1001
0010
0110
1000
0101
0010
1100
0010
,
0101
0010
1001
0001
0110
0001
1010
0001
,
1100
1000
0011
1000
0110
0001
1010
0010
,
0102
0000
1000
0100
0010
0000
1000
0100
,
2013
0000
3002
0023
0000
0230
0000
2300
,
0000
3020
0000
0230
0000
0302
0000
0000
,
0203
0000
0320
2030
0000
3002
0000
0200
,
0000
0000
0000
0000
0000
0000
0303
0000
1000
0000
0000
0000
0000
0000
0010
0100
,
1001
0110
1100
1001
,
0110
0000
0000
0000
0101
0000
0000
0000
1001
0000
0000
0000
1100
0000
0010
1000
,
0101
0000
0000
0010
0000
0000
0100
0000
0000
1000
0000
0000
0001
0000
0000
0100
0000
0000
0001
0000
0000
1000
0000
0000
0010
0000
0000
1000
0000
0000
0100
0000
0000
0010
0000
0000
0001
0000
0000
0100
0000
0000
0010
0000
1000
0000
0001
0000
,
2000
0000
0000
0000
0000
0000
0000
0000
0000
0000
0000
0000
0000
0000
3100
0010
,
1001
0001
0110
1000
0101
0010
1100
0001
,
0110
0100
1001
1000
0110
1000
0011
0001
,
1100
0001
0110
0100
1001
0100
0011
1000
,
0110
0001
1010
0001
1100
0001
0011
0100
,
1001
0010
0110
1000
0101
0010
1100
0010
,
0101
0010
1001
0001
0110
0001
1010
0001
,
1100
1000
0011
1000
0110
0001
1010
0010
,
0101
0000
1000
0000
0011
0000
0010
0000
1100
0000
0001
0000
0110
0000
1000
0010
,
1001
0010
0101
1000
0011
0100
1100
0010
,
1001
1000
0110
0010
0101
1000
0011
0100
,
1001
0010
1100
0001
1010
0001
0110
1000
,
0011
0000
1100
0000
0110
0000
0101
0000
1001
0000
0010
0000
1000
0001
0100
0010
,
1001
1010
1100
0101
,
1001
1010
0110
0101
,
1010
0110
0101
1001
1010
0110
0011
0110
,
1001
0000
1010
0000
0110
0000
0101
0000
1001
0000
0000
0000
0100
0010
0001
1000
,
0101
1000
0110
0001
1100
0010
0101
0010
,
1100
0000
0110
0000
0011
0000
1000
0000
0101
0000
0010
0000
1000
0100
0010
0001
,
1010
0100
0011
0010
1100
0001
0110
0100
,
1001
0000
1010
0000
0110
0000
0101
0000
1001
0000
0100
0000
0010
0100
0001
1000
,
0101
0010
1100
0001
0110
1000
0011
1000
,
0101
0000
0110
0000
1010
0000
0100
0000
1001
0000
0010
0000
0001
0100
0010
1000
,
0101
0010
1100
0001
0110
0100
1001
0010
,
1100
0000
0101
0000
0110
0000
1010
0000
1001
0000
0010
0000
1000
0001
0100
0010
,
1001
1000
0110
0001
1100
0010
0101
0010
,
1100
0000
0110
0000
0011
0000
1000
0000
0101
0000
0010
0000
1000
0100
0010
0001
,
1010
0100
0011
0010
1100
0001
0110
0100
,
1001
0000
1010
0000
0110
0000
0101
0000
1001
0000
0100
0000
0010
0100
0001
1000
,
0101
0010
1100
0001
0110
1000
0011
1000
,
0101
0000
0110
0000
1010
0000
0100
0000
1001
0000
0010
0000
0001
0100
0010
1000
,
0101
0010
1100
0001
0110
0100
1001
0010
,
1100
0000
0101
0000
0110
0000
1010
0000
1001
0000
0010
0000
1000
0001
0100
0010
,
1001
1000
0110
0001
1100
0010
0101
0010
,
1001
0000
0110
0000
1010
0000
1100
0000
0101
0000
0010
0000
0001
1000
0010
0100
,
1001
0100
0011
0010
1100
0001
0110
0100
,
1001
0000
1010
0000
0110
0000
0101
0000
1001
0000
0100
0000
0010
0100
0001
1000
,
0101
0010
1100
0001
0110
1000
0011
1000
,
0101
0000
0110
0000
1010
0000
0100
0000
1001
0000
0010
0000
0001
0100
0010
1000
,
0101
1010
1100
0011
0110
0100
1001
0010
,
1100
0000
0101
0000
0110
0000
1010
0000
1001
0000
0100
0000
0000
0000
0000
0010
,
2002
0000
0000
0000
,
0000
0000
3003
0000
,
0000
0000
0000
0000
,
0000
0000
0000
0000
,
0000
0000
0000
0000
;
