#TITLE:Doukutsu Dance;
#SUBTITLE:;
#ARTIST:Vaughn;
#TITLETRANSLIT:;
#SUBTITLETRANSLIT:;
#ARTISTTRANSLIT:;
#CREDIT:;
#BANNER:doukutsu dance bn.PNG;
#BACKGROUND:doukutsu dance bg.PNG;
#LYRICSPATH:;
#CDTITLE:;
#MUSIC:Doukutsu Dance.ogg;
#OFFSET:-0.035;
#SAMPLESTART:33.170;
#SAMPLELENGTH:12.000;
#SELECTABLE:YES;
#DISPLAYBPM:145.000;
#BPMS:0.000=145.000,319.750=15.000;
#STOPS:;
#BGCHANGES:;
// cache tags:
#FIRSTBEAT:16.000;
#LASTBEAT:320.000;
#SONGFILENAME:Songs/SSSC Pack 2/Doukutsu Dance (J-Wan) - [Helvitica]/Doukutsu Dance.sm;
#HASMUSIC:1;
#HASBANNER:1;
#MUSICLENGTH:133.740;
// end cache tags

//---------------dance-single - ----------------
#NOTES:
     dance-single:
     :
     Challenge:
     11:
     0.937,0.987,0.396,0.950,0.860,696.000,53.000,127.000,86.000,0.000:

0000
0000
0000
0000
,
0000
0000
0000
0000
,
0000
0000
0000
0000
,
0000
0000
0000
0000
,
2000
0000
3002
0000
2003
0000
3002
0000
2003
0000
3002
0000
1003
0000
1000
0001
,
0200
0000
0320
0000
0230
0000
0320
0000
0230
0000
0320
0000
0130
0000
0100
0001
,
2000
0000
3020
0000
2030
0000
3020
0000
2030
0000
3020
0000
1030
0000
1000
0001
,
1000
0010
1000
0001
0010
0001
1000
0010
1000
0001
0010
0001
2000
0000
3020
0000
,
0130
0001
0100
0001
0010
0100
1000
0001
,
0100
0000
0000
0000
0M00
0000
0000
0000
0200
0000
0000
0310
1000
0000
0010
0000
,
00M0
1000
0100
1000
0001
0010
0100
1000
,
0010
0000
10M0
0000
10M0
0000
1000
0100
1000
0001
1000
0000
1000
0000
1000
0010
,
0100
0001
0100
0001
0010
0001
1000
0010
,
0100
0000
0M00
0000
0000
0000
0000
0000
0001
0200
0000
0301
0010
0000
0001
0000
,
0100
0000
0M00
0000
0000
0000
0000
0000
0100
0000
0001
1000
0100
0020
0000
0000
,
0031
0000
000M
0000
0000
0000
0000
0000
1000
0010
1000
0010
0100
0001
0100
0001
,
1000
0001
0010
0000
0010
0000
0001
1000
0010
0000
0010
0000
1000
0001
0100
0001
,
0010
0001
0100
0000
0100
0000
0010
1000
0100
0000
0100
0000
0010
0001
0010
0001
,
0100
0001
1000
0000
1000
0000
0100
1000
0001
0000
0001
0000
0001
0100
0001
0010
,
0001
1000
0001
0000
0001
0000
0001
1000
0100
0010
0001
0000
1000
0000
1000
0010
,
1000
0100
0010
0000
0010
0000
0001
0100
0010
0000
0010
0000
0100
0001
1000
0001
,
0010
0001
0100
0000
0100
0000
0010
1000
0100
0000
0100
0000
0010
0100
0010
0001
,
1000
0010
1000
0001
0100
0000
0010
1000
0010
0100
0001
0000
0020
0000
0200
0330
,
1000
0100
1000
0100
1000
0010
0100
0010
1000
0100
0010
0001
1000
0100
0010
0001
,
0200
0000
0301
1000
020M
0000
1300
0001
M200
0000
0301
1000
020M
0000
0320
0000
,
0M32
0000
2003
0000
3020
000M
0000
M000
0000
0000
2030
0000
30M2
0000
0023
0000
,
0230
0000
0000
1300
0200
M000
0000
1300
0200
0000
0320
0000
0230
0000
M302
0000
,
0203
000M
0000
0000
0000
0300
0020
0M32
,
20M3
0000
0000
3001
2000
000M
0000
3001
2000
000M
0000
3001
2000
000M
3020
0000
,
2030
0000
32M0
0000
M320
0000
0M00
0000
0000
0000
0031
1000
001M
0000
1000
0001
,
0200
000M
0000
0000
0000
0000
0000
0000
0000
0000
0000
0000
0000
0000
0000
0000
,
0000
0000
0000
0000
0000
0000
2300
3200
,
0302
0000
M000
0013
0M02
00M0
0000
0013
0002
00M0
0203
0000
032M
0000
2M30
0000
,
32M0
0000
M320
0000
0M32
0000
00M0
0000
0000
0000
1003
0010
M20M
0000
0302
0000
,
0M23
0000
0000
1030
0020
M000
0000
1030
0020
0000
1030
0010
0100
1000
0001
0100
,
0001
0010
0002
0000
0000
0000
0000
0000
0000
0000
0000
0000
0203
0000
0302
0000
,
2M03
0000
000M
3100
2000
0M00
0000
3100
2000
0M00
0000
3100
2000
0M00
3002
0000
,
0203
0000
032M
0000
2M30
0000
00M0
0000
3000
0000
0100
0010
0M02
0000
1003
0001
,
0200
000M
0000
0000
0000
0000
0000
0000
0000
0000
0000
0000
0000
0000
0000
0000
,
0000
0000
0000
0000
0000
0000
0000
0000
0320
0000
0000
0000
2000
0000
0000
3030
,
0020
0000
2030
0000
3200
0000
0320
0000
0230
0000
0320
0000
0230
0000
1300
0001
,
0200
0000
0320
0000
0230
0000
0320
0000
0230
0000
0320
0000
0230
0000
0310
1000
,
0002
0000
0023
0000
0032
0000
0023
0000
0032
0000
0023
0000
0032
0000
0013
0001
,
1000
0010
0100
0001
0010
0100
1000
0010
0100
1000
0100
0010
1000
0100
1000
0001
,
0100
0000
0010
0000
1001
0000
100M
0000
0100
0000
0010
0000
1001
0000
100M
0010
,
0100
0000
0010
0000
1010
0000
M010
0000
0100
0000
0001
0000
1010
0000
10M0
0001
,
0100
0000
0001
0000
0011
0000
00M1
0000
1000
0000
0100
0000
0011
0000
00M1
1000
,
0010
0100
0001
0010
0100
1000
0010
0100
0001
0010
0100
1000
0020
M000
0000
0000
,
2000
0000
3030
0002
0023
0032
2003
3000
,
0010
1000
0010
0100
0001
0010
0001
1000
0100
0010
0100
1000
0001
0100
0010
1000
,
0002
M000
0000
0000
0000
0000
0000
0000
0020
0000
0000
0030
0200
0000
0303
0000
,
2100
0000
0M00
0000
0000
0000
3000
0000
0001
0010
0001
1000
0200
0000
0020
0330
,
0001
1000
0001
0010
0100
0000
1M00
0001
1000
0010
0100
0000
0M10
1000
0010
0100
,
0001
1000
0100
0010
0001
1000
0000
1000
0100
1000
0001
0100
0010
1000
0010
0100
,
0001
0010
0001
1000
0100
0000
1000
0001
1000
0010
1000
0001
0200
0000
0301
0000
,
002M
0000
0000
0000
0000
0000
0000
0000
0200
0000
0000
0300
0002
0000
0033
0000
,
1000
0010
0100
0001
1000
0010
0100
0001
1000
0010
0100
0001
0010
0100
0010
0100
,
1000
0001
0010
0100
1000
0001
0010
0100
1000
0001
0010
0100
1000
0010
1000
0001
,
0100
0000
0010
0000
1000
0000
0100
0000
0010
0000
0001
0000
0000
0000
0001
0000
4000
0040
0000
0000
0000
0000
0000
0000
0000
0000
0000
0000
3030
0000
0000
0000
,
0002
0000
0000
0000
0000
0000
0003
0000
0010
0001
0010
0001
1000
0010
0100
0001
,
0000
000M
0100
0000
1000
0000
0100
0000
0010
0000
1000
0000
0100
0000
0010
0000
,
0001
0000
000M
0000
0000
0000
0000
0000
1000
0002
0000
1003
0010
0000
1000
0000
,
0100
0000
0M00
0000
0000
0000
0000
0000
0100
0000
0001
0100
0010
0002
0000
0000
,
1003
0000
M000
0000
0000
0000
0000
0000
1000
0010
1000
0001
0100
0001
0100
0010
,
1000
0000
M000
0000
1001
0000
0000
1001
0000
0000
1100
0000
1001
0000
0101
0000
,
1001
0000
M00M
0000
1001
0000
0000
1001
0000
0000
1100
0000
1001
0000
0101
0000
,
1010
0000
M0M0
0000
1010
0000
0000
1010
0000
0000
1001
0000
1010
0000
0101
0000
,
1001
0000
M0M0
0000
1001
0000
0000
1001
0000
0000
1100
0000
1001
0000
0101
0000
,
0011
0000
01MM
0000
0011
0000
0001
0011
0000
0000
1001
0000
0011
0000
1100
0000
,
0011
0000
01MM
0000
0011
0000
0001
0011
0000
0000
1001
0000
0011
0000
1100
0000
,
1001
0000
M01M
0000
1001
0000
0001
1001
0000
0000
1010
0000
1001
0000
0101
0000
,
1010
0000
M1M0
0000
1010
0000
0010
1010
0000
0000
0010
0000
1001
0000
0001
1000
,
0001
0100
0010
0000
0010
0000
1000
0100
0010
0100
1000
0100
0010
0100
1000
0001
,
0010
0001
1000
0000
1000
0000
0010
1000
0001
0100
0001
1000
0001
0010
0001
1000
,
0010
0100
0010
1000
0010
0000
0100
0001
0100
0010
0100
0000
0100
0001
0100
0010
,
1000
0001
1000
0000
1000
0000
1000
0001
1000
0100
0010
0000
0010
0000
0010
0100
,
1000
0001
0010
0000
0010
0000
0001
1000
0010
0000
0010
0000
0100
0001
1000
0001
,
0010
0100
1000
0000
1000
0000
0010
0100
0001
0000
0001
0000
1000
0001
1000
0010
,
1000
0001
0010
0100
1000
0000
0001
0010
0001
0010
0100
0000
2000
0000
0020
3030
,
0100
0010
0100
0001
1000
0010
0100
0010
1000
0100
0010
0001
1000
0001
0100
0010
,
MMMM
0000
0000
0000
;
