#TITLE:Red;
#SUBTITLE:;
#ARTIST:モリモリあつし;
#TITLETRANSLIT:;
#SUBTITLETRANSLIT:;
#ARTISTTRANSLIT:;
#CREDIT:;
#BANNER:RedBN.png;
#BACKGROUND:Red.png;
#LYRICSPATH:;
#CDTITLE:../CDTitleRP.png;
#MUSIC:Red.ogg;
#OFFSET:-0.762;
#SAMPLESTART:80.376;
#SAMPLELENGTH:17.885;
#SELECTABLE:YES;
#BPMS:0.000=207.986,1.000=208.035,2.000=208.035,3.000=208.035,4.000=208.035,5.000=208.035,6.000=208.035,7.000=207.986,8.000=208.019,9.000=208.019,10.000=208.019,11.000=208.019,12.000=208.019,13.000=207.986,14.000=208.019,15.000=208.019,16.000=208.019,17.000=208.019,18.000=208.019,19.000=207.986,20.000=208.019,21.000=208.019,22.000=208.019,23.000=208.019,24.000=208.019,25.000=208.019,26.000=207.986,27.000=208.019,28.000=208.019,29.000=208.019,30.000=208.019,31.000=208.019,32.000=207.986,33.000=208.019,34.000=208.019,35.000=208.019,36.000=208.019,37.000=208.019,38.000=208.003,39.000=207.986,40.000=208.003,41.000=208.003,42.000=208.003,43.000=208.003,44.000=208.003,45.000=208.003,46.000=208.003,47.000=207.986,48.000=208.003,49.000=208.003,50.000=208.003,51.000=208.003,52.000=208.003,53.000=208.003,54.000=208.003,55.000=207.986,56.000=208.003,57.000=208.003,58.000=208.003,59.000=208.003,60.000=208.003,61.000=208.003,62.000=208.003,63.000=207.986,64.000=208.003,65.000=208.003,66.000=208.003,67.000=208.003,68.000=104.001,69.000=104.001,70.000=104.001,71.000=103.997,72.000=104.001,73.000=104.001,74.000=103.997,75.000=104.001,76.000=104.001,77.000=103.997,78.000=104.001,79.000=104.001,80.000=103.997,81.000=104.001,82.000=104.001,83.000=103.997,84.000=104.001,85.000=104.001,86.000=104.001,87.000=103.997,88.000=104.001,89.000=104.001,90.000=103.997,91.000=104.001,92.000=104.001,93.000=103.997,94.000=104.001,95.000=104.001,96.000=103.997,97.000=104.001,98.000=104.001,99.000=104.001,100.000=208.003,101.000=208.003,102.000=208.003,103.000=208.003,104.000=208.003,105.000=208.003,106.000=207.986,107.000=208.003,108.000=208.003,109.000=208.003,110.000=208.003,111.000=208.003,112.000=207.986,113.000=208.003,114.000=208.003,115.000=208.003,116.000=208.003,117.000=208.003,118.000=208.003,119.000=207.986,120.000=208.003,121.000=208.003,122.000=208.003,123.000=208.003,124.000=208.003,125.000=207.986,126.000=208.003,127.000=208.003,128.000=208.003,129.000=208.003,130.000=208.003,131.000=207.986,132.000=208.003,133.000=208.003,134.000=208.003,135.000=208.003,136.000=208.003,137.000=208.003,138.000=207.986,139.000=208.003,140.000=208.003,141.000=208.003,142.000=208.003,143.000=208.003,144.000=207.986,145.000=208.003,146.000=208.003,147.000=208.003,148.000=208.003,149.000=208.003,150.000=207.986,151.000=208.003,152.000=208.003,153.000=208.003,154.000=208.003,155.000=208.003,156.000=208.003,157.000=207.986,158.000=208.003,159.000=208.003,160.000=208.003,161.000=208.003,162.000=208.003,163.000=207.986,164.000=208.003,165.000=208.003,166.000=208.003,167.000=208.003,168.000=208.003,169.000=208.003,170.000=207.986,171.000=208.003,172.000=208.003,173.000=208.003,174.000=208.003,175.000=208.003,176.000=207.986,177.000=208.003,178.000=208.003,179.000=208.003,180.000=104.001,181.000=104.001,182.000=103.997,183.000=104.001,184.000=104.001,185.000=104.001,186.000=103.997,187.000=104.001,188.000=104.001,189.000=103.997,190.000=104.001,191.000=104.001,192.000=103.997,193.000=104.001,194.000=104.001,195.000=103.997,196.000=208.003,197.000=208.003,198.000=208.003,199.000=208.003,200.000=208.003,201.000=207.986,202.000=208.003,203.000=208.003,204.000=208.003,205.000=208.003,206.000=208.003,207.000=208.003,208.000=207.986,209.000=208.003,210.000=208.003,211.000=208.003,212.000=208.003,213.000=208.003,214.000=207.986,215.000=208.003,216.000=208.003,217.000=208.003,218.000=208.003,219.000=208.003,220.000=208.003,221.000=207.986,222.000=208.003,223.000=208.003,224.000=208.003,225.000=208.003,226.000=208.003,227.000=207.986,228.000=104.001,229.000=104.001,230.000=103.997,231.000=104.001,232.000=104.001,233.000=104.001,234.000=103.997,235.000=104.001,236.000=104.001,237.000=103.997,238.000=104.001,239.000=104.001,240.000=103.997,241.000=104.001,242.000=104.001,243.000=103.997,244.000=104.001,245.000=104.001,246.000=104.001,247.000=103.997,248.000=104.001,249.000=104.001,250.000=103.997,251.000=104.001,252.000=104.001,253.000=103.997,254.000=104.001,255.000=104.001,256.000=103.997,257.000=104.001,258.000=104.001,259.000=103.997,260.000=208.003,261.000=208.003,262.000=208.003,263.000=208.003,264.000=207.986,265.000=208.003,266.000=208.003,267.000=208.003,268.000=208.003,269.000=208.003,270.000=208.003,271.000=207.986,272.000=208.003,273.000=208.003,274.000=208.003,275.000=208.003,276.000=208.003,277.000=207.986,278.000=208.003,279.000=208.003,280.000=208.003,281.000=208.003,282.000=208.003,283.000=208.003,284.000=207.986,285.000=208.003,286.000=208.003,287.000=208.003,288.000=208.003,289.000=208.003,290.000=207.986,291.000=208.003,292.000=208.003,293.000=208.003,294.000=208.003,295.000=208.003,296.000=208.003,297.000=208.003,298.000=208.003,299.000=208.003,300.000=208.003,301.000=208.003,302.000=208.003,303.000=208.003,304.000=208.003,305.000=208.003,306.000=208.003,307.000=208.003,308.000=208.003,309.000=208.003,310.000=208.003,311.000=208.003,312.000=208.003,313.000=208.003,314.000=208.003,315.000=208.003,316.000=208.003,317.000=208.003,318.000=208.003,319.000=208.003,320.000=208.003,321.000=208.003,322.000=208.003,323.000=208.003,324.000=208.003,325.000=208.003,326.000=208.003,327.000=208.003,328.000=208.003,329.000=208.003,330.000=208.003,331.000=208.003,332.000=208.003;
#STOPS:;
#BGCHANGES:;
// cache tags:
#FIRSTBEAT:0.000;
#LASTBEAT:331.021;
#SONGFILENAME:Songs/Index Fusion/Red - [rparty]/Red.sm;
#HASMUSIC:1;
#HASBANNER:1;
#MUSICLENGTH:119.861;
// end cache tags

//---------------dance-single - ----------------
#NOTES:
     dance-single:
     :
     Challenge:
     15:
     1.000,1.000,1.000,0.484,0.743,776.000,288.000,58.000,1.000,32.000:
1000
0000
0000
0000
1000
0000
0100
0000
0010
0000
0000
0000
0002
0000
0000
0000
1003
0000
0100
0000
0010
0000
0001
0000
1000
0100
0010
0001
1000
0100
0010
0001
,
1000
0001
1100
0001
1010
0101
1010
0001
,
0110
1001
0110
1100
0011
1100
0101
0010
,
1100
0011
1100
1001
0110
1001
0011
1000
,
0101
0110
1010
0011
1100
0011
1100
0001
,
1001
0010
1100
0001
1100
0101
1010
0010
,
1001
0011
1100
1010
0011
1100
1001
0010
,
1010
0011
1100
0101
1001
0110
1001
0010
,
0011
0000
1100
0000
0011
0000
1100
0000
0002
0023
0032
0003
2000
3000
0000
0000
,
1001
0000
2000
3000
0101
0000
2000
3000
0110
0000
2001
3000
1100
0000
2000
3000
,
0101
0000
2010
3000
0110
0000
2001
3000
0011
0000
2100
3000
0011
0000
2000
3000
,
1001
0000
2100
3000
0101
0000
2010
3000
0110
0000
2001
3000
0110
0000
2000
3000
,
1001
0000
2010
3000
1100
0000
2001
3000
0002
0023
0032
0003
2000
3000
0000
0000
,
1100
0000
2000
3000
1001
0000
2000
3000
0011
0000
2100
3000
0110
0000
2000
3000
,
0011
0000
2100
3000
1010
0000
2001
3000
0011
0000
2100
3000
1001
0000
2000
3000
,
0011
0000
2100
3000
0011
0000
2001
3000
1100
0000
2001
3000
1010
0000
2000
3000
,
0001
0010
0100
1000
0100
0010
0001
1000
0010
0100
0001
1000
0020
0030
0000
0000
,
1021
0000
0000
0000
2030
0000
3010
0100
0101
0000
0010
0000
0200
0000
1300
0100
,
1100
0000
0010
0000
0002
0000
1003
0010
0110
0000
0100
0000
0020
0000
1030
0001
,
1001
0000
0100
0000
0020
0000
0031
0100
0110
0000
1000
0000
0002
0000
0103
0001
,
0101
0000
1000
0000
2010
0000
3001
0010
1010
0000
0001
0000
1002
0000
0103
0001
,
1100
0000
0001
0000
2001
0000
3010
0100
0101
0000
1100
0000
1002
0000
0013
0100
,
0101
0000
0010
0000
2100
0000
3001
1000
1010
0000
0101
0000
2010
0000
3001
0010
,
0110
0000
0100
0000
1200
0000
0301
0010
0011
0000
1001
0000
0210
0000
0301
0100
,
0101
0000
1000
0000
0210
0000
0301
0100
0110
0000
1010
0000
2001
0000
3001
0100
,
1011
0000
0000
0100
0000
0000
0010
0000
0000
0001
0000
0000
1000
0000
0000
1000
0100
0010
0001
0000
0000
1000
0000
0000
,
1011
0000
0000
0010
0000
0000
0100
0000
0000
1000
0000
0000
0001
0000
0000
0100
0010
1000
0001
0000
0000
0100
0000
0000
,
1011
0000
0000
0100
0000
0000
0010
0000
0000
0001
0000
0000
1000
0000
0000
0001
0010
0100
1000
0000
0000
0001
0000
0000
,
1110
0000
0000
0000
0111
0000
0100
0000
1110
0000
0001
0000
1000
0001
1000
0001
,
1000
0000
0000
0001
0000
0000
1100
0000
0000
0010
0000
0000
1001
0000
0000
1000
0100
0010
0001
0000
0000
0100
0000
0000
,
1010
0100
0011
1000
0011
0100
1001
0010
,
1100
0000
0000
0001
0000
0000
1010
0000
0000
0100
0000
0000
0011
0000
0000
1000
0010
0100
0001
0000
0000
1000
0000
0000
,
0011
0100
1010
0001
0110
1000
1001
0000
,
1100
0000
0000
0001
0000
0000
1010
0000
0000
0100
0000
0000
0011
0000
0000
1000
0001
0100
0010
0000
0000
1000
0000
0000
,
0011
0100
1001
0010
1100
0010
0101
1000
,
0110
0000
0000
0001
0000
0000
1100
0000
0000
0010
0000
0000
1001
0000
0000
0010
0100
0001
1000
0000
0000
0001
0000
0000
,
1101
0000
0000
0000
1101
0000
0010
0000
1011
0000
0001
0000
1000
0001
1000
0001
,
1000
0000
0000
0001
0000
0000
0110
0000
0000
1000
0000
0000
0011
0000
0000
0100
1000
0001
0100
0000
0000
0010
0000
0000
,
1001
0001
0110
1000
0101
0010
1001
0010
,
1100
0000
0000
0000
0001
0010
0001
0010
0100
0000
0000
0000
1000
0100
1000
0100
,
0011
0000
0000
1100
0000
0000
1010
0000
1001
0000
0000
0000
1001
0000
0000
0000
,
1001
0000
0000
0010
0000
0000
1100
0000
0000
0001
0000
0000
1010
0000
0000
0100
0010
1000
0001
0000
0000
1000
0000
0000
,
0011
0100
1001
0010
0101
1000
0110
0001
,
1010
0000
0000
0001
0000
0000
1100
0000
0000
0001
0000
0000
0110
0000
0000
1000
0001
0100
0010
0000
0000
1000
0000
0000
,
1011
0000
1101
0100
1011
0010
1001
1001
,
1011
0000
0001
0000
1100
0000
0010
0001
0101
0000
0010
0000
1100
0000
0001
1000
,
1010
0100
0010
0001
1100
0000
0010
0001
1001
0000
0100
0000
0010
0000
0001
1000
,
1100
0000
0010
1000
0001
0000
0100
0010
1010
0000
0001
1000
0101
0000
0010
1000
,
1100
0000
0000
0000
0010
0000
0000
0000
0011
0000
0000
0000
0100
0000
1000
0000
1011
0000
0000
0000
1101
0000
0100
0000
1011
0000
0001
0000
1000
0100
0010
0001
,
1000
0000
0000
0001
0000
0000
1010
0000
0000
0100
0000
0000
0011
0000
0000
1000
0100
0010
0001
0000
0000
1000
0000
0000
,
1010
0000
0001
0000
0110
0000
1000
0000
0011
0000
0100
0000
1001
0010
0100
1000
,
0001
0000
0000
1100
0000
0000
0100
0010
0100
0000
0000
0011
0000
0000
1000
0010
,
1000
0000
0000
0101
0000
0000
0100
0010
0100
0000
0000
0000
0001
0010
0100
1000
,
0001
0000
0000
0100
0000
0000
0010
0000
0000
1000
0000
0000
0100
0000
0000
0010
0001
0100
0010
0000
0000
1000
0000
0000
,
0001
0010
0100
0010
0001
1000
0100
0010
,
0001
1000
0010
0100
0001
0010
0100
1000
0100
0010
0001
1000
0001
0100
0010
1000
,
0001
0000
1011
0100
1101
0010
0000
0000
,
1001
0000
0000
0000
0110
0000
0000
1000
1100
0000
0010
0000
0001
0000
0000
0010
,
0110
0000
0000
0000
1100
0000
0000
0001
0101
0000
1000
0000
0001
0000
0000
0100
,
0110
0000
0000
0000
1001
0000
0000
1000
1100
0000
0010
0000
0001
0000
0000
0100
,
0101
0000
0000
0000
0000
0000
0001
0000
1000
0000
0000
0000
0010
0000
1000
0000
1001
0000
0000
0000
0010
0000
0100
0000
1000
0000
0000
0000
0001
0010
0100
1000
,
0001
1000
0100
1000
0010
0010
0100
0001
0100
0010
1000
0001
0100
0010
1000
0001
,
0010
0000
0100
0000
1000
0000
0100
0000
0010
0000
0001
0000
0010
0000
0100
0000
1000
0000
0001
0000
0100
0000
0010
0000
1000
0000
0100
0000
0010
0001
0100
0010
,
1000
0000
0000
0001
0000
0000
0100
0000
0000
0001
0000
0000
1000
0000
0000
1000
0000
0000
0001
0000
0000
0100
0000
0000
0010
0000
0000
1000
0000
0000
0010
0000
0000
0100
0000
0000
0001
0000
0000
1000
0000
0000
0100
0010
1000
0001
0100
0010
,
1000
0100
0010
0001
1000
0010
0100
0001
1000
0100
1000
0001
0010
0100
1000
0001
1000
0010
0100
0001
1000
0100
0010
0001
2000
0000
0000
0000
3002
0000
0203
0000
,
1310
0100
0011
0100
1001
0110
1001
0010
,
1100
0011
1100
0101
1010
0101
1010
0001
,
1100
0011
0101
1010
1100
0110
0011
1000
,
0101
1010
1100
0101
1100
1010
0011
0000
,
1001
0010
1001
0100
1100
0011
1100
0010
,
1001
0110
1100
0101
1010
0011
1100
0001
,
1010
1100
0011
0101
1001
1010
1000
1000
,
1001
0000
0000
0000
1011
0000
1000
0000
1110
0000
0001
0000
1000
0001
1000
0001
,
0100
0010
1100
0001
1010
0001
0110
1000
,
0101
0010
1100
0001
0110
1000
0101
1000
,
1001
0000
0000
0000
1000
0100
0010
0001
1000
0000
0000
0000
0001
0010
0100
1000
,
1111
1111
1111
1111
1111
1111
1111
0000
0000
1011
0000
0000
,
1101
1100
0011
0101
,
1010
0000
1001
0000
0011
0010
0100
0100
,
1000
0000
0000
0001
0010
0100
1000
0000
0000
0010
0100
0001
1000
0000
0000
0100
0001
1000
0010
0000
0000
0010
0000
0000
,
0110
0000
1000
1000
0001
0001
0000
0000
,
2112
0000
0000
0000
,
0000
0000
0000
0000
0000
0000
0000
0000
0000
0000
0000
0000
0000
0000
0000
0000
0000
0000
0000
0000
0000
0000
0000
0000
0000
0000
0000
0000
0000
0000
0000
0000
0000
0000
0000
0000
0000
0000
0000
0000
0000
0000
0000
0000
0000
0000
0000
0000
0000
0000
0000
0000
0000
0000
0000
0000
0000
0000
0000
0000
0000
0000
0000
0000
0000
0000
0000
0000
0000
0000
0000
0000
0000
0000
0000
0000
0000
0000
0000
0000
0000
0000
0000
0000
0000
0000
0000
0000
0000
0000
0000
0000
0000
0000
0000
0000
0000
0000
0000
0000
0000
0000
0000
0000
0000
0000
0000
0000
0000
0000
0000
0000
0000
0000
0000
0000
0000
0000
0000
0000
3003
0000
0000
0000
0000
0000
0000
0000
0000
0000
0000
0000
0000
0000
0000
0000
0000
0000
0000
0000
0000
0000
0000
0000
0001
000M
0000
0000
0000
0000
0000
0000
0000
0000
0000
0000
0000
0000
0000
0000
0000
0000
0000
0000
0000
0000
0000
0000
0000
0000
0000
0000
0000
0000
0000
0000
0000
0000
0000
0000
0000
0000
0000
0000
0000
0000
0000
0000
0000
0000
0000
0000
,
0000
0000
0000
0000
;
