#TITLE:Sonata Claro de Luna;
#SUBTITLE:(Piano Sonata No.14, Op.27, No.2 'Moonlight', 3rd mov.);
#ARTIST:Beethoven;
#TITLETRANSLIT:;
#SUBTITLETRANSLIT:;
#ARTISTTRANSLIT:;
#CREDIT:;
#BANNER:sonata-bn.png;
#BACKGROUND:sonata-bg.png;
#LYRICSPATH:;
#CDTITLE:!hayden-cdtitle.png;
#MUSIC:Sonata Claro de Luna Mov3.mp3;
#OFFSET:-0.174;
#SAMPLESTART:0.160;
#SAMPLELENGTH:15.000;
#SELECTABLE:YES;
#BPMS:0.000=175.940,376.000=120.000,385.500=90.000,387.000=60.000,387.500=45.000,388.250=22.500,389.000=30.000,390.000=175.941;
#STOPS:;
#BGCHANGES:;
// cache tags:
#FIRSTBEAT:0.000;
#LASTBEAT:430.000;
#SONGFILENAME:Songs/Keys of Flames/Sonata Claro De Luna (Hayden)/Sonata Claro de Luna Mov3.sm;
#HASMUSIC:1;
#HASBANNER:1;
#MUSICLENGTH:155.799;
// end cache tags

//---------------dance-single - ----------------
#NOTES:
     dance-single:
     :
     Hard:
     12:
     1.000,1.000,1.000,0.006,1.000,1125.000,185.000,1.000,0.000,12.000:
1000
0100
0010
0001
1000
0100
0010
0001
1000
0100
0010
0001
1000
0100
0010
0001
,
1000
0100
0010
0001
1000
0100
0010
0001
1000
0100
0010
0001
1100
0000
1100
0000
,
0001
0100
0010
1000
0001
0100
0010
1000
0001
0100
0010
1000
0001
0100
0010
1000
,
0001
0100
0010
1000
0001
0100
0010
1000
0001
0100
0010
1000
0101
0000
0101
0000
,
0001
0010
0100
1000
0001
0010
0100
1000
0001
0010
0100
1000
0001
0010
0100
1000
,
0001
0010
0100
1000
0001
0010
0100
1000
0001
0010
0100
1000
0011
0000
0011
0000
,
1000
0010
0100
0001
1000
0010
0100
0001
1000
1000
0100
0010
0101
0000
0101
0000
,
0001
0100
0010
1000
0001
0100
0010
1000
0001
0001
0010
0100
1010
0000
1010
0000
,
1001
0010
1000
0010
0100
0010
0001
0010
0100
0010
1000
0010
0100
0010
0001
0010
,
0100
0010
1000
0010
0100
0010
0001
0010
0100
0010
1000
0010
0100
0010
0001
0010
,
1001
0100
0001
0100
0010
0100
1000
0100
0010
0100
0001
0100
0010
0100
1000
0100
,
0010
0100
0001
0100
0010
0100
1000
0100
0010
0100
0001
0100
0010
0100
1000
0100
,
1001
0010
0101
0010
1001
0010
0101
0010
1001
0010
0101
0010
1001
0010
0101
0010
,
1001
1002
0000
0000
,
0000
0000
0000
0000
0003
0000
1000
0100
0010
0001
1000
0100
0010
0001
1000
0100
,
0010
0001
1000
0100
0010
0001
1000
0100
0010
0001
1000
0100
0010
0001
1000
1000
,
0100
0010
0101
0000
0101
0000
1000
0010
0100
0001
1000
0010
0100
0001
1000
0010
,
0100
0001
1000
0010
0100
0001
1000
0010
0100
0001
1000
0010
0100
0001
1000
0100
,
0010
0001
1010
0000
1010
0000
0001
0010
0100
1000
0001
0010
0100
1000
0001
0010
,
0100
1000
0001
0010
0100
1000
0001
0100
0010
1000
0100
0010
0001
1000
0100
0010
,
0001
1000
0100
0010
0001
1000
0010
0000
0000
0000
0001
0000
0000
0000
0000
0000
,
0000
0000
0000
0000
0000
0000
1000
0000
0000
0000
0000
0000
0000
0000
0000
0001
0000
0000
0100
0010
0100
0010
0000
0000
0000
0000
0000
0000
0000
0000
0100
0000
0000
0000
0000
0000
0000
0000
0000
0000
0000
0000
0000
0000
0000
0000
0000
0000
,
0001
0000
1000
0000
0000
0100
0010
0000
0000
0000
1000
0000
0000
0000
0000
0000
,
0001
0000
0100
0000
0000
0100
0010
0000
0000
0000
1000
0000
0000
0000
0000
0000
,
0001
0000
0010
0000
0000
0100
0010
0000
1000
0000
0000
0000
1000
0000
0000
0000
,
1000
0100
0010
0001
0010
0000
0010
0000
,
0010
0100
0010
1000
0100
0000
0100
0000
,
0100
0010
0100
0001
0010
0000
0010
0000
,
0010
0100
0010
1000
0000
0000
0000
0010
,
0000
0000
0000
0000
0000
0000
0000
0000
0000
0000
0000
0000
0000
0000
0000
0000
0000
0000
0001
0000
0010
0000
0100
0000
1000
0000
0000
0010
0000
0000
1001
0000
0000
0000
0000
0000
0000
0000
0000
0000
0000
0000
0000
0000
0000
0000
0000
0000
,
0000
0000
0000
0100
0000
0000
0000
0001
,
0000
0000
0000
0000
0000
0000
0000
0000
0000
0000
0000
0000
0000
0000
0000
0000
0000
0000
1000
0000
0100
0000
0010
0000
0001
0000
0000
0100
0000
0000
1001
0000
0000
0000
0000
0000
0000
0000
0000
0000
0000
0000
0000
0000
0000
0000
0000
0000
,
0000
0000
0000
0000
0000
0000
1011
0000
0000
0000
0000
0000
0000
0000
0000
0001
,
0010
0100
1000
0100
1000
0100
1010
0001
0010
0100
1000
0100
1000
0100
1010
0001
,
0010
0100
1000
0100
1000
0100
1010
0001
0010
0100
1010
0100
1000
0100
1010
0001
,
0010
0000
0000
0001
0000
0000
1010
0000
0000
0001
0000
0000
0100
0000
0000
0001
0000
0000
1000
0000
0000
0000
0000
0000
0000
0000
0000
0000
0000
0000
0000
0000
0000
0000
0000
0000
1001
0000
0000
0000
0000
0000
0100
0000
0010
0000
0100
0000
,
0010
0000
0100
0000
0010
0000
0100
0000
0010
0000
0100
0000
0001
0000
0000
1000
0000
0000
0110
0000
0000
0000
0000
0000
0000
0000
0000
0000
0000
0000
1011
0000
0000
0000
0000
0000
0000
0000
0000
0000
0000
0000
0000
0000
0000
1000
0000
0000
,
0100
0010
0001
0010
0001
0010
0100
1000
0100
0010
0101
0010
0001
0010
0100
1000
,
0100
0010
0101
0010
0001
0010
0100
1000
0101
0010
0001
0010
0101
0010
0100
1000
,
0101
0010
0001
0010
0101
0010
0101
1000
0101
0010
0001
0010
0001
0010
0100
1000
,
0001
0010
0100
1000
0100
0010
0001
0000
0000
0000
0000
0000
0000
0000
0100
0000
,
0000
0000
0000
0001
0000
0000
0000
1001
,
0000
0000
0000
1100
0110
0110
0110
0110
,
0110
0101
1010
1100
0011
0011
0011
0011
,
0011
1100
0110
0101
1010
1010
1010
1010
,
1010
0101
1100
0011
1001
1001
1001
1001
,
1001
0101
1010
0011
1100
1100
1100
0000
,
0101
0101
0101
0000
0110
0110
0110
0000
,
0011
0011
0011
0110
1010
1010
1010
1010
,
1010
0101
1100
0011
1001
1001
1001
1001
,
1001
0101
1010
0011
1100
1100
1100
1100
,
1100
0011
1001
1010
0101
0101
0101
0101
,
0101
1010
0011
1100
0110
0110
0111
0000
,
0011
0011
1011
0000
1010
1010
1011
0000
,
1001
1001
1011
0000
1100
1100
1101
0000
,
0101
0101
1101
0000
0110
0110
0111
0000
,
0011
0011
1011
0100
0000
0000
0000
0000
,
0000
0000
0000
0000
0000
0000
0100
0000
0000
0000
0000
0000
0000
0000
0000
0001
0000
0000
0100
0010
0100
0010
0000
0000
0000
0000
0000
0000
0000
0000
1001
0000
0000
0000
0000
0000
0000
0000
0000
0000
0000
0000
1001
0000
0000
0000
0000
0000
,
0000
0000
0000
0000
1001
0000
0000
0000
0000
0000
0000
0000
0001
0010
0100
0000
0000
0000
0000
0000
0000
0000
0000
0000
0000
0000
0000
0000
0000
0000
0000
0000
,
0000
0000
0010
0000
0000
0010
0100
0000
0000
0000
1100
0000
0000
0000
1100
0000
,
0000
0000
0000
0000
1100
0000
0000
0000
0000
0000
0000
0000
0001
0100
1000
0000
0000
0000
0000
0000
0000
0000
0000
0000
0000
0000
0000
0000
0001
0010
1000
0000
,
0000
0000
0000
0000
0000
0000
0000
0000
0000
0000
0000
0000
1000
0100
0001
0000
0000
0000
0000
0000
0000
0000
0000
0000
0000
0000
0000
0000
1000
0010
0001
0000
,
0000
0000
0000
0000
0000
0000
1000
0100
0010
0100
0001
0100
0010
0100
1000
0100
,
0010
0100
0001
0100
0010
0100
0001
0010
0100
0010
1000
0010
0100
0010
0001
0010
,
0100
0010
1000
0010
0100
0010
1001
0000
1000
0100
0010
0001
1000
0100
0010
0001
,
1000
0100
0010
0001
1000
0100
0010
0001
1000
0100
0010
0001
1000
0100
0010
0001
,
1000
0100
1010
0000
1010
0000
0001
0010
0100
1000
0001
0010
0100
1000
0001
0010
,
0100
1000
0001
0010
0100
1000
0001
0010
0100
1000
0001
0010
0100
1000
0001
0010
,
0100
0000
1000
0000
0011
0000
0000
0000
0011
0000
0000
0000
0000
0000
0000
0000
0001
0010
0100
1000
0001
0000
0000
0000
1000
0100
0010
0001
1000
0000
0000
0000
,
0001
0010
0100
1000
0001
0000
0000
0000
1000
0100
0010
0001
1000
0000
0000
0000
0001
0010
0100
1000
0011
0000
0000
0000
0000
0000
0000
0000
0000
0000
0000
0000
,
0000
0000
0000
0000
0000
0000
0000
0000
0000
0000
0000
0000
0000
0000
0000
0000
0000
0000
0100
0000
0000
0000
1000
0010
0100
0001
1000
0000
0000
0000
0001
0100
,
0010
1000
0001
0000
0000
0000
1000
0010
0100
0001
1000
0000
0000
0000
0001
0100
0010
1000
0001
0000
0010
0000
0000
0000
0100
0000
0000
0000
1000
0000
0000
0000
,
0110
0000
0000
0000
,
0000
0000
0000
0000
,
1000
0100
0010
0100
1000
0100
0010
0100
1000
0100
0010
0100
1000
0100
0010
0100
,
1000
0010
0001
0010
1000
0010
0001
0010
1000
0010
0001
0010
1000
0010
0001
0010
,
0100
1000
0001
1000
0100
1000
0001
1000
0100
1000
0001
1000
0100
1000
0001
1000
,
0010
0001
1000
0001
0010
0001
1000
0001
0010
0001
1000
0001
0010
0001
1000
0001
,
0110
0000
0000
0000
1000
0000
0000
0000
0000
0000
0000
0000
0010
0000
0000
0010
,
0010
0000
0000
0000
0100
0000
0000
0000
0000
0000
0001
0000
0010
0000
0000
0010
,
0100
0000
0000
0000
1000
0000
0000
0000
0000
0000
0001
0000
0100
0000
0000
0010
,
0100
0000
0000
0000
1000
0000
0000
0000
0000
0000
0001
0000
1000
0000
0000
0010
,
0100
0010
1100
0001
0100
0010
1100
0001
,
0100
0010
1100
0001
0100
0010
1100
0001
,
1001
0100
0010
0001
0100
0010
0001
0100
0010
0001
0100
0010
,
0001
1000
0001
0100
0001
1000
0001
0100
0001
0010
0100
1000
0101
0010
0001
0100
,
1001
0010
0100
1000
0010
0100
1000
0010
0100
1000
0010
0100
,
1000
0001
1000
0010
1000
0001
1000
0010
1000
0100
0010
0001
1010
0100
1000
0010
,
1001
0000
0000
0000
0100
0000
0000
0000
0010
0000
0000
0000
0001
0000
0000
0000
0100
0000
0000
0000
0010
0000
0000
0000
0001
0000
0000
0000
0100
0000
0000
0000
0010
0000
0000
0000
0001
0000
0000
0100
0000
0000
0001
0000
0000
1000
0000
0000
,
0001
0000
0000
0100
0000
0000
0001
0000
0000
1000
0000
0000
0001
0000
0000
0010
0000
0000
0100
0000
0000
1000
0000
0000
0001
0000
0010
0000
0100
0000
1000
0000
0100
0000
0010
0000
1001
0000
0010
0000
0100
0000
1000
0000
0100
0000
0010
0000
,
1001
0000
0000
0000
0010
0000
0000
0000
0100
0000
0000
0000
1000
0000
0000
0000
0010
0000
0000
0000
0100
0000
0000
0000
1000
0000
0000
0000
0010
0000
0000
0000
0100
0000
0000
0000
1000
0000
0000
0010
0000
0000
1000
0000
0000
0001
0000
0000
,
1000
0010
1000
0001
1000
0100
0010
0001
0100
0010
0100
0001
0100
0010
0100
0001
,
1000
0100
0010
0001
1000
0100
0010
0001
1000
0100
0010
0001
1000
0100
0010
0001
,
1000
0000
0000
0100
0000
0000
0010
0000
0000
0001
0000
0000
1000
0000
0000
0100
0000
0000
0010
0000
0001
0000
1000
0000
0100
0000
0000
0010
0000
0000
0001
0000
1000
0000
0100
0000
0010
0000
0001
0000
1000
0000
0100
0000
0010
0000
0001
0000
,
1100
0010
0100
0010
0100
0010
0100
0010
0100
0010
0100
0010
0100
0010
0100
0010
,
0100
0010
0100
0001
0010
0100
1000
0100
0010
0001
0100
0010
1000
0100
0010
0001
,
0010
0100
1000
0010
0100
0001
1000
0010
0100
0001
0010
0100
1000
0100
0010
0001
,
0100
0010
0000
0000
1000
0000
0000
0000
1000
0000
0000
0000
0000
0000
0000
0000
,
0000
0000
0000
0000
0010
0000
0000
0010
0100
0000
0000
0000
1001
0000
0000
0000
,
1001
0000
0000
0000
0000
0000
0000
0000
1001
0000
0000
0000
0000
0000
0000
0000
0001
0010
0100
0000
0000
0000
0000
0000
0000
0000
0000
0000
0000
0000
0000
0000
,
0000
0000
0000
0000
0010
0000
0000
0010
0100
0000
0000
0000
1100
0000
0000
0000
,
1100
0000
0000
0000
0000
0000
0000
0000
1100
0000
0000
0000
0000
0000
0000
0000
1000
0100
0001
0000
0000
0000
0000
0000
0000
0000
0000
0000
0000
0000
0000
0000
,
1000
0010
0001
0000
0000
0000
0000
0000
0000
0000
0000
0000
0000
0000
0000
0000
0001
0100
1000
0000
0000
0000
0000
0000
0000
0000
0000
0000
0000
0000
0000
0000
,
0001
0010
1000
0000
0000
0000
0000
0000
0000
0000
0000
0000
0000
0000
0000
0000
1001
0000
0100
0000
0010
0000
0001
0000
1000
0000
0100
0000
0010
0000
0001
0000
,
1000
0100
0010
0001
1000
0100
0010
0001
0010
0100
1000
0001
0010
0100
1000
0001
,
0010
0100
1000
0001
0010
0100
1000
0001
0010
0100
1000
0001
0010
0100
1000
0001
,
0010
0100
1000
0001
0010
0100
1000
0001
0110
0000
0000
0000
0000
0000
0000
0000
,
1101
0000
1111
0000
;
