#TITLE:connection α;
#SUBTITLE:;
#ARTIST:djHIRO;
#TITLETRANSLIT:connection alpha;
#SUBTITLETRANSLIT:;
#ARTISTTRANSLIT:;
#CREDIT:;
#BANNER:banner.png;
#BACKGROUND:bg.png;
#LYRICSPATH:;
#CDTITLE:../cdtitle.png;
#MUSIC:connection_a.mp3;
#OFFSET:-0.560;
#SAMPLESTART:62.000;
#SAMPLELENGTH:12.000;
#SELECTABLE:YES;
#BPMS:0.000=160.000;
#STOPS:;
#BGCHANGES:;
// cache tags:
#FIRSTBEAT:16.000;
#LASTBEAT:323.000;
#SONGFILENAME:Songs/Japanese Collaboration Mix/connection a/connection a.sm;
#HASMUSIC:1;
#HASBANNER:1;
#MUSICLENGTH:127.927;
// end cache tags

//---------------dance-single - ----------------
#NOTES:
     dance-single:
     :
     Challenge:
     12:
     0.841,1.000,0.235,0.016,0.930,721.000,30.000,2.000,0.000,0.000:
0000
0000
0000
0000
,
0000
0000
0000
0000
,
0000
0000
0000
0000
,
0000
0000
0000
0000
,
1000
0001
0100
0001
1000
0001
0100
0001
,
1000
0001
0100
0001
1000
0001
0100
0001
,
1000
0010
0100
0010
1000
0010
0100
0010
,
1000
0001
0010
0100
1000
0001
0010
0001
,
2002
0000
0000
3003
,
1000
0000
0100
0000
0010
0001
0000
0010
0001
0000
0100
0000
0010
1000
0000
0010
,
1000
0000
0001
0000
0010
0001
0000
0010
0001
0000
1000
0000
0001
0010
0001
0010
,
0001
0000
1000
0000
0010
0100
0000
0010
1000
0000
0001
0000
0010
0001
0000
1000
,
0001
0000
0100
0000
0001
0010
0000
0001
1000
0001
0010
0001
1000
0010
0100
0010
,
1000
0000
0001
0000
0010
0001
1000
0010
0100
0000
0001
0000
1000
0001
0010
0100
,
1000
0000
0001
0000
0010
0001
1000
0001
0100
0000
0001
0000
1000
0000
0001
0000
,
0010
0000
0100
0000
1000
0001
0010
0001
1000
0000
0001
0000
0010
0001
1000
0010
,
0100
0000
0001
0000
1000
0100
0010
0001
1000
0100
1000
0100
1000
0001
1000
0001
,
0100
0000
0001
0000
1000
0001
0000
0010
0001
0000
1000
0000
0001
0010
0000
0100
,
1000
0000
0001
0000
1000
0001
0000
0100
0010
0000
1000
0000
0001
0010
0001
0010
,
0001
0000
1000
0000
0010
0100
0000
0001
1000
0000
0001
0000
1000
0100
0000
0010
,
0001
0000
1000
0000
0001
0010
0000
0001
1000
0010
1000
0010
0100
0001
0100
0001
,
1000
0000
0100
0000
0010
0001
0000
1000
0001
0000
0010
0000
0001
1000
0000
0010
,
0100
0000
0010
0000
1000
0001
0000
0010
0001
0000
0010
0000
0100
0000
1000
0100
,
1000
0000
0001
0000
0010
0001
0000
1000
0010
0000
0100
0000
0010
1000
0000
0001
,
1000
0000
0001
0000
0010
0001
0000
1000
0001
0100
0001
1000
0001
0100
0001
1000
,
0001
0000
0010
0000
0000
0010
0000
0000
0000
0000
1000
0000
0000
1000
0000
0000
,
0000
0000
0100
0000
0000
0100
0000
0000
0000
0000
0010
0000
0000
0010
0000
0000
,
0000
0000
0001
0000
0000
0001
0000
0000
0000
0000
1000
0000
0000
1000
0000
0000
,
0000
0000
0010
0000
0000
0010
0000
0000
0000
0000
0100
0000
0000
0100
0000
0000
,
1001
0000
0010
0000
0000
0010
0000
0000
0000
0000
0100
0000
0000
0100
0000
0000
,
0000
0000
0001
0000
0000
0001
0000
0000
0000
0000
1000
0000
0000
1000
0000
0000
,
0000
0000
0010
0000
0000
0010
0000
0000
0000
0000
0100
0000
0000
0100
0000
0000
,
0000
0000
0001
0000
0000
0001
0000
0000
0000
0000
1000
0000
0000
1000
0000
0000
,
1001
0000
0000
1001
0000
0000
1001
0000
,
0000
0000
1001
0000
0000
0000
0000
0000
1001
0000
1001
0000
0100
0010
0100
0010
,
0100
0000
0000
1001
0000
0000
1001
0000
,
0000
0000
1001
0000
0000
0000
0000
0000
1001
0000
1001
0000
0100
0010
0100
0010
,
0100
1001
1001
1001
,
1001
1001
1001
1001
,
0010
0100
0010
0100
0010
0100
0010
0100
,
0010
0100
0010
0100
0010
0100
0010
0100
0010
0100
0010
0100
0010
0100
0010
0100
,
0010
0000
1000
0000
0001
0010
0000
0001
1000
0000
0001
0000
0100
0001
0000
1000
,
0010
0000
0100
0000
0010
1000
0000
0001
0010
0000
0100
0000
1000
0001
0010
0100
,
1000
0000
0001
0000
0010
0001
0000
1000
0010
0000
0001
0000
0100
1000
0000
0001
,
0010
0000
0001
0000
0100
0001
0000
1000
0010
0000
1000
0100
1000
0001
1000
0100
,
1000
0000
0001
0000
0010
0001
1000
0001
0100
0000
0001
0000
1000
0100
1000
0001
,
0010
0000
0001
0000
0100
0001
1000
0001
0010
0000
0001
0000
1000
0100
1000
0100
,
1000
0000
0001
0000
0010
0001
1000
0001
1000
0000
0001
0000
0100
0001
1000
0001
,
0100
0000
0001
0000
1000
0001
0010
0001
1000
0010
1000
0010
0100
0010
0100
0010
,
0100
0000
0001
0000
1000
0100
0010
0001
1000
0000
0001
0000
0010
0001
1000
0001
,
0100
0000
0001
0000
1000
0010
1000
0010
0100
0001
0100
0001
1000
0001
1000
0001
,
1000
0000
0001
0000
0010
0001
1000
0010
0100
0000
0010
0000
1000
0001
0010
0001
,
1000
0000
0001
0000
0100
0001
0100
0001
1000
0001
1000
0001
0100
0010
0100
0010
,
1000
0000
0001
0000
0010
0001
1000
0001
0100
0000
0001
0000
1000
0100
1000
0001
,
0100
0000
0001
0000
1000
0010
1000
0010
1000
0001
1000
0001
0010
0001
0010
0001
,
1000
0000
0001
0000
0010
0001
1000
0001
0100
0000
0001
0000
1000
0100
1000
0001
,
1000
0000
0010
0000
0100
0001
1000
0001
0010
0100
1000
0001
0010
0100
1000
0001
,
0010
0000
0001
0000
1000
0010
1000
0000
0001
0000
0010
0000
0001
1000
0001
0000
,
0100
0000
0010
0000
1000
0010
1000
0000
0001
0000
0100
0000
0001
1000
0001
0000
,
0100
0000
0010
0000
1000
0001
1000
0000
0010
0000
0100
0000
0001
0010
0001
0000
,
1000
0000
0010
0000
1000
0010
1000
0000
0001
0100
0001
1000
0001
0100
0001
1000
,
0001
0000
0010
0000
0001
1000
0001
0000
0100
0000
0010
0000
1000
0001
1000
0000
,
0100
0000
0010
0000
0001
0010
0001
0000
1000
0000
0010
0000
1000
0001
1000
0000
,
0001
0000
0100
0000
0001
0100
0001
0000
1000
0000
0001
0000
0010
0001
0010
0000
,
0100
0000
1000
0000
0001
0010
0001
0000
1000
0010
1000
0010
0100
0001
0100
0001
,
1000
0000
0001
0000
1000
0100
0010
0000
0001
0000
0010
0000
0001
1000
0010
0000
,
0100
0000
0001
0000
1000
0001
0100
0000
0001
0000
0010
0000
0001
1000
0001
0000
,
0010
0000
0001
0000
1000
0010
1000
0000
0001
0000
0100
0000
0010
0100
0010
0000
,
1000
0000
0001
0000
0100
0001
0100
0000
0001
1000
0001
0100
0001
1000
0001
0000
,
1000
0100
1000
0100
1000
0100
0010
0001
1000
0010
1000
0010
1000
0001
0010
0100
,
1000
0001
1000
0001
0010
0001
1000
0010
0100
0010
0100
0010
1000
0001
0010
0001
,
1000
0001
1000
0001
0100
0010
0100
0010
1000
0001
1000
0001
0100
0010
0100
0010
,
1000
0010
0100
0001
1000
0010
0100
0001
1000
0100
0010
0001
0010
0100
1000
0001
,
1000
0110
0001
0010
,
0001
1000
0010
0001
,
0100
0110
1000
0001
,
0010
0000
0100
0000
1000
0000
0001
0110
,
1000
1001
0010
0001
,
0100
0001
1000
0010
,
0001
1001
0010
0001
,
1100
0000
0000
0101
0000
0000
0011
0000
0000
1010
0000
0000
1001
0000
0000
0000
;
