#TITLE:Ovningskora;
#SUBTITLE:;
#ARTIST:Slagsmalsklubben;
#TITLETRANSLIT:;
#SUBTITLETRANSLIT:;
#ARTISTTRANSLIT:;
#CREDIT:;
#BANNER:ovning-bn.PNG;
#BACKGROUND:ovning-bg.PNG;
#LYRICSPATH:;
#CDTITLE:pannpann.png;
#MUSIC:ovningskora.mp3;
#OFFSET:1.148;
#SAMPLESTART:38.921;
#SAMPLELENGTH:12.000;
#SELECTABLE:YES;
#BPMS:0.000=170.030,80.500=85.010,82.000=170.030;
#STOPS:;
#BGCHANGES:;
// cache tags:
#FIRSTBEAT:3.500;
#LASTBEAT:561.750;
#SONGFILENAME:Songs/Bemani.se Megapack/(fore) Ovningskora/ovningskora.sm;
#HASMUSIC:1;
#HASBANNER:1;
#MUSICLENGTH:199.635;
// end cache tags

//---------------dance-single - ----------------
#NOTES:
     dance-single:
     :
     Hard:
     11:
     1.000,1.000,0.912,1.000,0.854,1278.000,182.000,275.000,0.000,17.000:
0000
0000
0000
0000
0000
0000
0000
1000
,
0001
1000
0001
0100
0001
0010
0100
0010
,
0001
1000
0001
0010
0100
1000
0010
1000
,
0100
0010
0100
1000
0001
0010
0001
0010
,
0100
0010
0100
1000
0100
0010
0100
0110
,
0010
0001
0010
0100
0010
0100
0001
0011
,
0010
1100
0001
1000
0110
0001
0010
0110
,
0100
1000
0110
0001
1000
0010
1000
0101
,
0010
1100
0100
0110
0001
0110
0100
1010
,
0001
0010
0001
0100
1000
0100
0010
1001
,
0001
0110
0100
0010
1001
0100
0010
0101
,
1000
0100
0011
1000
0010
0100
0010
1100
,
0010
0011
0100
1010
0001
0110
1000
0110
,
1000
0001
1000
0001
0100
0010
1000
0100
,
0010
0000
0100
0000
0010
0000
0001
0010
0001
0010
0001
0010
0100
1000
0100
0000
,
1000
0010
0100
0010
1000
0001
0010
0100
,
0010
0000
0001
0000
1000
0000
0010
0100
0001
0010
0100
1000
0010
0100
0101
0000
,
0010
0101
0010
0001
1000
0010
0100
1010
,
1000
0000
0101
0000
0010
0000
0001
1000
0100
0010
0001
1000
0001
0010
0011
0000
,
1000
0101
1000
0010
0101
0001
0010
0101
,
1000
0000
0000
0000
0000
0000
0000
0000
0020
0000
0000
0000
0200
0000
0000
0000
0000
0000
0000
0000
0000
0000
0030
0000
0302
0000
0000
0000
0000
0003
0000
0000
0101
0000
0000
0000
0000
0000
0000
0000
0010
0000
0000
0000
0000
0000
0000
0000
1100
0000
0000
0000
0000
0000
0000
0000
1000
0000
0000
0000
0000
0000
0000
0000
,
0010
0100
0011
1100
0010
0100
1010
0100
,
0001
1000
0100
0010
0001
1000
0001
0010
0100
0000
0010
0000
1100
0000
0010
0000
,
0100
0001
0110
1001
1000
0100
0110
0101
,
1001
0000
1001
0000
0001
0100
0010
1000
2100
0000
0000
3000
0012
0000
0000
0003
,
0210
0000
0000
0000
0000
0000
0000
0000
0000
0000
0000
0000
0300
0000
0000
0000
0021
0000
0000
0000
0000
0000
0000
0030
0210
0000
0000
0000
0000
0000
0000
0000
2310
0000
0000
0000
0000
0000
0000
0000
0000
0000
0000
0000
3000
0000
0000
0000
0120
0000
0000
0000
0000
0000
0000
0000
0000
0000
0000
0000
0030
0000
0000
0000
,
0200
0000
0001
0300
0021
0000
0001
0030
2001
0000
0000
3000
1020
0000
0000
0030
,
0210
0000
0000
0000
0000
0000
0000
0000
0000
0000
0000
0000
0300
0000
0000
0000
2010
0000
0000
0000
0000
0000
0000
0000
3102
0000
0000
0000
0000
0000
0000
0003
0021
0000
0000
0000
0000
0000
0000
0000
0000
0000
0000
0000
0030
0000
0000
0000
0120
0000
0000
0000
0000
0000
0000
0000
0000
0000
0000
0000
0030
0000
0000
0000
,
0020
0000
0001
0030
2100
0000
0100
3000
0120
0000
0000
0030
2001
0000
0000
3000
,
0021
0000
0000
0030
2001
0000
3120
0000
1230
0000
0000
0300
0102
0000
0000
0003
,
0020
0000
0001
0030
2001
0000
0001
3000
0210
0000
0000
0300
0102
0000
0000
0003
,
2010
0000
0000
0000
0000
0000
0000
0000
0000
0000
0000
0000
3000
0000
0000
0000
1200
0000
0000
0000
0000
0000
0000
0300
0120
0000
0000
0000
0000
0000
0000
0000
1032
0000
0000
0000
0000
0000
0000
0000
0000
0000
0000
0000
0003
0000
0000
0000
0201
0000
0000
0000
0000
0000
0000
0000
0010
0000
0000
0000
0300
0000
0000
0000
,
2010
0000
0001
3000
0001
1000
0010
0100
0220
0000
0000
0330
0202
0000
0000
0303
,
0220
0000
0000
0000
0000
0000
0000
0000
0000
0000
0000
0000
0330
0000
0000
0000
2200
0000
0000
0000
0000
0000
0000
3300
0220
0000
0000
0000
0000
0000
0000
0330
0022
0000
0000
0000
0000
0000
0000
0000
0033
0000
0000
0000
0000
0000
0000
0000
2020
0000
0000
0000
0000
0000
0000
0000
0000
0000
0000
0000
3030
0000
0000
0000
,
2020
0000
0000
3030
0220
0000
0000
0330
0022
0000
0000
0033
2002
0000
0000
3003
,
0220
0000
0000
0000
0000
0000
0000
0000
0000
0000
0000
0000
0330
0000
0000
0000
2200
0000
0000
0000
0000
0000
0000
3300
2020
0000
0000
0000
0000
0000
0000
3030
0220
0000
0000
0000
0000
0000
0000
0330
0000
0000
0000
0000
0000
0000
0000
0000
2002
0000
0000
0000
0000
0000
0000
0000
0013
0000
0000
0000
3000
0000
0000
0000
,
1010
0000
1100
0000
0100
1000
0010
0100
0001
0010
0100
1000
0001
0010
0100
1000
,
0100
0010
0001
1000
0001
0010
0100
1000
0010
0100
0001
0010
0100
0010
0001
1000
,
0100
0010
0100
1000
0010
0100
0001
0100
0010
1000
0010
0100
0001
0010
0100
0010
,
0100
1000
0100
0010
0001
0100
0010
1000
0100
0010
0001
0100
0010
1000
0100
0010
,
0001
0100
0010
1000
0100
0010
0100
1000
0100
0010
0100
1000
0100
0010
0001
0010
,
0100
1000
0010
0100
0001
1000
0100
0010
0001
0100
0010
0100
0001
0100
0001
1000
,
0100
1000
0001
0100
0001
1000
0100
1000
0001
0010
0001
1000
0010
1000
0001
0010
,
0001
1000
0010
1000
0010
0100
0001
1000
0010
0100
0001
1000
0010
0100
0010
0100
,
0001
0010
0100
1000
0001
1000
0100
1000
0001
0010
0100
0010
0001
0010
0100
0010
,
0001
0010
0100
1000
0010
0100
0001
1000
0010
1000
0100
1000
0010
1000
0100
0010
,
0100
1000
0001
0100
0001
0010
0001
0100
0010
1000
0001
0100
0010
1000
0010
0100
,
0001
0100
0010
1000
0010
0100
0001
0100
0010
0100
0010
0100
0001
0010
0100
1000
,
0001
1000
0100
0010
0001
1000
0001
0010
0100
1000
0100
0010
0001
1000
0100
0010
,
0001
0010
0100
1000
0001
0010
0100
1000
0010
0100
0010
1000
0100
0010
0001
0100
,
0010
1000
0100
0010
0001
0100
0010
1000
0010
0100
0001
0100
0001
1000
0010
1000
,
0001
0100
0001
0100
0001
0010
0001
0010
0100
0010
0001
0010
0100
1000
0100
0010
,
0100
1000
0100
0010
0001
0100
0010
0100
0010
1000
0010
0100
0010
1000
0010
0100
,
0001
0100
0010
0100
0001
0100
0010
0100
0001
0010
0100
1000
0010
1000
0001
1000
,
0001
1000
0100
0010
0001
0010
0100
0010
0001
1000
0001
1000
0010
0100
0010
1000
,
0100
1000
0001
0100
0001
1000
0100
0010
0100
1000
0100
0010
0001
0010
0100
1000
,
0100
0010
0001
0100
0010
1000
0100
0010
0012
0000
0010
0000
0123
0000
1230
0000
,
2310
3001
0012
0123
1032
0000
0023
0000
,
0031
1000
0010
0100
0001
0010
0100
1000
0021
0000
0100
0000
0031
0000
0001
0000
,
1200
0010
1300
0010
0210
0010
0301
0010
,
0001
0000
1000
0000
0100
0000
0010
0000
0001
0000
0010
0000
0100
0000
0010
0000
0002
0003
0000
0000
0000
0000
0000
0000
2000
3000
0000
0000
0000
0000
0000
0000
,
0020
0030
0000
0000
0200
0300
0000
0000
0000
0000
0000
0000
0002
0003
0000
0000
0002
0003
0000
0000
2000
3000
0000
0000
0002
0003
0000
0000
0020
0030
0000
0000
,
0000
0000
0000
0000
0200
0300
0000
0000
0020
0030
0000
0000
2000
0000
0000
0000
0000
0000
0000
0000
0002
3003
0000
0000
0002
0003
0000
0000
0002
0003
0000
0000
,
0000
0000
0000
0000
0002
0003
0000
0000
0000
0000
0000
0000
2000
3000
0000
0000
0200
0300
0000
0000
0002
0003
0000
0000
0200
0300
0000
0000
0020
0030
0000
0000
,
2002
3003
0000
0000
0000
0000
0000
0000
2000
3000
0000
0000
2000
3000
0000
0000
2000
0000
0000
0000
0000
0000
0000
0000
0000
0000
3000
0000
0002
0000
0000
0000
,
0000
0000
0000
0000
0000
0000
0003
0000
0002
0000
0000
0000
0000
0000
0003
0000
0020
0000
0000
0000
0000
0000
0000
0000
0000
0030
0000
0000
0000
0000
0000
0000
,
0020
0000
0000
0030
0200
0000
0000
0000
2300
0000
0000
0000
3000
0000
0000
0000
,
0000
0000
0000
0000
0000
0000
0000
0000
0000
0000
0000
0000
0000
0000
0000
0000
0000
0000
0000
0000
0000
0000
0000
0000
0000
0000
0000
0000
0000
0000
0000
0000
0000
0000
0000
0000
0000
0000
0000
0000
0000
0000
0000
0000
0000
0000
0000
0000
0002
0000
0000
0000
0000
0000
0000
0000
0000
0000
0000
0000
0000
0000
0000
0000
0000
0000
0000
0000
0000
0000
0000
0000
0020
0000
0000
0000
0000
0000
0000
0000
0000
0000
0000
0000
0000
0000
0000
0000
0000
0000
0003
0000
0000
0000
0000
0000
0002
0000
0000
0000
0000
0000
0000
0000
0000
0000
0000
0000
0000
0000
0000
0000
0000
0000
0030
0000
0000
0000
0000
0003
0002
0000
0000
0000
0000
0000
0000
0000
0000
0000
0000
0000
0000
0000
0000
0000
0000
0000
0000
0000
0000
0000
0000
0000
2000
0000
0000
0000
0000
0000
0000
0000
0000
0000
0000
0000
0000
0000
0000
0000
0000
0000
0000
0000
0000
0000
0000
0000
0003
0000
0000
0000
0000
0000
0000
0000
0000
0000
0000
0000
0000
0000
0000
0000
0000
0000
3000
0000
0000
0000
0000
0000
,
0002
0000
0000
0003
0002
0000
0000
0000
0000
0000
0000
0000
0000
0003
0000
0000
2001
3000
0000
0000
0000
0000
0000
0000
0110
0000
0000
0000
0000
0000
0000
0000
,
1001
0000
0000
0000
0000
0000
0000
0000
0011
0000
0000
0000
1100
0000
0000
0000
0002
0003
0000
0000
0000
0000
0000
0000
0101
0000
0000
0000
0000
0000
0000
0000
,
0101
0000
0000
0000
0011
0000
0000
0000
0120
0030
0000
0000
1100
0000
0000
0000
0012
0003
0000
0000
0000
0000
0000
0000
1001
0000
0000
0000
0020
0000
0030
0000
,
0011
0000
0000
0000
0000
0000
0000
0000
2010
3000
0000
0000
0201
0300
0000
0000
0020
0030
0000
0000
0020
0030
0000
0000
0210
0300
0000
0000
1001
0000
0000
0000
,
1020
0030
0000
0000
1200
0300
0000
0000
0011
0000
0001
0000
0010
0000
0100
0000
2000
3000
0000
0000
0000
0000
0000
0000
2000
3000
0000
0000
0002
0003
0000
0000
,
2000
3000
0000
0000
2000
3000
0000
0000
0000
0000
0000
0000
0002
0003
0000
0000
2000
3000
0000
0000
2000
3000
0000
0000
2000
3000
0000
0000
0020
0000
0000
0000
,
0000
0000
0000
0030
0020
0030
0000
0000
0020
0030
0000
0000
0200
0000
0000
0000
0000
0000
0000
0000
0320
0030
0000
0000
0200
0300
0000
0000
0002
0003
0000
0000
,
2000
3000
0000
0000
2000
3000
0000
0000
0000
0000
0000
0000
0200
0300
0000
0000
2002
3003
0000
0000
0020
0030
0000
0000
2002
3003
0000
0000
0020
0030
0000
0000
,
2200
3000
1000
0000
1300
0100
1000
0001
0010
0000
0100
0000
1000
0000
0100
0000
,
0000
0000
1010
1010
0001
0001
0001
0001
,
0000
1010
0110
1100
0010
0010
0010
0010
,
0000
0000
1001
1100
1000
1000
1000
1000
,
1000
0000
1001
0000
0101
0001
0010
0100
1000
0100
0010
0001
0010
0100
1000
0001
,
1000
0100
0010
0001
1000
0001
0010
0100
1000
0001
0010
0001
1000
0010
0100
0010
,
1000
0100
0010
0100
0010
0001
0100
0010
0100
0001
0010
0100
1000
0010
0100
0001
,
0010
0100
1000
0001
1000
0100
0010
0001
1000
0100
0010
0001
0100
0010
1000
0100
,
0010
0100
1000
0001
0010
0100
0010
0001
1000
0100
0010
0100
1000
0001
0010
0100
,
1000
0010
0100
0001
1000
0010
0100
0001
1000
0010
0100
0001
1000
0100
1000
0010
,
0100
0001
0100
0010
1000
0010
0100
0001
1000
0010
0100
0001
0010
0100
1000
0010
,
0100
0001
0010
0100
1000
0100
1000
0100
2001
0000
0001
0000
0001
0000
0001
0000
,
0001
0000
0001
0000
3001
1000
0010
0100
0001
0100
0010
0100
0001
0010
0100
1000
,
0010
0100
0001
0010
0100
1000
0010
0100
0001
0010
0100
1000
0100
1000
0100
1000
,
0100
1000
0010
0100
0010
0100
0001
0010
0100
0010
0100
1000
0100
0010
0001
0100
,
0010
1000
0100
0010
0001
0010
0001
0010
0001
1000
0100
0010
0001
0010
0100
1000
,
0010
1000
0010
1000
0010
1000
0010
1000
0100
0010
0100
1000
0001
0010
0100
0010
,
0001
0010
0100
1000
0010
0100
0001
0010
0100
1000
0010
0100
0001
0010
0100
1000
,
0100
0010
0001
0010
0100
1000
0100
0010
0001
0010
0100
1000
0100
0010
0001
0010
,
0001
0010
0001
0010
0001
1000
0100
1000
0100
1000
0100
1000
0100
0010
0100
0010
,
0100
0010
0100
0010
0100
1000
0100
0010
0002
0000
0000
0000
0113
0000
2000
0000
,
0000
0000
0000
0000
0000
0000
0000
0000
3000
0000
0000
0000
0000
0000
0000
0000
0012
0000
0000
0000
0000
0000
0000
0000
0010
0000
0000
0000
0000
0000
0000
0003
0002
0000
0000
0000
0000
0000
0000
0000
0000
0000
0000
0000
0000
0000
0000
0000
0103
0000
0000
0000
0000
0000
0000
0000
0000
0000
0000
0000
0000
0000
0000
0000
,
0002
0000
0000
0003
0001
0000
0000
0000
0200
0000
0010
0000
0301
0000
0100
0000
0020
0000
0000
0000
0000
0000
0000
0000
0130
0000
0000
0000
0000
0000
0000
0000
,
0000
0000
0000
0000
2100
0000
3210
0300
0201
0300
0000
0000
2010
0000
3210
0000
,
1000
0300
0210
0000
2000
0300
0000
3000
0200
0300
0200
0300
2000
3000
0020
0030
,
0200
0300
0200
0300
0000
0000
0000
0000
0000
0000
0000
0000
0000
0000
0002
0003
,
0020
0000
0000
0030
0000
0000
0000
0000
0000
0000
0000
0000
0020
0030
0020
0000
,
0000
0000
0030
0000
0000
0000
0000
0000
0002
0003
0002
0000
0003
0000
2000
0000
,
3000
2000
3000
2000
3200
2300
3000
0000
,
0000
0000
0000
0000
2000
0000
0020
3000
0000
0030
0000
0000
0000
0000
0000
0000
,
0020
0000
2030
0000
0000
3000
0002
0000
0020
0003
2000
0030
0020
3000
0200
0030
,
2000
0300
0020
3000
0002
0030
0000
0003
0000
0000
0000
0000
0200
0000
0300
0000
,
0000
0002
0003
0000
,
0002
0000
0000
0003
0002
0000
0000
0003
0002
0000
0200
0003
0002
0300
0020
0003
,
0000
0030
0000
0000
0000
0000
0020
0000
0000
0000
0030
0000
0000
0000
0020
0000
,
0000
0032
0000
0003
0200
0000
0300
0200
,
0020
0000
0300
0000
0030
0000
0020
0000
0200
0000
0030
0000
0300
0000
0010
0100
,
0001
0010
0100
1000
0010
0100
0001
0010
0200
0000
0000
0000
0000
0300
0200
0000
,
2000
0000
0300
0000
3001
0000
1000
0100
0010
0001
0100
0010
1000
0100
0010
0001
,
0100
0010
1000
0100
0010
0000
0200
0000
2000
0300
0020
3000
0200
0030
0002
0300
,
0020
0003
0200
0030
2000
0300
0200
3000
0302
0000
0000
0000
1000
0000
0003
0000
,
2000
0000
3002
0010
0023
0000
0032
0000
,
2003
0010
3020
1000
2030
0000
0010
0000
,
3020
0000
2030
0100
3002
0000
0023
0000
,
0230
1000
0320
0100
0032
0000
1000
0000
,
0203
0000
1000
0300
2000
0000
0010
3000
,
0020
0000
0001
0030
0020
0000
1000
0030
,
2000
0000
0100
3000
0200
0000
0010
0300
,
0002
0000
1000
0003
0101
0010
0110
1000
,
0010
0100
0110
1010
0100
0010
0101
0001
,
0010
1001
1010
0101
0010
0001
1010
0100
,
0010
1000
0110
0101
0001
0100
1001
0010
,
0100
0000
1010
0000
0100
1000
0001
0010
0110
0000
1000
0000
0110
0000
0100
0000
,
0001
0010
0110
1100
0010
0100
1010
0001
,
1000
0110
0011
1100
0100
1000
0101
0010
,
0100
0010
1001
1001
0010
0100
1010
0100
,
0010
0000
0101
0000
0001
1000
0100
0010
0011
0000
0010
0000
1100
0000
1000
0000
,
0001
0100
0011
0101
0010
0100
1010
0010
,
0100
0000
0110
0000
0001
0100
0010
1000
1010
0000
0100
0000
1010
0000
0100
0000
,
0001
0010
1001
1010
0010
0100
0011
1000
,
0100
0000
0011
0000
1000
0010
0100
0001
0102
0000
0000
0000
2003
0000
0020
3000
,
2000
0030
3020
0200
0032
0300
0023
0000
,
2030
0000
0002
0000
3020
0000
2003
0030
0020
0000
3000
0000
0230
0000
2000
0300
,
0200
0000
3000
0000
0302
0000
0200
0003
0002
0000
0300
0000
2003
0000
0000
3000
,
2000
0000
0000
3000
2000
0000
0000
3000
0000
0000
0000
0000
0000
0000
0000
0000
;
