#TITLE:Another Rainbow;
#SUBTITLE:Gson;
#ARTIST:Magnus Carlsson;
#TITLETRANSLIT:;
#SUBTITLETRANSLIT:;
#ARTISTTRANSLIT:;
#CREDIT:;
#BANNER:../thisandthat-bn.png;
#BACKGROUND:../thisnthat-bg.png;
#LYRICSPATH:;
#CDTITLE:;
#MUSIC:14 - Magnus Carlsson.ogg;
#OFFSET:-0.602;
#SAMPLESTART:38.576;
#SAMPLELENGTH:12.000;
#SELECTABLE:YES;
#DISPLAYBPM:158.000;
#BPMS:0.000=158.000,64.000=316.000,64.250=158.000,92.000=316.000,92.250=158.000,478.000=39.500,481.750=79.000;
#STOPS:64.000=0.047
,92.000=0.047
;
#BGCHANGES:;
// cache tags:
#FIRSTBEAT:42.000;
#LASTBEAT:481.750;
#SONGFILENAME:Songs/Seph, Gson & Shpadoinkle's Pack of This 'n That/Another Rainbow/Another Rainbow.sm;
#HASMUSIC:1;
#HASBANNER:1;
#MUSICLENGTH:105.000;
// end cache tags

//---------------dance-single - Blank----------------
#NOTES:
     dance-single:
     Blank:
     Challenge:
     11:
     1.000,1.000,0.762,1.000,0.576,793.000,80.000,230.000,79.000,0.000:

0000
0000
0000
0000
,
0000
0000
0000
0000
,
0000
0000
0000
0000
,
0000
0000
0000
0000
,
0000
0000
0000
0000
,
0000
0000
0000
0000
,
0000
0000
0000
0000
,
0000
0000
0000
0000
,
0000
0000
0000
0000
,
0000
0000
0000
0000
,
0000
0000
0000
0000
0001
0001
1000
1000
,
0100
0100
0010
0010
0001
0001
0100
0100
,
0010
0000
0000
0000
0000
0000
0000
0000
0010
0000
0000
0000
0000
0000
0000
0000
1000
0000
0000
0000
0000
0000
0000
0000
1000
0000
0000
0000
0000
0000
0000
0000
2020
0000
0000
0000
0000
0000
0000
0030
3010
0000
0000
0000
0000
0000
0000
0000
0200
0000
0000
0000
0000
0000
0000
0000
0301
0000
0000
0000
0000
0000
0000
0000
,
0100
0010
2000
3100
0010
0001
2000
0000
,
3002
0000
0000
0000
0000
0000
0000
0000
0100
0000
0000
0000
0000
0000
0000
0003
0002
0000
0000
0000
0000
0000
0000
0000
1000
0000
0000
0000
0000
0000
0000
0003
0002
0000
0000
0000
0000
0000
0000
0000
0100
0000
0000
0000
0000
0000
0000
0003
0002
0000
0000
0000
0000
0000
0000
0000
1000
0000
0000
0000
0000
0000
0000
0003
,
0002
0000
0000
0000
0000
0000
0000
0000
0100
0000
0000
0000
0000
0000
0000
0003
0001
0000
0000
0000
0000
0000
0000
0000
0001
0000
0000
0000
0000
0000
0000
0000
1000
0000
0000
0000
0000
0000
0000
0000
1000
0000
0000
0000
0000
0000
0000
0000
0100
0000
0000
0000
0000
0000
0000
0000
0100
0000
0000
0000
0000
0000
0000
0000
,
0020
0031
0200
0310
1000
0010
0002
0013
,
1000
0000
0000
0000
0000
0000
0000
0000
0100
0000
0000
0000
0000
0000
0000
0000
0020
0000
0000
0000
0000
0000
0000
0000
0031
0000
0000
0000
0000
0000
0000
0000
2000
0000
0000
0000
0000
0000
0000
0000
0010
0000
0000
0000
0000
0000
0000
3000
2000
0000
0000
0000
0000
0000
0000
0000
0001
0000
0000
0000
0000
0000
0000
3000
,
2000
0000
0000
0000
0000
0000
0000
0000
0010
0000
0000
0000
0000
0000
0000
3000
2000
0000
0000
0000
0000
0000
0000
0000
3100
0000
0000
0000
0000
0000
0000
0000
0100
0000
0000
0000
0000
0000
0000
0000
0010
0000
0000
0000
0000
0000
0000
0000
0010
0000
0000
0000
0000
0000
0000
0000
0001
0000
0000
0000
0000
0000
0000
0000
,
0001
0100
0100
0010
2020
3030
2000
3200
,
0302
0000
0203
2300
3020
0000
0230
0000
,
0304
0400
0000
0000
0000
0000
0000
0000
0000
0000
0000
0000
0000
0000
0000
0000
,
0000
0000
0000
0303
0001
0001
0100
0100
,
0020
1030
0200
0310
0001
0100
2000
3100
,
0002
2003
3400
0320
,
0034
0000
2003
0000
304M
000M
023M
000M
,
031M
001M
100M
100M
101M
101M
011M
011M
,
101M
101M
011M
011M
101M
101M
400M
000M
,
3400
0000
0340
0000
0031
0100
0002
2003
,
3200
0302
0203
2300
3010
0100
0001
0010
,
0001
0100
0010
1000
0004
0000
0203
0320
,
0032
0023
2030
3200
0310
0001
0100
0010
,
0100
0001
0010
0100
4000
0000
3001
0002
,
0023
2030
3020
0032
0403
0000
0340
0000
,
4030
0000
3400
0000
0320
0000
0032
2003
,
3002
0000
0203
0000
0302
0000
2003
0000
3001
0100
0001
0100
0010
1000
0100
0010
,
0001
1000
0100
1000
0100
0010
0001
1000
00M2
0000
0103
0000
0010
0000
2000
0000
,
3020
0032
0023
2030
3100
0010
0100
1000
,
0100
0010
0001
0010
0100
0010
0004
0000
,
0203
2300
3002
0023
1030
0100
0010
0001
,
1000
0100
0010
0001
0100
0010
1000
0002
,
0023
2030
3002
0203
4300
0000
3400
0000
,
0340
0000
0034
0000
0203
0000
0320
2030
,
3200
0302
0203
2300
3100
0010
0011
0010
,
0100
1100
1000
0100
0020
0031
2000
3001
,
2000
0000
0000
0000
0000
0000
0000
0000
0002
0000
0000
0000
0000
0000
0000
3000
2000
0000
0000
0000
0000
0000
0000
0003
0002
0000
0000
0000
0000
0000
0000
3000
2000
0000
0000
0000
0000
0000
0000
0003
0002
0000
0000
0000
0000
0000
0000
3000
2000
0000
0000
0000
0000
0000
0000
0003
0002
0000
0000
0000
0000
0000
0000
3000
,
2000
0000
0000
0000
0000
0000
0000
0003
0002
0000
0000
0000
0000
0000
0000
3000
2000
0000
0000
0000
0000
0000
0000
0003
3002
0000
0000
0000
0000
0000
0000
0000
0403
0000
0000
0000
0000
0000
0000
0000
0000
0000
0000
0000
0000
0000
0000
0000
0000
0000
0000
0000
0000
0000
0000
0000
0000
0000
0000
0000
0000
0000
0000
0000
,
0000
0000
0000
0000
0000
0000
0000
0000
0000
0000
0000
0000
0000
0000
0000
0000
0000
0000
0000
0000
0000
0000
0000
0000
0000
0000
0000
0000
0000
0000
0000
0000
0340
0000
0000
0000
0000
0000
0000
0000
0000
0000
0000
0000
0000
0000
0000
0000
0000
0000
0000
0000
0000
0000
0000
0000
0000
0000
0000
0000
0000
0000
0000
0030
,
2010
0000
0000
0000
0000
0000
0000
0000
0000
0000
0000
0000
0000
0000
0000
0000
3020
0000
0000
0000
0000
0000
0000
0000
0100
0000
0000
0000
0000
0000
0000
0030
0020
0000
0000
0000
0000
0000
0000
0000
1000
0000
0000
0000
0000
0000
0000
0030
0020
0000
0000
0000
0000
0000
0000
0000
0200
0000
0000
0000
0000
0000
0000
0030
,
0320
0000
0000
0000
0000
0000
0000
0000
0000
0000
0000
0000
0000
0000
0000
0000
0000
0000
0000
0000
0000
0000
0000
0000
1000
0000
0000
0000
0000
0000
0000
0000
0000
0000
0000
0000
0000
0000
0000
0000
0000
0000
0000
0000
0000
0030
0000
0000
0020
0000
0000
0000
0000
0000
0000
0000
0000
0000
0000
0000
0000
0000
0000
0000
0000
0000
0000
0000
0000
0000
0000
0000
1000
0000
0000
0000
0000
0000
0000
0000
0000
0000
0000
0000
0000
0000
0000
0000
0000
0000
0000
0000
0000
0030
0000
0000
0010
0000
0000
0000
0000
0000
0000
0000
0000
0000
0000
0000
0000
0000
0000
0000
0000
0000
0000
0000
0000
0000
0000
0000
0010
0000
0000
0000
0000
0000
0000
0000
0000
0000
0000
0000
0000
0000
0000
0000
0000
0000
0000
0000
0000
0000
0000
0000
1000
0000
0000
0000
0000
0000
0000
0000
0000
0000
0000
0000
0000
0000
0000
0000
0000
0000
0000
0000
0000
0000
0000
0000
0001
0000
0000
0000
0000
0000
0000
0000
1000
0000
0000
0000
0000
0000
0000
0000
0001
0000
0000
0000
0000
0000
0000
0000
,
1000
0100
0020
0031
0100
0010
2000
3001
,
1000
0000
0000
0000
0000
0000
0000
0000
0100
0000
0000
0000
0000
0000
0000
0000
2000
0000
0000
0000
0000
0000
0000
0000
0000
0000
0000
0000
0000
0000
0000
0000
3020
0000
0000
0000
0000
0000
0000
0000
0001
0000
0000
0000
0000
0000
0000
0030
0020
0000
0000
0000
0000
0000
0000
0000
0100
0000
0000
0000
0000
0000
0000
0030
,
0020
0000
0000
0000
0000
0000
0000
0000
0001
0000
0000
0000
0000
0000
0000
0030
0020
0000
0000
0000
0000
0000
0000
0000
0100
0000
0000
0000
0000
0000
0000
0030
0020
0000
0000
0000
0000
0000
0000
0000
0001
0000
0000
0000
0000
0000
0000
0030
0010
0000
0000
0000
0000
0000
0000
0000
0010
0000
0000
0000
0000
0000
0000
0000
,
1000
1000
0100
0100
2200
3300
2000
3200
,
0320
0000
0032
0203
0320
0000
2030
0000
,
3040
4030
3400
0340
0034
0403
0340
4030
3400
0340
0034
0403
0340
4030
3004
4003
,
3004
4003
3004
0403
0304
0403
0304
0403
0301
0000
0001
0000
0100
0000
0100
0000
,
0020
1030
0200
0310
0001
0010
0200
0310
,
0001
0100
0020
1030
0004
0000
0023
0000
,
0430
0000
1300
0100
1100
1100
0110
0110
,
0011
0000
0011
0000
1001
0000
1001
0000
1000
0010
1000
0001
0100
0001
1000
0100
,
0010
0001
1000
0100
0010
0001
0010
0100
1000
0000
0010
0000
2000
0000
3002
0000
,
0023
2030
3020
0032
0103
0010
1000
0100
,
1000
0010
0100
0001
4000
0000
3020
0230
,
2300
3200
0302
0023
0130
1000
0010
0100
,
0010
1000
0100
0010
0004
0000
1003
2000
,
3200
0302
0203
2300
3040
0000
0430
0000
,
0304
0000
0043
0000
0230
0000
2300
3002
,
2003
0000
3020
0000
2030
0000
3002
0000
1003
0010
1000
0010
0100
0001
0010
0100
,
1000
0001
0010
0001
0010
0100
1000
0001
2M00
0000
3010
0000
0100
0000
0002
0000
,
0203
2300
3200
0302
0013
0100
0010
0001
,
0010
0100
1000
0100
0010
0100
4000
0000
,
3020
0032
2003
3200
0301
0010
0100
1000
,
0001
0010
0100
1000
0010
0100
0001
2000
,
3200
0302
2003
3020
0034
0000
0043
0000
,
0430
0000
4300
0000
3020
0000
0230
0302
,
0023
2030
3020
0032
0013
0010
0100
0100
,
4000
0000
0000
0000
0000
0000
0000
0000
3400
0000
0000
0000
0000
0000
0000
0300
1100
0000
0000
0000
0100
0000
0000
0000
0110
0000
0000
0000
0110
0000
0000
0000
,
0010
0001
0101
0101
0100
0010
1010
1010
,
2000
0000
3200
0000
0310
0001
0011
0011
,
0001
1000
1001
1001
0001
0100
0101
0101
,
0002
0000
0203
0000
0310
1000
1100
1100
,
0100
0010
0011
0011
0001
0100
0110
0110
,
0020
0000
2030
0000
3400
0000
0010
0010
,
0000
0000
0010
0010
0000
0000
0010
0010
,
0000
0000
0010
0010
M310
M000
M000
M000
,
M000
0000
M000
0000
M000
0000
M001
0010
M100
0010
M001
0100
M010
0100
M001
0010
,
M100
0010
M001
0100
M010
0100
M001
0010
0001
0000
0100
0000
0002
0000
2003
0000
,
3020
1030
0200
2300
3010
0100
0001
0010
,
0001
0100
0010
1000
0004
0000
0203
0320
,
0032
0023
2030
3200
0310
0001
0100
0010
,
0100
0001
0010
0100
4000
0000
3001
0002
,
0023
2030
3020
0032
4003
0000
3004
0000
,
4003
0000
3400
0000
0320
0000
0031
1000
,
0001
0000
0100
0000
0001
0000
1000
0000
0001
0010
0100
1000
0001
0010
0100
1000
,
0001
0100
0010
1000
0001
0100
0010
1000
00M2
0000
0103
0000
0010
0000
2000
0000
,
3020
0032
0023
2030
3100
0010
0100
1000
,
0100
0010
0004
0000
0000
0000
2003
3200
,
0302
2003
3020
0032
1003
0100
0010
0010
,
0001
0001
0100
0100
0020
0000
0000
2030
,
3200
0302
0203
2300
304M
000M
403M
000M
,
340M
000M
034M
000M
013M
010M
001M
001M
,
010M
010M
100M
100M
110M
110M
011M
011M
,
110M
0000
110M
0000
011M
0000
011M
0000
0100
1000
0100
1000
0100
1000
0100
1000
,
0100
1000
0100
1000
0100
1000
0100
1000
0100
1000
0100
1000
0100
1000
0100
1000
,
0001
1000
0001
1000
0001
1000
0001
1000
0010
1000
0010
1000
0010
1000
0010
1000
,
0010
1000
0010
1000
0010
1000
0010
1000
0010
1000
0010
1000
0010
1000
0010
1000
,
0010
0000
0010
0000
1000
0000
1000
0000
0001
0100
0001
0100
0001
0100
0001
0100
,
0001
0100
0001
0100
0001
0100
0001
0100
0001
0100
0001
0100
0001
0100
0001
0100
,
0010
0100
0010
0100
0010
0100
0010
0100
0010
1000
0010
1000
0100
0010
0001
1000
,
0001
0000
0001
0000
0100
0000
0100
0000
0001
0100
0010
1000
0001
1000
0001
0010
,
0100
1000
0100
0010
0001
0100
0001
0100
0002
0000
0103
0000
0010
0000
2000
0000
,
3002
2003
3002
2003
3001
0010
0100
1000
,
0100
0010
0004
0000
0000
0003
0020
0230
,
0320
0230
0320
0032
1003
0100
0110
0010
,
0110
0100
1100
1000
0100
0010
0002
0023
,
2030
3020
0032
1003
4000
0000
3400
0000
,
0304
0000
0403
0000
4300
0000
3200
0340
,
0000
0000
0000
0000
0000
0000
0000
0000
0031
0010
0100
0010
0001
0100
0010
1000
,
0100
0010
0100
1000
0100
0010
0001
1000
0MM2
0000
0MM0
0000
0MM0
0000
0MM0
0000
,
0MM0
0000
0MM0
0000
0MM0
0000
0MM0
0003
0000
0000
0000
0000
0000
0000
0000
0000
;
