#TITLE:Partyhardon;
#SUBTITLE:;
#ARTIST:Kojan;
#TITLETRANSLIT:;
#SUBTITLETRANSLIT:;
#ARTISTTRANSLIT:;
#CREDIT:Happy Feet;
#BANNER:../speedcore rejects ban.png;
#BACKGROUND:../speedcore rejects bg.png;
#LYRICSPATH:;
#CDTITLE:;
#MUSIC:PARTYHARDON.ogg;
#OFFSET:0.000;
#SAMPLESTART:0.020;
#SAMPLELENGTH:12.000;
#SELECTABLE:YES;
#BPMS:0.000=222.001;
#STOPS:;
#BGCHANGES:;
// cache tags:
#FIRSTBEAT:0.000;
#LASTBEAT:391.500;
#SONGFILENAME:Songs/Speedcore Rejects/Partyhardon - [Happy Feet!]/PARTYHARDON.sm;
#HASMUSIC:1;
#HASBANNER:1;
#MUSICLENGTH:105.881;
// end cache tags

//---------------dance-single - Blank----------------
#NOTES:
     dance-single:
     Blank:
     Challenge:
     14:
     1.000,1.000,0.652,0.359,1.000,793.000,69.000,38.000,147.000,15.000:

1000
0100
0010
0001
0010
0100
1000
0100
,
1000
0010
0100
0001
1000
0010
0100
0001
,
1000
0001
0010
0100
1000
0001
0100
0010
,
1000
0100
1000
0001
0010
0001
0010
0100
,
0010
0100
1000
0001
1000
0010
0100
0010
,
1000
0100
0010
0001
1000
0010
0100
0010
,
1000
0100
0010
0001
1000
0001
0100
0010
,
0100
0001
0010
0100
0010
0001
1000
0010
,
0100
0010
1000
0100
1000
0001
0010
0001
,
1000
0001
0100
0010
1000
0001
0010
0100
,
1000
0010
0100
0010
1000
0001
0010
0001
,
1000
0000
0002
0000
0203
M000
00M0
M000
,
000M
0000
M000
0000
00M0
0000
000M
0000
M00M
0000
00M0
0000
M000
00M0
000M
M000
,
03M1
0100
0100
1000
0100
0100
0001
0100
,
0100
1000
0100
0100
1001
0000
0011
0000
,
0001
0100
0100
1000
0100
0100
0001
0100
,
0100
1000
0100
0100
1001
0000
1010
0000
,
0001
0100
0100
1000
0100
0100
0001
0100
,
0100
1000
0100
0100
1001
0000
0101
0000
,
0001
0100
0100
1000
0100
0100
0001
0100
,
0100
1000
0100
0100
1001
0000
1100
0000
,
M0M1
0100
0001
M01M
0100
1000
0010
0100
,
0001
1000
0200
0000
1300
0000
0011
0000
,
M0M1
0100
0010
10MM
0100
1000
0010
0100
,
0001
0010
0200
0000
0310
0000
1100
0000
,
1M0M
0010
0100
0M1M
1000
0100
1000
0001
,
0010
0001
2000
0000
3100
0000
0011
0000
,
2000
0000
3020
0000
0230
0000
0000
0310
,
0000
0010
2000
0000
3002
0000
1113
0000
,
0011
0000
0001
0000
1000
0000
1001
0000
0001
0000
0100
0000
0010
1000
0001
0000
,
0101
0000
0100
0000
0010
0000
1010
0000
1000
0100
0010
0001
1000
0001
1000
0010
,
1000
0001
0100
0001
1000
0000
0010
0100
0001
0100
0001
0000
1000
0100
1000
0001
,
1000
0000
0000
0000
0000
0000
0000
0000
0010
0000
0000
0000
0000
0000
0000
0000
0100
0000
0000
0000
0000
0000
0000
0000
0010
0000
0000
0000
1000
0000
0000
0000
0200
0000
0000
0000
0000
0000
0000
0000
0000
0000
0000
0000
0000
0000
0000
0000
2302
0000
0000
0000
0000
0000
0000
0000
0000
0000
0000
0000
0000
0000
0000
3003
,
0101
0000
0001
0000
1000
0000
1010
0000
0010
0100
0001
1000
0001
0000
1001
0000
,
1000
0100
0110
0010
0001
100M
M001
100M
,
0001
0000
0010
0000
0011
0000
0001
1000
0100
1000
0001
0010
0001
0000
1000
0000
,
0222
0000
0000
0000
0000
0000
0000
0000
0000
0000
0000
0000
0000
0000
0000
0333
2220
0000
0000
0000
0000
0000
0000
0000
0000
0000
0000
0000
0000
0000
0000
3330
0012
0000
0000
0000
0000
0000
0000
0000
2103
0000
0000
0000
0000
0000
0000
0000
3012
0000
0000
0000
0000
0000
0000
0000
2103
0000
0000
0000
0000
0000
0000
0000
,
3001
0000
1000
0000
1100
0000
0100
1000
0001
0000
0101
0000
0100
0010
1000
0000
,
0100
0000
0010
0000
0011
0000
0001
0000
1000
0100
1000
0100
0010
0001
1000
0001
,
0100
0010
0100
0001
1000
0000
0010
0100
0001
0100
0001
0000
1000
0001
0100
0001
,
1000
0000
0000
0000
0000
0000
0000
0000
0100
0000
0000
0000
0000
0000
0000
0000
1000
0000
0000
0000
0000
0000
0000
0000
0010
0000
0000
0000
0100
0000
0000
0000
0002
0000
0000
0000
0000
0000
0000
0000
0000
0000
0000
0000
0000
0000
0000
0003
2002
0000
0000
0000
0000
0000
0000
0000
0000
0000
0000
0000
0000
0000
0000
3003
,
1100
0000
1000
0000
1001
0000
0001
0000
0101
0000
0100
0010
1000
0000
1001
0000
,
0001
1000
1100
0001
0400
0304
4003
3040
,
0130
0000
0001
0000
1001
0000
1000
0001
1000
0010
0100
0001
0100
0000
0110
0000
,
0021
1230
0321
1230
0321
1230
0321
1230
,
0321
0000
0000
0000
0000
0000
0000
0000
000M
0000
0000
0000
003M
000M
000M
000M
,
000M
000M
000M
000M
000M
000M
000M
000M
000M
0000
000M
0000
000M
0000
000M
0000
,
000M
0000
0000
0000
,
0000
0000
0000
0000
M000
0000
M000
0000
M000
M000
M000
M000
M000
M000
M000
M000
,
M000
M000
M000
M000
M000
M000
M000
0000
,
0000
0000
0000
0000
,
00M0
0000
00M0
0000
00M0
00M0
00M0
00M0
00M0
00M0
00M0
00M0
00M0
00M0
00M0
00M0
,
M0M0
M000
M000
M000
M00M
000M
000M
000M
000M
000M
000M
000M
000M
000M
000M
000M
,
0M0M
0M00
0M00
0M00
0M00
0M00
0M00
0M00
0M00
0M00
0M00
0M00
0MM0
00M0
00M0
00M0
,
00M0
00M0
00M0
00M0
00M0
0M00
0M00
0M00
0M00
0M00
0M00
0M00
0M00
0M00
0M00
0M00
,
0M00
0M00
0M00
2M02
0000
0000
0000
0000
3003
0000
0000
0000
0000
0000
0000
0000
,
1000
0000
0001
0000
0100
0000
0001
0000
0000
1000
0000
0000
0010
0000
0100
0000
0010
0000
1000
0000
0000
0001
0000
0000
,
1000
0000
0100
0000
0010
0000
0001
0000
0000
0010
0000
0000
0100
0000
0010
0000
0001
0000
1000
0000
0000
0100
0000
0000
,
0010
0000
0001
0000
1000
0000
0001
0000
0000
0100
0000
0000
0010
0000
1000
0000
0001
0000
0010
0000
0000
0100
0000
0000
,
1000
0000
0100
0000
1000
0000
0001
0000
0000
0100
0000
0000
0010
0000
1000
0000
0001
0000
0010
0000
0000
0100
0000
0000
,
1000
0001
1000
0001
1000
0000
0010
0000
0100
0001
0100
0001
0100
0000
0010
0000
,
1000
0100
1000
0100
1000
0000
0001
0000
0010
0100
0010
0100
0010
0000
0100
0000
,
1000
0001
1000
0001
1000
0000
0010
0000
0100
0001
0100
0001
0100
0000
0010
0000
,
1000
0100
1000
0100
1000
0000
0001
0000
0010
0100
0010
0100
0040
0000
0000
0000
,
0000
0000
0000
0000
0000
0000
0000
0000
0000
0000
0000
0000
0000
0000
0000
0030
,
1100
0100
1000
1001
0001
0100
0001
0010
,
0011
0001
0100
0110
0010
1000
0001
1000
,
1010
0010
0100
0110
0010
1000
0001
0100
,
0101
0001
1000
1010
0010
0100
0101
0001
,
1001
1000
0001
0101
0100
0010
0100
0001
,
0011
0010
0001
1001
1000
0001
0100
0010
,
0110
0100
0001
0011
0010
0001
1000
0100
,
1100
0000
0000
1000
0000
0000
0001
0000
0000
1001
0000
0000
1000
0000
0000
0004
0400
0000
0000
0000
0000
0000
0000
0003
,
0310
0000
0100
0000
0010
0000
1000
0000
0100
0000
0010
0000
0100
1000
0100
0000
,
1000
0000
0001
0000
1000
0000
0010
0000
0100
0000
0010
0100
0010
0000
1000
0001
,
1000
0000
0001
0000
0010
0000
0100
0000
1000
0000
0010
0100
0010
0000
1000
0000
,
0100
0000
0010
0000
0100
0000
1000
0000
0001
1000
0001
1000
0001
0000
0100
0000
,
0010
0000
0100
0000
0001
0000
0010
0000
0001
0000
1000
0000
0001
0100
0001
0000
,
0100
0000
0001
0000
0010
0000
0001
0000
1000
0000
0001
1000
0001
0000
1000
0100
,
1000
0000
0100
0000
0010
0000
0100
0000
1000
0000
0001
0010
0001
0000
1000
0000
,
0100
1000
0001
1000
0001
0000
1000
0000
0100
0000
0000
0000
1100
0000
0000
0000
,
0001
0010
0001
0010
0100
1000
0001
1000
0001
0010
0100
0010
0001
1000
0100
0010
,
0001
1000
0001
1000
0001
0100
0010
1000
0001
1000
0001
0100
0010
0100
0001
1000
,
0100
1000
0001
1000
0001
0100
0010
1000
0100
0010
0001
1000
0001
0010
0100
0010
,
0001
010M
0M10
10M0
M100
0M10
00M1
0000
,
1000
0001
0010
0100
1000
0001
1000
0100
0010
0001
0010
0001
1000
0001
0100
0001
,
1000
0100
1000
0001
1000
0100
0010
0001
0010
0001
1000
0100
0010
0100
1000
0001
,
1000
0001
0100
0001
1000
0010
1000
0001
1000
0010
0100
0001
1000
0001
0100
0001
,
0100
0M10
01M0
0M01
100M
M001
001M
0000
,
0100
1000
0100
1000
0001
1000
0010
0100
0001
1000
0010
0100
0001
1000
0001
0010
,
0100
1000
0001
1000
0100
1000
0001
0010
0001
0010
0100
0010
0001
1000
0001
1000
,
0001
0100
0010
1000
0001
1000
0010
0100
0010
1000
0010
1000
0001
1000
0001
0010
,
0001
1000
0010
0100
0010
1000
0010
1000
0001
1000
0100
0010
0001
1000
0001
1000
,
0001
0100
0001
0000
1000
0100
1000
0000
0010
0100
0010
0000
1000
0001
1000
0000
,
0001
0010
0001
0000
1000
0100
1000
0000
0010
0100
0010
0000
0100
0001
0100
0000
,
0001
0010
0001
0000
1000
0100
1000
0000
0001
1000
0001
0000
0100
0001
0100
0000
,
0010
1000
0010
0000
1000
0100
1000
0000
0001
1000
0001
0000
0010
0001
0010
0001
,
0020
0000
0000
0000
0000
0000
0000
0030
;
