#TITLE:Mmmmmmm;
#SUBTITLE:;
#ARTIST:DJ Sharpnel;
#TITLETRANSLIT:;
#SUBTITLETRANSLIT:;
#ARTISTTRANSLIT:;
#CREDIT:;
#BANNER:mmmmmmmm bn.png;
#BACKGROUND:mmmmmmmm bg.png;
#LYRICSPATH:;
#CDTITLE:;
#MUSIC:Mmmmmmm.ogg;
#OFFSET:0.215;
#SAMPLESTART:57.959;
#SAMPLELENGTH:19.906;
#SELECTABLE:YES;
#DISPLAYBPM:193.000;
#BPMS:0.000=192.900,316.000=96.450,332.000=192.900,396.000=96.450,400.000=192.900,528.000=96.450,530.000=192.900;
#STOPS:;
#BGCHANGES:;
// cache tags:
#FIRSTBEAT:8.000;
#LASTBEAT:823.000;
#SONGFILENAME:Songs/SHARPNELSTREAMZ v2/Mmmmmmm/Mmmmmmm.sm;
#HASMUSIC:1;
#HASBANNER:1;
#MUSICLENGTH:264.128;
// end cache tags

//---------------dance-single - 15 (TYLR)----------------
#NOTES:
     dance-single:
     15 (TYLR):
     Challenge:
     15:
     1.000,1.000,0.265,0.102,1.000,2604.000,70.000,27.000,21.000,2.000:
0000
0000
0000
0000
,
0000
0000
0000
0000
,
1001
0000
0001
0000
0010
0000
0100
1000
0001
0000
1000
0000
0010
0000
0100
0000
,
0001
0000
1000
0000
0100
0000
0010
0001
0010
0000
0100
0000
1000
0000
1000
0000
,
0001
0000
0100
0000
0010
0000
1000
0001
0010
0000
0100
0000
1000
0000
0001
1000
,
0001
0100
0010
1000
0001
1000
0010
0100
0001
1000
0001
1000
0001
0000
1000
0001
,
0010
0000
0100
0000
1000
0000
0010
0100
0001
0000
1000
0000
0001
0000
0010
0000
,
0100
0000
1000
0000
0100
0000
0010
0001
1000
0001
0100
0010
1000
0010
0100
0001
,
0020
0030
0020
0000
0000
0000
0000
0000
,
0130
0000
0000
1000
0000
0000
0100
0000
0000
0000
0000
0000
0010
0000
0000
0001
0000
0000
0010
0000
0000
0000
0000
0000
0001
0000
1000
0000
0001
0000
1000
0000
0001
0000
1000
0000
0004
0000
0000
0000
0000
0000
0000
0000
0000
0000
0000
0000
,
1003
0100
0010
0001
1000
0001
0010
0100
1000
0100
0010
0001
1000
0001
1000
0001
,
0100
0010
0100
0001
1000
0010
0100
0010
1000
0001
0100
0001
1000
0001
1000
0001
,
1000
0100
0010
0001
1000
0001
0010
0100
1000
0001
1000
0001
1000
0010
0100
0001
,
1000
0001
1000
0001
0100
0001
1000
0001
0010
0100
0010
0100
1000
0000
0010
0100
,
0001
1000
0010
0100
0001
0100
0010
1000
0001
1000
0001
1000
0001
0010
0100
1000
,
0001
1000
0001
1000
0010
0100
0001
0100
0010
1000
0001
1000
0001
0010
0100
1000
,
0010
1000
0001
0100
0010
1000
0010
1000
0010
1000
0010
1000
0010
1000
0010
1000
,
0001
0000
0000
0010
0000
0000
0100
0000
0000
0000
0000
0000
1000
0000
0000
0010
0000
0000
0100
0000
0000
0000
0000
0000
0001
0000
1000
0000
0001
0000
1000
0000
0001
0000
1000
0000
0004
0000
0000
0000
0000
0000
0000
0000
0000
0000
0000
0000
,
1003
0100
0010
0001
1000
0001
0010
0100
1000
0001
1000
0010
0100
0010
1000
0001
,
0010
0100
0010
0001
1000
0001
0010
0100
1000
0001
1000
0010
0100
0001
0100
0010
,
1000
0100
0010
0100
1000
0100
0010
0001
1000
0010
1000
0010
0100
0001
1000
0001
,
0010
0100
0010
0001
1000
0100
0010
0001
1000
0001
1000
0001
1000
0000
0001
1000
,
0010
0100
0001
0100
0010
1000
0001
1000
0001
0010
0100
0010
0001
1000
0100
1000
,
0001
1000
0010
1000
0001
1000
0010
1000
0100
0010
0100
1000
0010
0100
0010
1000
,
0001
0010
0100
0010
0001
0010
0100
1000
0001
0100
0001
0100
0010
1000
0001
1000
,
0100
0000
0000
0010
0000
0000
0100
0000
0000
1000
0000
0000
0001
0000
0000
0010
0000
0000
0100
0000
0000
1000
0000
0000
0001
0000
1000
0000
0001
0000
1000
0000
0001
0000
1000
0000
0001
0000
0000
0000
0000
0000
0000
0000
0000
0000
0000
0000
,
1001
0000
0000
0000
1001
0000
0000
0000
1001
0000
0001
1000
0001
0000
0010
0000
,
0100
0000
0010
0000
0001
1000
0001
1000
0001
0000
0100
0000
0001
0000
0010
0000
,
0100
0000
1000
0000
0100
0000
0010
0000
0001
1000
0001
1000
0001
0000
0200
0000
,
0000
0000
0000
0000
0310
0000
0000
0000
0100
0001
0100
0001
0100
0000
0010
1000
,
0001
1000
0001
0010
0100
1000
0100
0010
,
0001
1000
0001
0100
0010
1000
0001
0010
,
0100
1000
0010
0100
0001
1000
0100
1000
0010
0100
0001
1000
0100
1000
0010
0100
,
0001
0000
0000
1000
0000
0000
0001
0000
0000
0010
0000
0000
0100
0000
0000
1000
0000
0000
0100
0000
0000
0010
0000
0000
0001
0000
1000
0000
0001
0000
1000
0000
0001
0000
1000
0000
0001
0000
0000
0000
0000
0000
1000
0000
0000
0000
0000
0000
,
1010
0000
0000
1010
0000
0000
1010
0000
0000
0000
1000
0000
0100
0000
0010
0000
,
0011
0000
0000
0011
0000
0000
0011
0000
0000
0000
1000
0000
0010
0000
0200
0000
,
0000
0302
0000
2003
0000
3200
0000
0320
,
0000
0000
0230
0000
0000
0000
1300
0000
0010
1000
0010
1000
0010
0000
0100
0001
,
1000
0000
0000
1000
0000
0000
1000
0000
0001
0000
0010
0000
0100
0000
2000
0000
,
0000
3020
0000
2030
0000
3200
0000
0320
,
0001
0000
0000
0001
0000
0000
0031
0000
1000
0000
0010
0000
0100
0000
0002
0000
,
0000
0000
0023
0000
0000
0000
0031
0000
0100
0001
0100
0001
0100
0000
0010
1000
,
0001
0000
1000
0000
0001
0000
1000
0000
0001
0000
1000
0000
0001
0000
0000
0000
0000
0000
1000
0000
0000
0000
0000
0000
0100
0000
0000
0000
0000
0000
0010
0000
0000
0000
0000
0000
0000
0000
0000
0001
0000
0000
0000
0000
0000
0001
0000
0000
,
0100
0000
0000
0000
0000
0000
0010
0000
1000
0000
0010
0000
0100
0000
0000
0000
0000
0000
0001
0000
0000
0000
0000
0000
1000
0000
0100
0000
1000
0000
0100
0000
0000
0000
0000
0000
0010
0000
0001
0000
0010
0000
0004
0000
0000
0000
0000
0003
,
1000
0000
0001
0000
1000
0000
0001
0000
1000
0000
0001
0000
1000
0000
0000
0000
0000
0000
0001
0000
0000
0000
0000
0000
0100
0000
0000
0000
0000
0000
0001
0000
0000
0000
0000
0000
0000
0000
0000
1000
0000
0000
0000
0000
0000
1000
0000
0000
,
0100
0000
0000
0010
0001
0010
0001
0000
0000
1000
0000
0000
0001
0100
0001
0100
0000
0000
0010
1000
0010
4000
0000
0000
,
300M
000M
1111
4000
,
3001
0010
0100
1000
0001
0010
0001
1000
0001
0100
0001
0100
0010
1000
0001
1000
,
0100
0010
0100
0010
0001
1000
0100
0010
0001
1000
0001
0010
0100
1000
0001
1000
,
0001
0100
0010
1000
0001
0100
0001
0100
0010
1000
0010
1000
0001
1000
0010
0100
,
0001
0010
0001
0010
0100
1000
0001
0010
0100
1000
0100
1000
0001
0000
1000
0001
,
1000
0010
0100
0001
1000
0010
1000
0001
1000
0100
1000
0100
0010
0001
1000
0001
,
0100
0010
0100
0010
1000
0001
0100
0010
1000
0001
1000
0010
0100
0001
1000
0001
,
1000
0100
0010
0001
1000
0100
1000
0100
0010
0001
0010
0001
1000
0001
0010
0100
,
1000
0000
0000
0010
0000
0000
1000
0000
0000
0010
0000
0000
0100
0000
0000
0001
0000
0000
1000
0000
0000
0001
0000
0000
0010
0000
0000
0100
0000
0000
0010
0000
0000
0100
0000
0000
1000
0000
0100
0000
1000
0000
0100
0000
1000
0000
0100
0000
,
1000
0001
0010
0001
1000
0100
0010
0100
,
1000
0001
0100
0001
1000
0010
0100
0100
,
0001
1000
0100
0010
0100
1000
0010
0100
,
0010
0000
1000
0000
0001
0000
0010
0000
0100
1000
0100
1000
0001
0000
1000
0001
,
0100
0000
0101
1010
1001
1001
1100
0011
,
1001
1001
0101
1001
0000
1001
1100
0110
,
0011
0001
0010
0001
0100
0100
0010
1000
,
0001
0000
1000
0000
0001
0000
1000
0000
0001
0000
1000
0000
0001
0000
0000
0000
0000
0000
1000
0000
0000
0000
0000
0000
0001
0000
0000
0010
0000
0000
0001
0000
0000
0010
0000
0000
0400
0000
0000
4000
0000
0000
0000
0000
0000
0300
0000
0000
,
3001
0010
0100
1000
0001
1000
0100
0010
0001
0010
0100
1000
0001
1000
0001
1000
,
0010
0100
0010
1000
0001
0100
0010
0100
0001
1000
0010
1000
0001
1000
0001
1000
,
0001
0010
0100
1000
0001
1000
0100
0010
0001
1000
0001
1000
0001
0100
0010
1000
,
0001
1000
0001
1000
0010
1000
0001
1000
0100
0010
0100
0010
0001
0000
0100
0010
,
1000
0001
0100
0010
1000
0010
0100
0001
1000
0001
1000
0001
1000
0100
0010
0001
,
1000
0001
1000
0001
0100
0010
1000
0010
0100
0001
1000
0001
1000
0100
0010
0001
,
0100
0001
1000
0010
0100
0001
0100
0001
0100
0001
0100
0001
0100
0001
0100
0001
,
1000
0000
0000
0100
0000
0000
0010
0000
0000
0000
0000
0000
0001
0000
0000
0100
0000
0000
0010
0000
0000
0000
0000
0000
1000
0000
0001
0000
1000
0000
0001
0000
1000
0000
0001
0000
4000
0000
0000
0000
0000
0000
0000
0000
0000
0000
0000
0000
,
3001
0100
0010
1000
0001
1000
0010
0100
0001
0100
0010
1000
0001
1000
0001
1000
,
0100
0010
0100
1000
0001
0010
0100
0010
0001
1000
0100
1000
0001
1000
0001
1000
,
0001
0100
0010
1000
0001
1000
0010
0100
0001
1000
0001
1000
0001
0010
0100
1000
,
0001
1000
0001
1000
0100
1000
0001
1000
0010
0100
0010
0100
0001
0000
0010
0100
,
1000
0001
0010
0100
1000
0100
0010
0001
1000
0001
1000
0001
1000
0010
0100
0001
,
1000
0001
1000
0001
0010
0100
1000
0100
0010
0001
1000
0001
1000
0010
0100
0001
,
0010
0001
1000
0100
0010
0001
0010
0001
0010
0001
0010
0001
0010
0001
0010
0001
,
1000
0000
0000
0010
0000
0000
0100
0000
0000
0001
0000
0000
1000
0000
0000
0010
0000
0000
0100
0000
0000
0001
0000
0000
1000
0000
0001
0000
1000
0000
0001
0000
1000
0000
0001
0000
4000
0000
0000
0000
0000
0000
0000
0000
0000
0000
0000
0000
,
30M2
M000
0M00
00M0
,
M000
0000
0000
0000
0M00
0000
0013
0000
M200
0000
0000
0300
020M
0000
0000
0000
,
23M0
000M
0M00
000M
,
30M1
0100
0001
0100
0010
1000
0010
1000
0001
1000
0001
0010
0100
1000
0100
0010
0001
1000
0001
0100
0010
1000
0001
1000
0100
0010
0001
0100
0010
1000
0001
0010
,
0200
0000
0300
1000
0000
0000
0001
0000
0000
0100
0000
0000
0010
0000
1000
0000
,
0001
0000
0000
0010
0000
0000
0100
0000
0000
1000
0000
0000
0001
0000
0100
0000
,
0010
0000
0000
1000
0000
0000
0001
0000
0000
0010
0000
0000
0100
0000
1000
0000
,
0001
0000
0000
0100
0000
0000
0010
0000
0000
1000
0000
0000
0100
0000
0010
0000
,
0001
0000
0000
1000
0000
0000
0010
0000
0000
0100
0000
0000
0001
0000
0010
0000
,
0100
0000
0000
1000
0000
0000
0001
0000
0000
0100
0000
0000
0010
0000
1000
0000
,
0100
0000
0000
0010
0000
0000
0001
0000
0000
1000
0000
0000
0010
0000
0100
0000
,
0001
0000
0000
1000
0000
0000
0100
0000
0010
0000
0000
0001
1000
0010
1000
0010
,
0200
0000
0300
0001
0000
0000
0010
0000
0000
0100
0000
0000
1000
0000
0010
0100
,
0001
0000
0000
1000
0000
0000
0100
0000
0000
0010
0000
0000
0001
0000
1000
0010
,
0100
0000
0000
0001
0000
0000
1000
0000
0000
0100
0000
0000
0010
0000
0001
1000
,
0010
0000
0000
0100
0000
0000
0001
0000
0000
1000
0000
0000
0100
0000
0010
0001
,
2000
0000
3000
0010
0000
0000
0100
0000
0000
0001
0000
0000
0010
0000
0100
1000
,
0001
0000
0000
0100
0000
0000
0010
0000
0000
1000
0000
0000
0100
0000
0010
0001
,
0100
0000
0000
0010
0000
0000
1000
0000
0000
0001
0000
0000
0010
0000
0100
1000
,
0001
0000
0000
0100
0000
0000
0010
0000
0000
1000
0000
0000
0001
0000
0010
0100
,
200M
0000
0000
0000
0000
0000
0000
0000
0000
0000
0000
0000
0000
0000
0000
0000
3000
0000
0000
0000
0000
0000
0000
0000
0001
1000
0001
1000
0001
1000
0001
1000
,
0001
0100
0001
1000
0100
1000
0001
0010
0001
1000
0001
1000
0100
1000
0010
0100
,
0001
0010
0001
1000
0010
1000
0001
0100
0001
1000
0001
1000
0010
1000
0100
0010
,
0001
0100
0001
1000
0100
1000
0001
0010
0001
1000
0001
1000
0100
1000
0010
0100
,
0001
0010
0001
1000
0010
1000
0001
0100
0001
1000
0001
1000
0001
0000
0010
0100
,
1000
0100
1000
0001
0100
0001
1000
0010
1000
0001
1000
0001
0100
0001
0010
0100
,
1000
0010
1000
0001
0010
0001
1000
0100
1000
0001
1000
0001
0010
0001
0100
0010
,
1000
0100
1000
0001
0100
0001
1000
0010
1000
0001
1000
0001
0100
0001
0010
0100
,
1000
0000
0000
0010
0000
0000
0100
0000
0000
0000
0000
0000
0001
0000
0000
0010
0000
0000
0100
0000
0000
0000
0000
0000
1000
0000
0000
0001
0000
0000
0100
0000
0000
0010
0000
0000
1000
0000
0001
0000
1000
0000
0001
0000
1000
0000
0001
0000
,
1000
0010
1000
0001
0010
0001
1000
0100
1000
0001
1000
0001
0010
0001
0100
0010
,
1000
0100
1000
0001
0100
0001
1000
0010
1000
0001
1000
0001
0100
0001
0010
0100
,
1000
0010
1000
0001
0010
0001
1000
0100
1000
0001
1000
0001
0010
0001
0100
0010
,
1000
0100
1000
0001
0100
0001
1000
0010
1000
0001
1000
0001
1000
0000
0100
0010
,
0001
0010
0001
1000
0010
1000
0001
0100
0001
1000
0001
1000
0010
1000
0100
0010
,
0001
0100
0001
1000
0100
1000
0001
0010
0001
1000
0001
1000
0100
1000
0010
0100
,
0001
0010
0001
1000
0010
1000
0001
0100
0001
1000
0001
1000
0010
1000
0100
0010
,
0001
0000
0000
0100
0000
0000
0010
0000
0000
0000
0000
0000
1000
0000
0000
0100
0000
0000
0010
0000
0000
0000
0000
0000
0001
0000
0000
1000
0000
0000
0010
0000
0000
0100
0000
0000
0001
0000
1000
0000
0001
0000
1000
0000
0001
0000
1000
0000
,
0001
0100
0001
1000
0100
1000
0001
0010
0001
1000
0001
1000
0100
1000
0010
0100
,
0001
0010
0001
1000
0010
1000
0001
0100
0001
1000
0001
1000
0010
1000
0100
0010
,
0001
0100
0001
1000
0100
1000
0001
0010
0001
1000
0001
1000
0100
1000
0010
0100
,
0001
0010
0001
1000
0010
1000
0001
0100
0001
1000
0001
1000
0001
0000
0010
0100
,
1000
0100
1000
0001
0100
0001
1000
0010
1000
0001
1000
0001
0100
0001
0010
0100
,
1000
0010
1000
0001
0010
0001
1000
0100
1000
0001
1000
0001
0010
0001
0100
0010
,
1000
0100
1000
0001
0100
0001
1000
0010
1000
0001
1000
0001
0100
0001
0010
0100
,
1000
0000
0000
0010
0000
0000
0100
0000
0000
0000
0000
0000
0001
0000
0000
0010
0000
0000
0100
0000
0000
0000
0000
0000
1000
0000
0000
0001
0000
0000
0100
0000
0000
0010
0000
0000
1000
0000
0001
0000
1000
0000
0001
0000
1000
0000
0001
0000
,
1000
0100
1000
0001
0100
0001
1000
0010
1000
0001
1000
0001
0100
0001
0010
0100
,
1000
0010
1000
0001
0010
0001
1000
0100
1000
0001
1000
0001
0010
0001
0100
0010
,
1000
0100
1000
0001
0100
0001
1000
0010
1000
0001
1000
0001
0100
0001
0010
0100
,
1000
0001
1000
0001
1000
0001
1000
0001
1000
0001
1000
0001
1000
0001
1000
0001
1000
0001
1000
0001
1000
0001
1000
0001
,
2000
0010
0001
0100
,
0010
0010
0100
0100
0001
0001
0100
0000
,
0010
0000
0100
0000
0001
0000
0010
3000
,
1000
0001
1000
0100
0010
0001
1000
0010
0100
0001
0010
0100
1000
0010
0100
0001
,
20M0
0000
0000
0000
0000
0000
0000
3000
1MM1
0000
0000
0000
1001
0000
1010
0000
,
1100
1100
0110
0011
1001
1001
0101
1001
,
0000
1001
1100
0110
0011
0001
0010
0001
,
0100
0000
0000
0100
0000
0000
0010
0000
0000
1000
0000
0000
0001
1000
0001
1000
0001
1000
0001
0000
0000
1000
0000
0000
,
0001
0010
0001
0010
0400
4000
0000
0300
3001
0010
0100
1000
0001
1000
0100
0010
,
0001
0010
0100
1000
0001
1000
0001
1000
0010
0100
0010
1000
0001
0100
0010
0100
,
0001
1000
0010
1000
0001
1000
0001
1000
0001
0010
0100
1000
0001
1000
0100
0010
,
0001
1000
0001
1000
0001
0100
0010
1000
0001
1000
0001
1000
0010
1000
0001
1000
,
0100
0010
0100
0010
0001
0000
0100
0010
1000
0001
0100
0010
1000
0010
0100
0001
,
1000
0001
1000
0001
1000
0100
0010
0001
1000
0001
1000
0001
0100
0010
1000
0010
,
0100
0001
1000
0001
1000
0100
0010
0001
0100
0001
1000
0010
0100
0001
0100
0001
,
0100
0001
0100
0001
0100
0001
0100
0001
1000
0100
0010
0000
0001
0100
0010
0000
,
1000
0000
0001
0000
1000
0000
0001
0000
1000
0000
0001
0000
4000
0000
0000
0000
0000
0000
0000
0000
0000
0000
0000
0000
3001
0000
0000
0100
0000
0000
0010
0000
0000
1000
0000
0000
0001
0000
0000
1000
0000
0000
0010
0000
0000
0100
0000
0000
,
0001
0100
0010
1000
0001
1000
0001
1000
0100
0010
0100
1000
0001
0010
0100
0010
,
0001
1000
0100
1000
0001
1000
0001
1000
0001
0100
0010
1000
0001
1000
0010
0100
,
0001
1000
0001
1000
0001
0010
0100
1000
0001
1000
0001
1000
0100
1000
0001
1000
,
0010
0100
0010
0100
0001
0000
0010
0100
1000
0001
0010
0100
1000
0100
0010
0001
,
1000
0001
1000
0001
1000
0010
0100
0001
1000
0001
1000
0001
0010
0100
0010
0001
,
0100
0010
0100
0001
0010
0100
0010
0001
1000
0001
0100
0001
1000
0010
0100
0001
,
1000
0001
1000
0100
1000
0001
1000
0010
0100
0001
1000
0000
0100
1000
0001
0000
,
1000
0001
1000
0001
1000
0001
4000
0000
0000
0000
0000
0000
3001
0000
0000
0100
0000
0000
0001
0000
0000
0010
0000
0000
,
0100
0000
1000
0100
1000
0000
0010
0000
0100
0001
1000
0000
0001
1000
0100
0010
,
0001
0000
1000
0000
0001
1000
0010
0000
0100
0000
0001
0100
0001
0100
0010
0000
,
1000
0001
1000
0001
1000
0000
0100
0000
0110
0000
0000
0000
1100
0000
0000
0000
,
1010
0000
0000
0000
0101
0000
0000
0000
1001
0000
0001
0000
1000
0100
0010
0001
,
1000
0000
0001
1000
0010
0000
0100
0000
0001
0000
1000
0000
0100
0010
0100
0000
,
1000
0100
1000
0001
0100
0010
0100
0001
0010
0001
0100
0010
1000
0001
0010
0001
,
0100
0010
1000
0001
0010
0001
0100
0010
1000
0001
1000
0100
0010
0001
0010
0100
,
1000
0001
1000
0001
1000
0001
1000
0001
1000
0010
0100
0001
1000
0010
0100
0001
,
1000
0010
0100
0001
0010
0100
1000
0001
0100
0010
1000
0001
0100
0010
1000
0001
,
0100
0010
1000
0001
0010
0001
1000
0100
0010
0001
1000
0001
1000
0010
0100
0001
,
1000
0001
1000
0100
0010
0001
0010
0100
1000
0001
0100
0001
1000
0100
0010
0100
,
1000
0001
1000
0001
1000
0000
0001
1000
0010
0100
0001
0100
0010
1000
0001
1000
,
0010
0100
0001
1000
0001
0010
0100
1000
0001
1000
0010
0100
0001
0100
0010
1000
,
0001
0010
0100
0010
0001
0010
0100
1000
0001
1000
0010
1000
0001
1000
0100
1000
,
0001
1000
0010
0100
0001
1000
0001
0010
0100
0010
0001
0100
0010
0100
0001
0010
,
0100
1000
0100
1000
0100
1000
0100
0000
0000
0000
0000
0000
1000
0001
1000
0001
1000
0001
1000
0000
0000
0001
0000
0000
,
0010
0000
0000
0000
0000
0000
0100
0000
0000
0000
0000
0000
0000
0000
0000
1000
0000
0000
0000
0000
0000
1000
0000
0000
0010
0000
0000
0000
0000
0000
0100
0000
0001
0000
0100
0000
0010
0000
0000
0000
0000
0000
1000
0000
0000
0000
0000
0000
,
0001
0000
0010
0000
0001
0000
0010
0000
0000
0000
0000
0000
0100
0000
1000
0000
0100
0000
4000
0000
0000
0000
0000
3000
0001
0000
1000
0000
0001
0000
1000
0000
0001
0000
1000
0000
0001
0000
0000
0000
0000
0000
1000
0000
0000
0000
0000
0000
,
0010
0000
0000
0000
0000
0000
1000
0000
0000
0000
0000
0000
0000
0000
0000
0001
0000
0000
0000
0000
0000
0001
0000
0000
0010
0000
0000
0000
0000
0000
0100
0000
1000
0000
0100
0000
1000
0000
0000
0000
0000
0000
0001
0000
0000
0000
0000
0000
,
1000
0010
1000
0010
0000
0000
0100
0001
0100
0004
0000
0000
M003
0000
0000
0000
0000
0000
M000
0000
0000
0000
0000
0000
,
1111
0000
0000
0000
0004
0000
0000
0000
1003
0100
0010
0001
1000
0100
1000
0001
,
1000
0010
1000
0010
0100
0001
1000
0001
0010
0100
0010
0100
1000
0001
0010
0100
,
1000
0001
1000
0100
0010
0001
1000
0001
1000
0010
0100
0001
1000
0010
1000
0010
,
0100
0001
0100
0001
1000
0001
0100
0010
1000
0100
1000
0100
0010
0100
1000
0001
,
1000
0000
0001
0000
1000
0000
0001
0000
1000
0000
0001
0000
1000
0000
0000
0000
0000
0000
0000
0000
0000
0000
0000
0000
0001
0000
0000
1000
0000
0000
0010
0000
0000
1000
0000
0000
0001
0000
0000
0100
0000
0000
0001
0000
0000
1000
0000
0000
,
0001
0010
0001
0010
0100
1000
0001
1000
0010
0100
0010
0100
0001
1000
0010
0100
,
0001
1000
0001
0100
0010
1000
0001
1000
0001
0010
0100
1000
0001
0010
0001
0010
,
0100
1000
0100
1000
0001
1000
0100
0010
0001
0100
0001
0100
0010
1000
0001
0010
,
0100
0000
0000
1000
0000
0000
0100
0000
0000
1000
0000
0000
0001
0000
1000
0000
0001
0000
1000
0000
0001
0000
1000
0000
0001
0000
0000
0010
0000
0000
0100
0000
0000
1000
0000
0000
0001
0000
0000
0010
0000
0000
0001
0000
0000
1000
0000
0000
,
0001
0100
0001
0100
0010
1000
0001
1000
0100
0010
0100
0010
0001
1000
0100
0010
,
0001
1000
0001
0010
0100
1000
0001
1000
0001
0100
0010
1000
0001
0100
0001
0100
,
0010
1000
0010
1000
0001
1000
0010
0100
0001
0010
0001
0010
0100
0010
0001
1000
,
0001
0100
0001
0100
0001
0000
0010
0100
1000
0001
0100
0001
1000
0010
1000
0001
,
1000
0100
1000
0100
0010
0001
1000
0001
0100
0010
0100
0010
1000
0001
0100
0010
,
1000
0001
1000
0010
0100
0001
1000
0001
1000
0100
0010
0001
1000
0100
1000
0100
,
0010
0001
0010
0001
1000
0001
0010
0100
1000
0010
1000
0010
0100
0001
0100
0010
,
1000
0000
0001
0000
1000
0000
0001
0000
1000
0000
0001
0000
1000
0000
0000
0000
0000
0000
0000
0000
0000
0000
0000
0000
0001
0000
0000
0100
0000
0000
0010
0000
0000
1000
0000
0000
0001
0000
0000
0100
0000
0000
0001
0000
0000
1000
0000
0000
,
0001
0010
0001
0010
0100
1000
0001
1000
0010
0100
0010
0100
0001
1000
0010
0100
,
0001
1000
0001
0100
0010
1000
0001
1000
0001
0010
0100
1000
0001
0010
0001
0010
,
0100
1000
0100
1000
0001
1000
0100
0010
0001
0100
0001
0100
0010
0100
0001
1000
,
0001
0010
0001
0010
0001
0000
0100
0010
1000
0001
0010
0001
1000
0100
1000
0001
,
1000
0010
1000
0010
0100
0001
1000
0001
0010
0100
0010
0100
1000
0001
0010
0100
,
1000
0001
1000
0100
0010
0001
1000
0001
1000
0010
0100
0001
1000
0010
1000
0010
,
0100
0001
0100
0001
1000
0001
0100
0010
1000
0100
1000
0100
0010
0001
0010
0100
,
1000
0001
1000
0001
1000
0001
1000
0000
0000
0001
0000
0000
0100
0000
0000
0001
0000
0000
0010
0000
0000
0100
0000
0000
,
1000
0010
0100
0001
1000
0001
0010
0100
,
1000
0001
0100
0100
0001
1000
0100
0010
,
0100
1000
0010
0100
0010
1000
0001
0010
,
0100
1000
0100
1000
0001
0000
1000
0001
0100
0000
0000
0000
0101
0000
1010
0000
,
1001
1001
1100
0011
1001
1001
1100
1001
,
0000
1001
0101
0110
1010
1000
0010
1000
,
0100
0000
0000
0100
0000
0000
0010
0000
0000
0001
0000
0000
1000
0001
1000
0001
1000
0001
1000
0000
0000
0001
0000
0000
,
1000
0010
1000
0010
0100
0001
0010
0100
2000
0000
0000
0000
3000
0000
0000
0000
;

//---------------dance-single - 13+ (Nappo)----------------
#NOTES:
     dance-single:
     13+ (Nappo):
     Medium:
     13:
     1.000,1.000,0.583,0.235,0.899,1790.000,154.000,62.000,128.000,0.000:
0000
0000
0000
0000
,
0000
0000
0000
0000
,
1MM1
1000
1001
0001
0101
0100
0010
1000
,
0001
1000
0001
2MM2
3003
1000
1000
0001
,
0022
0033
0000
0000
0220
0330
0000
0000
2200
3300
0000
0000
1MM1
0000
0000
0000
,
0001
0000
0001
0000
0100
0000
0100
0000
0010
1000
0010
0100
0001
0000
1000
0100
,
001M
0000
1100
0000
0001
1000
1MM1
0000
,
0001
0100
0001
2000
00M0
3100
0010
0001
,
2M00
0000
00M4
0000
0M00
3000
00M0
0000
,
1003
0000
0000
0100
0000
0000
1000
0000
0000
0000
0000
0000
0001
0000
0000
0010
0000
0000
0001
0000
0000
0000
0000
0000
1000
0000
0001
0000
1000
0000
0001
0000
1000
0000
0001
0000
10M0
0000
0001
0000
1000
0000
0001
0000
1000
0000
0001
0000
,
1000
0001
0101
0100
0110
0010
1000
0100
,
0010
0001
1000
1MM1
0000
1000
0001
1000
,
11M0
0100
0011
0000
0010
0001
0100
0000
,
0001
0000
0100
0000
0010
0000
1000
0000
0001
0100
0001
0100
0010
0000
1000
0100
,
0010
0001
0100
0001
0100
0010
1000
0010
,
1000
0100
1000
0010
1000
0100
0010
0001
,
2M00
0000
00M4
0000
0M00
3000
00M0
0000
,
1003
0000
0000
0100
0000
0000
1000
0000
0000
0000
0000
0000
0001
0000
0000
0100
0000
0000
0010
0000
0000
0000
0000
0000
1000
0000
0001
0000
1000
0000
0001
0000
1000
0000
0001
0000
1M00
0000
0001
0000
1000
0000
0001
0000
1000
0000
0001
0000
,
1000
0010
1000
0010
1000
0100
1000
0100
,
0010
0001
0010
0001
2001
3000
0201
0301
,
M022
0033
0001
0100
0010
1000
0001
1000
,
0100
0000
1000
0000
0100
0000
0010
0000
0001
0010
0100
1000
0001
0000
1000
0010
,
0100
0010
1000
1000
0001
0001
0100
0010
,
1000
0010
0100
0001
0202
0303
2020
3030
,
1001
0000
1000
0100
1000
0010
0100
0001
,
0010
0000
0000
0000
0000
0000
0010
0000
0000
0000
0000
0000
0100
0000
0000
0000
0000
0000
1000
0000
0000
0000
0000
0000
0001
0000
0100
0000
0001
0000
0100
0000
0001
0000
0100
0000
M0M2
0000
0000
0003
0000
0000
0000
0000
0000
0000
0000
0000
,
1001
0000
0000
0000
1100
0000
0000
0000
1000
0001
1000
0001
0100
0000
0100
0000
,
0010
0000
1000
0000
0001
0010
0100
1000
0001
0000
1000
0000
0001
0000
0100
0000
,
0101
0000
0000
0001
0000
0000
1001
0000
0000
1000
0000
0000
0001
0000
0010
0000
0100
0000
1000
0000
0000
0001
0000
0000
,
1000
0000
0001
0000
01M0
0000
0001
0000
1000
0100
0010
0100
1000
0000
0001
0100
,
0010
1000
0001
0100
0010
0100
0010
1000
,
0001
0001
0010
0010
0001
0010
0100
1000
,
0100
0000
1000
0000
0001
0000
1000
0000
0001
1000
0001
1000
0001
1000
0001
1000
,
0001
0000
0000
0100
0000
0000
0010
0000
0000
1000
0000
0000
0001
0000
0000
0010
0000
0000
0100
0000
0000
1000
0000
0000
0001
0000
1000
0000
0001
0000
1000
0000
0001
0000
1000
0000
0001
0000
0000
0000
0000
0000
0000
0000
0000
0000
0000
0000
,
1001
0000
0000
1100
0000
0000
1100
0000
0000
0000
1000
0000
0001
0000
0100
0000
,
0101
0000
0000
1001
0000
0000
1001
0000
0000
0000
0001
0000
1000
0000
0010
0000
,
0010
1000
0001
0010
0010
0001
0100
0010
,
0010
0000
1000
0000
0100
0000
0010
0000
0001
1000
0001
1000
0010
0000
0100
0000
,
0101
0000
0000
1001
0000
0000
1100
0000
0000
0000
1000
0000
0001
0000
0200
0000
,
0301
2000
3001
0020
0031
1000
0100
1000
,
1001
0000
0000
0011
0000
0000
0000
0000
0001
0000
1000
0000
0010
0000
0100
0000
,
0001
0000
0100
0000
0001
0000
1000
0000
0001
0100
0001
0100
001M
0000
0100
0001
,
1000
0000
0001
0000
1000
0000
0001
0000
1000
0000
0001
0000
1000
0000
0000
0000
0000
0000
0100
0000
0000
0000
0000
0000
0010
0000
0000
0000
0000
0000
0100
0000
0000
0000
0000
0000
1000
0000
0000
0001
0000
0000
1000
0000
0000
0001
0000
0000
,
0100
0000
0000
0001
1000
0001
1000
0000
0000
0001
0000
0000
1000
0100
1000
0100
0000
0000
0010
0001
0010
0400
0000
0000
,
1300
0001
0100
0001
1000
0000
0010
0000
0100
0000
0001
0000
1000
0001
1000
0001
,
0010
0000
0000
0100
1000
0100
1000
0000
0000
0100
0000
0000
M010
0001
0010
0001
0000
0000
1000
0001
1000
0040
0000
0000
,
0030
0000
0000
0000
0202
0000
0303
0000
0022
0000
0033
0000
4000
0000
3004
0003
,
1MM1
0000
1010
1000
0001
1000
0100
0010
,
0001
0001
1000
0001
000M
0010
0100
0001
,
1001
0000
0101
0001
0010
0100
1000
0001
,
0100
0000
0100
0000
0001
0000
1000
0000
0100
0010
0001
0010
0001
0000
1000
0001
,
0200
0300
1001
0001
0100
0001
0100
0010
,
1000
0001
1000
0100
0M00
0001
1000
0001
,
1001
0000
0101
0001
0100
0010
1000
0100
,
0010
0000
0000
0000
0000
0000
0001
0000
0000
0000
0000
0000
1000
0000
0000
0000
0000
0000
0100
0000
0000
0000
0000
0000
1000
0000
0000
0001
0000
0000
1000
0000
0000
0001
0000
0000
0100
0000
0001
0000
0100
0000
0001
0000
0100
0000
0001
0000
,
0200
0000
0000
0000
0310
0000
0100
0000
0001
0010
0100
0000
1000
0000
0100
0000
,
0010
0001
0010
0001
1000
0001
0100
0001
,
0101
0100
0010
1010
1000
0001
0011
0010
,
0011
0000
0001
0000
1000
0000
0010
0000
0010
1000
0100
0010
0001
0000
1000
0000
,
02M2
0303
0101
0110
1010
1010
1001
0011
,
0110
0110
1100
0110
0000
0011
0110
1100
,
0001
0010
0100
1000
0100
0010
0001
1000
0001
0100
0001
0100
0010
1000
0010
1000
,
0001
0000
1000
0000
0001
0000
1000
0000
0001
0000
1000
0000
0001
0000
0000
0000
0000
0000
0000
0000
0000
0000
0000
0000
1000
0000
0000
0010
0000
0000
0100
0000
0000
0001
0000
0000
1000
0000
0001
0000
1000
0000
0001
0000
1000
0000
0001
0000
,
1000
0001
0100
0010
1000
0001
1000
1000
,
0010
0100
0001
0010
0001
0100
0010
0010
,
1000
0100
0010
0100
1000
1000
0001
0100
,
0001
0000
0001
0000
0010
0000
0100
0000
1000
0001
1000
0001
1000
0000
0001
1000
,
0010
0100
0010
1000
0001
0001
0010
0001
,
1000
1000
0010
1000
0001
0010
0100
1000
,
1001
0000
4004
0000
0000
0000
0000
3000
,
1003
0000
0000
0100
0000
0000
1000
0000
0000
0000
0000
0000
0001
0000
0000
0100
0000
0000
0001
0000
0000
0000
0000
0000
1000
0000
0001
0000
1000
0000
0001
0000
1000
0000
0001
0000
10M0
0000
0001
0000
1000
0000
0001
0000
1000
0000
0001
0000
,
1000
0000
0001
1000
0010
0000
1000
0100
0010
0000
0001
0010
0100
0000
1000
0001
,
0100
0000
0010
1000
0010
0000
0100
0001
1000
0000
0100
0010
0001
0000
0001
0000
,
1001
0000
1000
0010
0100
0000
0010
1000
0001
0000
1000
0010
0100
0000
0001
0010
,
0100
0000
1000
0001
0100
0000
0001
0000
0100
0010
0100
0010
0100
0000
0001
0100
,
0010
0000
1000
0100
0010
0000
0001
0010
0001
0000
1000
0001
1000
0000
0010
0100
,
0010
0000
0100
0001
0010
0000
0001
0010
0100
0000
1000
0100
0010
0000
0001
1000
,
0M02
0000
40M0
0000
0M00
0000
00M0
3003
,
0001
0000
0000
0100
0000
0000
0001
0000
0000
0100
0000
0000
0010
0000
0000
1000
0000
0000
0010
0000
0000
1000
0000
0000
0001
0000
1000
0000
0001
0000
1000
0000
0001
0000
1000
0000
00M1
0000
1000
0000
0001
0000
1000
0000
0001
0000
1000
0000
,
0M01
M000
000M
0M00
,
00M0
0000
M000
0000
000M
0M00
0000
00M0
,
0000
M000
0000
000M
00M0
M000
000M
0000
,
0004
4000
0000
0000
0000
0000
0000
0000
0000
0000
0000
0000
0000
0000
0000
0000
0000
0000
0000
0000
0000
0000
0000
0000
0000
0000
0000
0000
0000
3003
0000
0000
,
1MM1
0000
0000
1000
0000
0000
0001
0000
0000
0100
0000
0000
0001
0000
0010
0100
,
1000
0000
0000
0001
0000
0000
0100
0000
0000
0010
0000
0000
1000
0000
0001
0010
,
0100
0000
0000
1000
0000
0000
0001
0000
0000
0100
0000
0000
0010
0000
1000
0001
,
0010
0000
0000
0100
0000
0000
1000
0000
0000
0001
0000
0000
0100
0000
0010
1000
,
0100
0000
0000
0010
0000
0000
0001
0000
0000
1000
0000
0000
0010
0000
0100
0001
,
1000
0000
0000
0100
0000
0000
0010
0000
0000
0001
0000
0000
1000
0000
0010
0100
,
0001
0000
0000
1000
0000
0000
0100
0000
0000
0010
0000
0000
0001
0000
1000
0010
,
0100
0000
0000
0001
0000
0000
1000
0000
0000
0100
0000
0000
0010
0001
0010
0001
,
1000
0000
0000
0010
0000
0000
0100
0000
0000
0001
0000
0000
1000
0000
0100
1000
,
0010
0000
0000
0100
0000
0000
0001
0000
0000
0010
0000
0000
0100
0000
1000
0001
,
0100
0000
0000
0010
0000
0000
1000
0000
0000
0001
0000
0000
0010
0000
0100
1000
,
0001
0000
0000
0100
0000
0000
0010
0000
0000
1000
0000
0000
0001
0000
0010
0100
,
2000
3000
0000
0001
0000
0000
0100
0000
0000
0010
0000
0000
1000
0000
0100
0010
,
0001
0000
0000
1000
0000
0000
0010
0000
0000
0100
0000
0000
0001
0000
1000
0100
,
0010
0000
0000
0001
0000
0000
0100
0000
0000
0010
0000
0000
1000
0000
0100
0010
,
0001
0000
0000
1000
0000
0000
0010
0000
0000
0100
0000
0000
0001
0000
0010
0100
,
2000
0000
3000
0000
,
1000
0100
1000
0010
0100
0001
1000
0100
1000
0100
0010
0001
1000
0010
0100
0001
,
0100
0001
1000
0100
0010
0001
1000
0001
0100
0001
1000
0001
0100
0001
1000
0001
,
0010
0100
1000
0100
1000
0001
0100
0001
0100
0010
1000
0001
0100
0001
1000
0010
,
1000
0100
0010
0001
1000
0100
0010
0001
1000
0010
1000
0001
1000
0010
1000
0001
,
0010
0001
0010
0100
1000
0001
0100
0010
1000
0010
1000
0001
0100
0001
1000
0100
,
0010
0001
0100
0010
1000
0010
0100
0001
0100
0010
1000
0100
0010
0001
0010
0100
,
1000
0001
1000
0010
1000
0001
1000
0010
1000
0001
0010
0100
1000
0001
0100
0010
,
1000
0001
0100
0010
1000
0001
1000
0100
1000
0001
1000
0010
1000
0001
0100
0010
,
M10M
0000
0000
0010
0000
0000
1000
0000
0000
0100
0000
0000
1000
0000
0100
0010
,
0001
0000
0001
0000
0100
0010
0100
0010
1000
0000
1000
0000
1000
0000
0001
0100
,
M01M
0000
0000
0110
0000
0000
1001
0000
0000
1100
0000
0000
1100
0000
1000
0100
,
0010
0000
0000
0001
0000
0000
0100
0000
0000
0001
0000
0000
1000
0000
0010
0100
,
M0M1
0000
0000
1000
0000
0000
0100
0000
0000
1000
0000
0000
0001
0000
1000
0010
,
0100
0000
0100
0000
0001
1000
0001
1000
0010
0000
0010
0000
0010
0000
1000
0100
,
M01M
0000
0000
0001
0000
0000
0010
0000
0000
0100
0000
0000
1000
0000
0000
0000
,
0001
0000
0000
0100
0000
0000
0001
0000
0000
0000
0000
0000
1000
0000
0000
0100
0000
0000
1000
0000
0000
0000
0000
0000
0001
0000
0000
0010
0000
0000
0001
0000
0000
1000
0000
0000
0001
0000
1000
0000
0001
0000
1000
0000
0001
0000
1000
0000
,
0MM1
0000
0000
0101
0000
0000
1010
0000
1001
0000
0000
0000
1100
0000
0000
0000
,
1000
0000
1000
0000
0001
0100
0001
0100
0010
0000
0010
0000
1000
0000
0100
0010
,
0001
0000
0000
1000
0000
0000
0010
0000
0101
0000
0000
0000
1001
0000
1000
0000
,
0100
0000
0100
0000
0010
0001
0010
0001
0100
0000
0100
0000
0010
0000
1000
0001
,
M1M0
0000
0000
0101
0000
0000
1010
0000
0110
0000
0000
0000
1001
0000
0000
0000
,
1000
0000
1000
0001
0100
0001
0100
0000
0001
0000
0001
0000
0001
0000
1000
0010
,
M10M
0000
0000
0001
0000
0000
1000
0000
1100
0000
0000
0000
1001
0000
0000
0000
,
0001
0000
0000
0000
0000
0000
0001
0000
0000
0000
0000
0000
0100
0000
0000
0010
0000
0000
0100
0000
0000
0010
0000
0000
1000
0000
0000
0000
0000
0000
1000
0000
0000
0000
0000
0000
0001
0000
1000
0000
0001
0000
1000
0000
0001
0000
1000
0000
,
00M1
0000
0000
1100
0000
0000
0011
0000
1001
0000
0000
0000
0101
0000
0000
0000
,
0001
0000
0001
0100
0010
0100
0010
0000
1000
0000
1000
0000
1000
0000
0001
0010
,
M10M
0000
0000
1000
0000
0000
0100
0000
0000
0110
0000
0000
1001
0000
0000
0000
,
0001
0100
0010
1000
0001
0100
0010
1000
0001
0010
0100
1000
0001
0010
0100
1000
,
0002
00M0
0M00
M000
00M0
M000
0M00
M000
,
0203
00M0
M000
000M
00M0
000M
M000
00M0
,
0320
M000
000M
0M00
M000
0M00
000M
0M00
,
2030
0M00
000M
00M0
0M00
00M0
000M
00M0
,
3M01
0000
0000
0000
1MM1
0000
0101
0001
,
1000
0001
0010
0100
1000
1000
0001
1000
,
M000
0100
0010
1000
1001
0000
0011
0001
,
0100
0010
1000
0001
0010
0010
0001
1000
,
0010
0100
0001
1000
0100
0010
0001
0000
1001
0000
1000
0000
1010
0000
0010
0000
,
0110
0100
0001
0010
0100
1000
0001
1MM1
,
0000
0001
1000
0001
0M11
0010
1100
0000
,
0100
1000
0010
0000
1000
0010
0100
0001
,
1000
0010
1000
0010
0100
0000
0001
0010
0100
0000
1000
0000
0010
0000
1000
0000
,
0010
0100
0001
0100
0001
0010
0001
0100
,
0001
0010
0100
1000
00M2
0000
4M00
0000
,
00M0
0000
0003
0000
0M00
0000
0000
0000
3001
0010
0001
0000
1000
0010
0100
0000
,
0001
1000
0001
1000
0001
1000
00M1
1000
0001
1000
0001
1000
0001
0000
0000
0100
0000
0000
0001
0000
0000
0100
0000
0000
,
0001
0010
0001
0010
0100
1000
0100
1000
,
1002
0003
1020
1030
220M
3300
1000
0010
,
0100
0001
1000
0001
0010
0001
0010
0100
,
1000
0100
0010
0001
1000
0000
0001
0100
0010
0000
0100
0000
0001
0000
0001
0000
,
1000
1000
0010
0100
0001
0100
0010
1000
,
2020
3030
0202
0303
1001
0000
0001
0010
,
0001
0100
0010
1000
0100
0100
0010
0001
,
1000
0000
0100
0000
1000
0000
0100
0000
1000
0000
0100
0000
20MM
0000
0000
3000
0000
0000
0000
0000
0000
0000
0000
0000
1001
0000
0000
0000
0000
0000
0000
0000
0000
0000
0000
0000
0011
0000
0000
0000
0000
0000
0000
0000
0000
0000
0000
0000
,
0001
1000
0001
1000
0010
0000
0010
0000
0100
0000
0001
0000
1000
0100
0010
0001
,
1000
0001
1000
0010
1010
1000
1001
0001
,
1000
0000
0100
0000
0010
0000
0001
0000
0000
1000
0000
0000
0001
0000
0000
1000
0000
0000
0M10
0000
0000
1000
0000
0000
,
0001
0010
0100
0010
0001
0000
1000
0010
0100
0000
0001
0000
1000
0000
0010
0000
,
0100
0010
0100
0001
1000
1000
0100
0100
,
1000
0100
0010
0001
0010
0001
1000
0001
,
1000
0001
1000
0001
1000
0001
1000
0001
1000
0010
0100
0001
1000
0100
0010
0001
,
1000
0000
0001
0000
1000
0000
0001
0000
1000
0000
0001
0000
1000
0000
0000
0000
0000
0000
0000
0000
0000
0000
0000
0000
1000
0000
0000
0100
0000
0000
0010
0000
0000
0001
0000
0000
1000
0000
0000
0100
0000
0000
0010
0000
0000
0001
0000
0000
,
1000
0000
0001
0000
0100
0000
0010
0000
1000
0010
0100
0001
1000
0010
0100
0001
,
1000
0001
0010
0100
1000
0001
1000
0100
,
0100
1000
0010
0100
0100
0001
0010
0100
,
1000
0001
1000
0001
0100
0000
0010
0000
1000
0001
0010
0100
1000
0001
0010
0100
,
1000
0001
1000
0020
1030
0002
1003
0200
,
1300
0000
0001
0000
0010
0000
0001
0000
0010
0100
1000
0001
0010
0100
1000
0001
,
0010
0001
0100
0010
1000
0010
1000
0001
,
1000
0000
0000
0010
0000
0000
1000
0000
0000
0010
0000
0000
M100
0000
0000
0000
0000
0000
0010
0000
0000
1000
0000
0000
0001
0000
1000
0000
0001
0000
1000
0000
0001
0000
1000
0000
0001
0000
0000
0000
0000
0000
0010
0000
0000
0000
0000
0000
,
0100
0000
0000
0000
0000
0000
0010
0000
0000
0000
0000
0000
0001
0000
0000
1000
0000
0000
0001
0000
0000
1000
0000
0000
0010
0000
0000
0000
0000
0000
1000
0000
0001
0000
1000
0000
0001
0000
0000
0000
0000
0000
1000
0000
0000
0000
0000
0000
,
0001
0000
0010
0000
0001
0000
0010
0000
0000
0000
0000
0000
0100
0000
1000
0000
0100
0000
0040
0000
0000
0000
0000
0000
0031
0000
0000
1000
0000
0000
0010
0000
0000
1000
0000
0000
0001
0000
0000
0000
0000
0000
0100
0000
0000
0000
0000
0000
,
0010
0000
0000
0000
0000
0000
1000
0000
0000
0000
0000
0000
0001
0000
0000
1000
0000
0000
0001
0000
0000
1000
0000
0000
0100
0000
0000
0000
0000
0000
0010
0000
0001
0000
0010
0000
0001
0000
0000
0000
0000
0000
0010
0000
0000
0000
0000
0000
,
010M
1000
0100
1000
0000
0000
0001
1000
0001
0400
0000
0000
0300
0000
0000
0000
0000
0000
2020
0000
0000
3030
0000
0000
,
2200
0000
3300
0000
0004
0000
4003
3000
1MM1
0000
0000
0000
0101
0000
0001
0000
,
1000
0001
0010
0100
1000
1000
0001
1000
,
M000
0100
0010
1000
1001
0000
1010
1000
,
0100
0010
0001
1000
0010
0010
1000
0001
,
0010
0100
1000
0100
1000
0000
0001
1000
0020
0000
0030
0000
1001
0000
1000
0000
,
0010
1000
0010
0100
0001
1000
0001
0010
,
00M0
1000
0001
1000
1001
0000
1010
1000
,
0010
0100
0001
0010
0100
1000
0001
0010
,
0001
0000
0000
1000
0000
0000
0001
0000
0000
1000
0000
0000
0001
0000
0100
0000
0001
0000
0100
0000
0001
0000
0100
0000
0001
0000
0000
0000
0000
0000
0000
0000
0000
0000
0000
0000
1001
0000
0000
0000
0000
0000
1000
0000
0000
0000
0000
0000
,
0001
1000
0100
0010
0001
0001
1000
0001
,
000M
0010
0100
0001
1001
0000
0101
0001
,
0010
0100
1000
0001
0100
0100
0001
1000
,
0100
0010
0001
0010
0001
0000
1000
0001
0200
0000
0300
0000
1001
0000
0001
0000
,
0100
0001
0100
0010
1000
0001
1000
0100
,
0M00
0001
1000
0001
1001
0000
0101
0001
,
0100
0010
1000
0100
0010
0001
1000
0100
,
1000
0000
0000
0001
0000
0000
1000
0000
0000
0001
0000
0000
1000
0000
0100
0000
1000
0000
0100
0000
1000
0000
0100
0000
1000
0000
0000
0000
0000
0000
0000
0000
0000
0000
0000
0000
1100
0000
0000
0000
0000
0000
1000
0000
0000
0000
0000
0000
,
0001
1000
0010
0100
0001
0001
1000
0001
,
000M
0100
0010
0001
1001
0000
0011
0001
,
0100
0010
1000
0001
0010
0010
0001
1000
,
0010
0100
0001
0100
0001
0000
1000
0001
0020
0000
0030
0000
1001
0000
0001
0000
,
0010
0001
0010
0100
1000
0001
1000
0010
,
00M0
0001
1000
0001
1001
0000
0011
0001
,
0010
0100
1000
0010
0100
0001
1000
0010
,
1000
0000
0000
0001
0000
0000
1000
0000
0000
0001
0000
0000
1000
0000
0100
0000
1000
0000
0100
0000
1000
0000
0100
0000
2000
0000
0000
0000
0000
0000
0000
0000
0000
0000
0000
0000
3100
0000
0000
0000
0000
0000
0010
0000
0000
0000
0000
0000
,
0001
1000
0001
0000
0100
0000
0010
0000
0100
0000
0001
0000
0010
0000
0001
0000
,
1000
0001
0100
0001
0101
0100
0010
1010
,
1000
0001
0011
0010
0011
0001
1000
0010
,
0010
1000
0100
0010
0001
0000
1000
0000
02M2
0000
0303
0000
0101
0000
0110
0000
,
1010
1010
1001
0011
0110
0110
1100
0110
,
0000
0000
0011
0000
0110
0000
1100
0000
0001
0010
0100
1000
0100
0010
0001
1000
,
0001
0000
0000
0100
0000
0000
0001
0000
0000
0100
0000
0000
0010
0000
0000
1000
0000
0000
0010
0000
0000
1000
0000
0000
0001
0000
1000
0000
0001
0000
1000
0000
0001
0000
1000
0000
0001
0000
0000
0000
0000
0000
0000
0000
0000
0000
0000
0000
,
1000
0000
0000
0010
0000
0000
0100
0000
0000
0001
0000
0000
1000
0000
0001
0000
1000
0000
0001
0000
1000
0000
0001
0000
2000
0000
0000
3000
0000
0000
0000
0000
0000
0000
0000
0000
0000
0000
0000
0000
0000
0000
0000
0000
0000
0000
0000
0000
;

//---------------dance-single - 15- (TYLR no drills)----------------
#NOTES:
     dance-single:
     15- (TYLR no drills):
     Hard:
     15:
     1.000,1.000,0.356,0.098,1.000,2398.000,94.000,26.000,22.000,2.000:
0000
0000
0000
0000
,
0000
0000
0000
0000
,
1001
0000
0001
0000
0010
0000
0100
1000
0001
0000
1000
0000
0010
0000
0100
0000
,
0001
0000
1000
0000
0100
0000
0010
0001
0010
0000
0100
0000
1000
0000
1000
0000
,
0001
0000
0100
0000
0010
0000
1000
0001
0010
0000
0100
0000
1000
0000
0001
1000
,
0001
0100
0010
1000
0001
1000
0010
0100
0001
1000
0001
1000
0001
0000
1000
0001
,
0010
0000
0100
0000
1000
0000
0010
0100
0001
0000
1000
0000
0001
0000
0010
0000
,
0100
0000
1000
0000
0100
0000
0010
0001
1000
0001
0100
0010
1000
0010
0100
0001
,
0020
0030
0020
0000
0000
0000
0000
0000
,
0130
0000
0000
1000
0000
0000
0100
0000
0000
0000
0000
0000
0010
0000
0000
0001
0000
0000
0010
0000
0000
0000
0000
0000
0004
0000
4000
0000
0000
0000
0000
0000
0000
0000
0000
0000
0000
0000
0000
0000
0000
0000
0000
0000
0003
0000
0000
0000
,
3100
0010
0001
1000
0001
1000
0100
0010
0001
0010
0100
1000
0001
1000
0001
1000
,
0010
0100
0010
1000
0001
0100
0010
0100
0001
1000
0010
1000
0001
1000
0001
1000
,
0001
0010
0100
1000
0001
1000
0100
0010
0001
1000
0001
1000
0001
0100
0010
1000
,
0001
1000
0001
1000
0010
1000
0001
1000
0100
0010
0100
0010
0001
0000
0100
0010
,
1000
0001
0100
0010
1000
0010
0100
0001
1000
0001
1000
0001
1000
0100
0010
0001
,
1000
0001
1000
0001
0100
0010
1000
0010
0100
0001
1000
0001
1000
0100
0010
0001
,
0100
0001
1000
0010
0100
0001
0100
0001
0100
0001
0100
0001
0100
0001
0100
0001
,
1000
0000
0000
0100
0000
0000
0010
0000
0000
0000
0000
0000
0001
0000
0000
0100
0000
0000
0010
0000
0000
0000
0000
0000
4000
0000
0004
0000
0000
0000
0000
0000
0000
0000
0000
0000
0000
0000
0000
0000
0000
0000
0000
0000
3000
0000
0000
0000
,
0013
0100
1000
0001
1000
0001
0010
0100
1000
0001
1000
0010
0100
0010
1000
0001
,
0010
0100
0010
0001
1000
0001
0010
0100
1000
0001
1000
0010
0100
0001
0100
0010
,
1000
0100
0010
0100
1000
0100
0010
0001
1000
0010
1000
0010
0100
0001
1000
0001
,
0010
0100
0010
0001
1000
0100
0010
0001
1000
0001
1000
0001
1000
0000
0001
1000
,
0010
0100
0001
0100
0010
1000
0001
1000
0001
0010
0100
0010
0001
1000
0100
1000
,
0001
1000
0010
1000
0001
1000
0010
1000
0100
0010
0100
1000
0010
0100
0010
1000
,
0001
0010
0100
0010
0001
0010
0100
1000
0001
0100
0001
0100
0010
1000
0001
1000
,
0100
0000
0000
0010
0000
0000
0100
0000
0000
1000
0000
0000
0001
0000
0000
0010
0000
0000
0100
0000
0000
1000
0000
0000
0004
0000
4000
0000
0000
0000
0000
0000
0000
0000
0000
0000
3003
0000
0000
0000
0000
0000
0000
0000
0000
0000
0000
0000
,
1001
0000
0000
0000
1001
0000
0000
0000
1001
0000
0001
1000
0001
0000
0010
0000
,
0100
0000
0010
0000
0001
1000
0001
1000
0001
0000
0100
0000
0001
0000
0010
0000
,
0100
0000
1000
0000
0100
0000
0010
0000
0001
1000
0001
1000
0001
0000
0200
0000
,
0000
0000
0000
0000
0310
0000
0000
0000
0100
0001
0100
0001
0100
0000
0010
1000
,
0001
1000
0001
0010
0100
1000
0100
0010
,
0001
1000
0001
0100
0010
1000
0001
0010
,
0100
1000
0010
0100
0001
1000
0100
1000
0010
0100
0001
1000
0100
1000
0010
0100
,
0001
0000
0000
1000
0000
0000
0001
0000
0000
0010
0000
0000
0100
0000
0000
1000
0000
0000
0100
0000
0000
0010
0000
0000
0004
0000
4000
0000
0000
0000
0000
0000
0000
0000
0000
0000
3003
0000
0000
0000
0000
0000
1000
0000
0000
0000
0000
0000
,
1010
0000
0000
1010
0000
0000
1010
0000
0000
0000
1000
0000
0100
0000
0010
0000
,
0011
0000
0000
0011
0000
0000
0011
0000
0000
0000
1000
0000
0010
0000
0200
0000
,
0000
0302
0000
2003
0000
3200
0000
0320
,
0000
0000
0230
0000
0000
0000
1300
0000
0010
1000
0010
1000
0010
0000
0100
0001
,
1000
0000
0000
1000
0000
0000
1000
0000
0001
0000
0010
0000
0100
0000
2000
0000
,
0000
3020
0000
2030
0000
3200
0000
0320
,
0001
0000
0000
0001
0000
0000
0031
0000
1000
0000
0010
0000
0100
0000
0002
0000
,
0000
0000
0023
0000
0000
0000
0031
0000
0100
0001
0100
0001
0100
0000
0010
1000
,
0004
0000
4000
0000
0000
0000
0000
0000
0000
0000
0000
0000
3003
0000
0000
0000
0000
0000
1000
0000
0000
0000
0000
0000
0100
0000
0000
0000
0000
0000
0010
0000
0000
0000
0000
0000
0000
0000
0000
0001
0000
0000
0000
0000
0000
0001
0000
0000
,
0100
0000
0000
0000
0000
0000
0040
0000
0000
0000
0000
0000
1030
0000
0000
0000
0000
0000
0001
0000
0000
0000
0000
0000
4000
0000
0000
0000
0000
0000
3100
0000
0000
0000
0000
0000
0040
0000
0000
0000
0000
0000
0034
0000
0000
0000
0000
0003
,
4000
0000
0040
0000
0000
0000
0000
0000
0000
0000
0000
0000
3030
0000
0000
0000
0000
0000
0001
0000
0000
0000
0000
0000
0100
0000
0000
0000
0000
0000
0001
0000
0000
0000
0000
0000
0000
0000
0000
1000
0000
0000
0000
0000
0000
1000
0000
0000
,
0100
0040
0031
1000
0004
0103
0040
4030
,
300M
000M
1111
4000
,
3001
0010
0100
1000
0001
0010
0001
1000
0001
0100
0001
0100
0010
1000
0001
1000
,
0100
0010
0100
0010
0001
1000
0100
0010
0001
1000
0001
0010
0100
1000
0001
1000
,
0001
0100
0010
1000
0001
0100
0001
0100
0010
1000
0010
1000
0001
1000
0010
0100
,
0001
0010
0001
0010
0100
1000
0001
0010
0100
1000
0100
1000
0001
0000
1000
0001
,
1000
0010
0100
0001
1000
0010
1000
0001
1000
0100
1000
0100
0010
0001
1000
0001
,
0100
0010
0100
0010
1000
0001
0100
0010
1000
0001
1000
0010
0100
0001
1000
0001
,
1000
0100
0010
0001
1000
0100
1000
0100
0010
0001
0010
0001
1000
0001
0010
0100
,
1000
0000
0000
0010
0000
0000
1000
0000
0000
0010
0000
0000
0100
0000
0000
0001
0000
0000
1000
0000
0000
0001
0000
0000
0010
0000
0000
0100
0000
0000
0010
0000
0000
0100
0000
0000
4000
0000
0400
0000
0000
0000
0000
0000
0000
0000
0000
0000
,
3300
0001
0010
0001
1000
0100
0010
0100
,
1000
0001
0100
0001
1000
0010
0100
0100
,
0001
1000
0100
0010
0100
1000
0010
0100
,
0010
0000
1000
0000
0001
0000
0010
0000
0100
1000
0100
1000
0001
0000
1000
0001
,
0100
0000
0101
1010
1001
1001
1100
0011
,
1001
1001
0101
1001
0000
1001
1100
0110
,
0011
0001
0010
0001
0100
0100
0010
1000
,
0004
0000
4000
0000
0000
0000
0000
0000
0000
0000
0000
0000
3003
0000
0000
0000
0000
0000
1000
0000
0000
0000
0000
0000
0001
0000
0000
0010
0000
0000
0001
0000
0000
0010
0000
0000
0400
0000
4000
0000
0000
0000
0000
0000
0000
0300
0000
0000
,
3001
0010
0100
1000
0001
1000
0100
0010
0001
0010
0100
1000
0001
1000
0001
1000
,
0010
0100
0010
1000
0001
0100
0010
0100
0001
1000
0010
1000
0001
1000
0001
1000
,
0001
0010
0100
1000
0001
1000
0100
0010
0001
1000
0001
1000
0001
0100
0010
1000
,
0001
1000
0001
1000
0010
1000
0001
1000
0100
0010
0100
0010
0001
0000
0100
0010
,
1000
0001
0100
0010
1000
0010
0100
0001
1000
0001
1000
0001
1000
0100
0010
0001
,
1000
0001
1000
0001
0100
0010
1000
0010
0100
0001
1000
0001
1000
0100
0010
0001
,
0100
0001
1000
0010
0100
0001
0100
0001
0100
0001
0100
0001
0100
0001
0100
0001
,
1000
0000
0000
0100
0000
0000
0010
0000
0000
0000
0000
0000
0001
0000
0000
0100
0000
0000
0010
0000
0000
0000
0000
0000
4000
0000
0004
0000
0000
0000
0000
0000
0000
0000
0000
0000
0000
0000
0000
0000
0000
0000
0000
0000
3000
0000
0000
0000
,
0103
0010
1000
0001
1000
0001
0100
0010
1000
0010
0100
0001
1000
0001
1000
0001
,
0010
0100
0010
0001
1000
0100
0010
0100
1000
0001
0010
0001
1000
0001
1000
0001
,
1000
0010
0100
0001
1000
0001
0100
0010
1000
0001
1000
0001
1000
0100
0010
0001
,
1000
0001
1000
0001
0010
0001
1000
0001
0100
0010
0100
0010
1000
0000
0100
0010
,
0001
1000
0100
0010
0001
0010
0100
1000
0001
1000
0001
1000
0001
0100
0010
1000
,
0001
1000
0001
1000
0100
0010
0001
0010
0100
1000
0001
1000
0001
0100
0010
1000
,
0100
1000
0001
0010
0100
1000
0100
1000
0100
1000
0100
1000
0100
1000
0100
1000
,
0001
0000
0000
0100
0000
0000
0010
0000
0000
1000
0000
0000
0001
0000
0000
0100
0000
0000
0010
0000
0000
1000
0000
0000
0004
0000
4000
0000
0000
0000
0000
0000
0000
0000
0000
0000
0000
0000
0000
0000
0000
0000
0000
0000
3000
0000
0000
0000
,
02M3
000M
00M0
M000
,
000M
0000
0000
0000
03M0
0000
0001
0000
0M20
0000
0000
0030
M020
0000
0000
0000
,
0M32
M000
00M0
M000
,
1M03
0010
1000
0010
0100
0001
0100
0001
1000
0001
1000
0100
0010
0001
0010
0100
1000
0001
1000
0010
0100
0001
1000
0001
0010
0100
1000
0010
0100
0001
1000
0100
,
0020
0000
0030
0001
0000
0000
1000
0000
0000
0010
0000
0000
0100
0000
0001
0000
,
1000
0000
0000
0100
0000
0000
0010
0000
0000
0001
0000
0000
1000
0000
0010
0000
,
0100
0000
0000
0001
0000
0000
0010
0000
0000
0100
0000
0000
1000
0000
0010
0000
,
0100
0000
0000
0001
0000
0000
1000
0000
0000
0100
0000
0000
0010
0000
0001
0000
,
1000
0000
0000
0010
0000
0000
0100
0000
0000
0001
0000
0000
1000
0000
0100
0000
,
0010
0000
0000
0001
0000
0000
1000
0000
0000
0010
0000
0000
0100
0000
0001
0000
,
0010
0000
0000
0100
0000
0000
1000
0000
0000
0001
0000
0000
0100
0000
0010
0000
,
1000
0000
0000
0001
0000
0000
0010
0000
0000
0100
0000
1000
0001
0100
0010
1000
,
0002
0000
0003
0010
0000
0000
0100
0000
0000
1000
0000
0000
0001
0000
0100
0010
,
1000
0000
0000
0001
0000
0000
0010
0000
0000
0100
0000
0000
1000
0000
0001
0100
,
0010
0000
0000
1000
0000
0000
0100
0000
0000
0010
0000
0000
0001
0000
1000
0010
,
0100
0000
0000
0001
0000
0000
1000
0000
0000
0100
0000
0000
0010
0000
0001
1000
,
0020
0000
0030
0100
0000
0000
0001
0000
0000
1000
0000
0000
0100
0000
0010
0001
,
0100
0000
0000
0010
0000
0000
1000
0000
0000
0001
0000
0000
0010
0000
0100
1000
,
0001
0000
0000
0100
0000
0000
0010
0000
0000
1000
0000
0000
0100
0000
0010
0001
,
1000
0000
0000
0010
0000
0000
0100
0000
0000
0001
0000
0000
0010
0000
0100
1000
,
00M2
0000
0000
0000
0000
0000
0000
0000
0000
0000
0000
0000
0000
0000
0000
0000
0003
0000
0000
0000
0000
0000
0000
0000
1000
0001
1000
0001
1000
0001
1000
0001
,
1000
0010
1000
0001
0010
0001
1000
0100
1000
0001
1000
0001
0010
0001
0100
0010
,
1000
0100
1000
0001
0100
0001
1000
0010
1000
0001
1000
0001
0100
0001
0010
0100
,
1000
0010
1000
0001
0010
0001
1000
0100
1000
0001
1000
0001
0010
0001
0100
0010
,
1000
0100
1000
0001
0100
0001
1000
0010
1000
0001
1000
0001
1000
0000
0100
0010
,
0001
0010
0001
1000
0010
1000
0001
0100
0001
1000
0001
1000
0010
1000
0100
0010
,
0001
0100
0001
1000
0100
1000
0001
0010
0001
1000
0001
1000
0100
1000
0010
0100
,
0001
0010
0001
1000
0010
1000
0001
0100
0001
1000
0001
1000
0010
1000
0100
0010
,
0001
0100
0010
0000
1000
0100
0010
0000
0001
1000
0010
0100
0001
0010
0100
0010
,
0001
0100
0001
1000
0100
1000
0001
0010
0001
1000
0001
1000
0100
1000
0010
0100
,
0001
0010
0001
1000
0010
1000
0001
0100
0001
1000
0001
1000
0010
1000
0100
0010
,
0001
0100
0001
1000
0100
1000
0001
0010
0001
1000
0001
1000
0100
1000
0010
0100
,
0001
0010
0001
1000
0010
1000
0001
0100
0001
1000
0001
1000
0001
0000
0010
0100
,
1000
0100
1000
0001
0100
0001
1000
0010
1000
0001
1000
0001
0100
0001
0010
0100
,
1000
0010
1000
0001
0010
0001
1000
0100
1000
0001
1000
0001
0010
0001
0100
0010
,
1000
0100
1000
0001
0100
0001
1000
0010
1000
0001
1000
0001
0100
0001
0010
0100
,
1000
0010
0100
0000
0001
0010
0100
0000
1000
0001
0100
0010
1000
0100
0010
0100
,
1000
0010
1000
0001
0010
0001
1000
0100
1000
0001
1000
0001
0010
0001
0100
0010
,
1000
0100
1000
0001
0100
0001
1000
0010
1000
0001
1000
0001
0100
0001
0010
0100
,
1000
0010
1000
0001
0010
0001
1000
0100
1000
0001
1000
0001
0010
0001
0100
0010
,
1000
0100
1000
0001
0100
0001
1000
0010
1000
0001
1000
0001
1000
0000
0100
0010
,
0001
0010
0001
1000
0010
1000
0001
0100
0001
1000
0001
1000
0010
1000
0100
0010
,
0001
0100
0001
1000
0100
1000
0001
0010
0001
1000
0001
1000
0100
1000
0010
0100
,
0001
0010
0001
1000
0010
1000
0001
0100
0001
1000
0001
1000
0010
1000
0100
0010
,
0001
0100
0010
0000
1000
0100
0010
0000
0001
1000
0010
0100
0001
0010
0001
0100
,
0001
1000
0001
1000
0010
1000
0001
0100
0001
1000
0001
1000
0010
1000
0100
0010
,
0001
0100
0001
1000
0100
1000
0001
0010
0001
1000
0001
1000
0100
1000
0010
0100
,
0001
0010
0001
1000
0010
1000
0001
0100
0001
1000
0001
1000
0010
1000
0100
0010
,
0004
4000
0000
0000
0000
0000
0000
0000
0000
0000
0000
0000
0000
0000
0000
0000
0000
0000
0000
0000
0000
0000
0000
0000
,
30M3
1000
0010
0100
,
0001
0000
0001
0000
0010
0001
0010
0000
0100
0000
0100
0000
1000
0000
0000
0000
,
0010
0100
0001
0010
,
0100
1000
0100
0010
0001
1000
0001
0100
0010
1000
0100
0010
0001
0100
0010
1000
,
0M02
0000
0000
0000
0000
0000
0000
0003
1MM1
0000
0000
0000
1001
0000
0101
0000
,
0011
0011
0110
1100
1001
1001
1010
1001
,
0000
1001
0011
0110
1100
1000
0100
1000
,
0010
0000
0000
0010
0000
0000
0100
0000
0000
0001
0000
0000
4000
0004
0000
0000
0000
0000
3003
0000
0000
0001
0000
0000
,
1000
0000
0000
0100
0000
0000
1000
0000
0000
0100
0000
0000
0040
0000
0004
0000
0000
0000
0000
0000
0000
0030
0000
0000
1003
0000
0000
0100
0000
0000
0010
0000
0000
0001
0000
0000
1000
0000
0000
0001
0000
0000
0010
0000
0000
0100
0000
0000
,
1000
0100
0010
0001
1000
0001
1000
0001
0100
0010
0100
0001
1000
0010
0100
0010
,
1000
0001
0100
0001
1000
0001
1000
0001
1000
0100
0010
0001
1000
0001
0010
0100
,
1000
0001
1000
0001
1000
0010
0100
0001
1000
0001
1000
0001
0100
0001
1000
0001
,
0010
0100
0010
0100
1000
0000
0010
0100
0001
1000
0010
0100
0001
0100
0010
1000
,
0001
1000
0001
1000
0001
0010
0100
1000
0001
1000
0001
1000
0010
0100
0001
0100
,
0010
1000
0001
1000
0001
0010
0100
1000
0010
1000
0001
0100
0010
1000
0010
1000
,
0010
1000
0010
1000
0010
1000
0010
1000
0001
0010
0100
0000
1000
0010
0100
0000
,
0004
0000
4000
0000
0000
0000
0000
0000
0000
0000
0000
0000
0000
0000
0000
0000
0000
0000
0000
0000
0003
0000
0000
0000
3010
0000
0000
0100
0000
0000
0001
0000
0000
1000
0000
0000
0001
0000
0000
1000
0000
0000
0010
0000
0000
0100
0000
0000
,
0001
0100
0010
1000
0001
1000
0001
1000
0100
0010
0100
1000
0001
0010
0100
0010
,
0001
1000
0100
1000
0001
1000
0001
1000
0001
0100
0010
1000
0001
1000
0010
0100
,
0001
1000
0001
1000
0001
0010
0100
1000
0001
1000
0001
1000
0100
1000
0001
1000
,
0010
0100
0010
0100
0001
0000
0010
0100
1000
0001
0010
0100
1000
0100
0010
0001
,
1000
0001
1000
0001
1000
0010
0100
0001
1000
0001
1000
0001
0010
0100
0010
0001
,
0100
0010
0100
0001
0010
0100
0010
0001
1000
0001
0100
0001
1000
0010
0100
0001
,
1000
0001
1000
0100
1000
0001
1000
0010
0100
0001
1000
0000
0100
1000
0001
0000
,
4000
0004
0000
0000
0000
0000
0000
0000
0000
0000
3000
0000
0013
0000
0000
0001
0000
0000
1000
0000
0000
0100
0000
0000
,
0010
0000
0001
0010
0001
0000
0100
0000
0010
1000
0001
0000
1000
0001
0010
0100
,
1000
0000
0001
0000
1000
0001
0100
0000
0010
0000
1000
0010
1000
0010
0100
0000
,
0001
1000
0001
1000
0001
0000
0010
0000
0110
0000
0000
0000
0011
0000
0000
0000
,
0101
0000
0000
0000
1010
0000
0000
0000
1001
0000
1000
0000
0001
0010
0100
1000
,
0001
0000
1000
0001
0100
0000
0010
0000
1000
0000
0001
0000
0010
0100
0010
0000
,
0001
0010
0001
1000
0010
0100
0010
1000
0100
1000
0010
0100
0001
1000
0100
1000
,
0010
0100
0001
1000
0100
1000
0010
0100
0001
1000
0001
0010
0100
1000
0100
0010
,
0001
1000
0001
1000
0001
1000
0001
1000
0001
0100
0010
1000
0001
0100
0010
1000
,
0001
0100
0010
1000
0100
0010
0001
1000
0010
0100
0001
1000
0010
0100
0001
1000
,
0010
0100
0001
1000
0100
1000
0001
0010
0100
1000
0001
1000
0001
0100
0010
1000
,
0001
1000
0001
0010
0100
1000
0100
0010
0001
1000
0010
1000
0001
0010
0100
0010
,
0001
1000
0001
1000
0001
0000
1000
0001
0100
0010
1000
0010
0100
0001
1000
0001
,
0100
0010
1000
0001
1000
0100
0010
0001
1000
0001
0100
0010
1000
0010
0100
0001
,
1000
0100
0010
0100
1000
0100
0010
0001
1000
0001
0100
0001
1000
0001
0010
0001
,
1000
0001
0100
0010
1000
0001
1000
0100
0010
0100
1000
0010
0100
0010
1000
0100
,
0040
0004
0000
0000
0000
0000
0033
0000
0000
0000
0000
0000
0004
4000
0000
0000
0000
0000
3003
0000
0000
1000
0000
0000
,
0100
0000
0010
0000
0000
0001
0000
0001
0100
0000
0040
0000
1030
0000
0001
0000
,
4000
0000
0000
0000
0000
0000
3100
0000
0000
0000
0000
0000
0040
0000
0000
0000
0000
0000
0034
0000
0000
0000
0000
0003
4000
0000
0040
0000
0000
0000
0000
0000
0000
0000
0000
0000
3030
0000
0000
0000
0000
0000
0001
0000
0000
0000
0000
0000
,
0100
0000
0001
0000
0000
1000
0000
1000
0100
0000
0040
0000
0031
0000
1000
0000
,
0004
0103
0040
4030
300M
0000
000M
0000
,
1111
0000
0000
0000
4000
0000
0000
0000
3001
0010
0100
1000
0001
0010
0001
1000
,
0001
0100
0001
0100
0010
1000
0001
1000
0100
0010
0100
0010
0001
1000
0100
0010
,
0001
1000
0001
0010
0100
1000
0001
1000
0001
0100
0010
1000
0001
0100
0001
0100
,
0010
1000
0010
1000
0001
1000
0010
0100
0001
0010
0001
0010
0100
0010
0001
1000
,
0004
0000
0400
0000
0000
0000
0000
0000
0000
0000
0000
0000
0303
0000
0000
0000
0000
0000
0000
0000
0000
0000
0000
0000
1000
0000
0000
0001
0000
0000
0100
0000
0000
0001
0000
0000
1000
0000
0000
0010
0000
0000
1000
0000
0000
0001
0000
0000
,
1000
0100
1000
0100
0010
0001
1000
0001
0100
0010
0100
0010
1000
0001
0100
0010
,
1000
0001
1000
0010
0100
0001
1000
0001
1000
0100
0010
0001
1000
0100
1000
0100
,
0010
0001
0010
0001
1000
0001
0010
0100
1000
0010
1000
0010
0100
0001
1000
0100
,
0010
0000
0000
0001
0000
0000
0010
0000
0000
0001
0000
0000
4000
0000
0004
0000
0000
0000
0000
0000
3000
0000
0000
0000
0013
0000
0000
0100
0000
0000
1000
0000
0000
0001
0000
0000
1000
0000
0000
0010
0000
0000
1000
0000
0000
0001
0000
0000
,
1000
0010
1000
0010
0100
0001
1000
0001
0010
0100
0010
0100
1000
0001
0010
0100
,
1000
0001
1000
0100
0010
0001
1000
0001
1000
0010
0100
0001
1000
0010
1000
0010
,
0100
0001
0100
0001
1000
0001
0100
0010
1000
0100
1000
0100
0010
0100
1000
0001
,
1000
0010
1000
0010
1000
0000
0100
0010
0001
1000
0010
1000
0001
0100
0001
1000
,
0001
0010
0001
0010
0100
1000
0001
1000
0010
0100
0010
0100
0001
1000
0010
0100
,
0001
1000
0001
0100
0010
1000
0001
1000
0001
0010
0100
1000
0001
0010
0001
0010
,
0100
1000
0100
1000
0001
1000
0100
0010
0001
0100
0001
0100
0010
1000
0010
0100
,
0004
0000
4000
0000
0000
0000
0000
0000
0000
0000
0000
0000
3003
0000
0000
0000
0000
0000
0000
0000
0000
0000
0000
0000
1000
0000
0000
0010
0000
0000
0100
0000
0000
0001
0000
0000
1000
0000
0000
0010
0000
0000
1000
0000
0000
0001
0000
0000
,
1000
0100
1000
0100
0010
0001
1000
0001
0100
0010
0100
0010
1000
0001
0100
0010
,
1000
0001
1000
0010
0100
0001
1000
0001
1000
0100
0010
0001
1000
0100
1000
0100
,
0010
0001
0010
0001
1000
0001
0010
0100
1000
0010
1000
0010
0100
0010
1000
0001
,
1000
0100
1000
0100
1000
0000
0010
0100
0001
1000
0100
1000
0001
0010
0001
1000
,
0001
0100
0001
0100
0010
1000
0001
1000
0100
0010
0100
0010
0001
1000
0100
0010
,
0001
1000
0001
0010
0100
1000
0001
1000
0001
0100
0010
1000
0001
0100
0001
0100
,
0010
1000
0010
1000
0001
1000
0010
0100
0001
0010
0001
0010
0100
1000
0100
0010
,
0004
4000
0000
0000
0000
0000
3003
0000
0000
1000
0000
0000
0010
0000
0000
1000
0000
0000
0100
0000
0000
0010
0000
0000
,
0001
0100
0010
1000
0001
1000
0100
0010
,
0001
1000
0010
0010
1000
0001
0010
0100
,
0010
0001
0100
0010
0100
0001
1000
0100
,
0010
0001
0010
0001
1000
0000
0001
1000
0010
0000
0000
0000
1010
0000
0101
0000
,
1001
1001
0011
1100
1001
1001
0011
1001
,
0000
1001
1010
0110
0101
0001
0100
0001
,
0010
0000
0000
0010
0000
0000
0100
0000
0000
1000
0000
0000
0004
4000
0000
0000
0000
0000
3003
0000
0000
1000
0000
0000
,
0001
0100
0001
0100
0010
1000
0100
0010
0002
0000
0000
0000
0003
0000
0000
0000
;
