#TITLE:MAX FOREVER;
#SUBTITLE:;
#ARTIST:DM Ashura feat. NAOKI;
#TITLETRANSLIT:;
#SUBTITLETRANSLIT:;
#ARTISTTRANSLIT:;
#CREDIT:;
#BANNER:max4ebana.png;
#BACKGROUND:max4ebg.png;
#LYRICSPATH:;
#CDTITLE:;
#MUSIC:MAX FOREVER.mp3;
#OFFSET:0.000;
#SAMPLESTART:40.000;
#SAMPLELENGTH:12.000;
#SELECTABLE:YES;
#DISPLAYBPM:*;
#BPMS:0.000=150.000,64.000=300.000;
#STOPS:;
#BGCHANGES:;
// cache tags:
#FIRSTBEAT:0.000;
#LASTBEAT:1611.000;
#SONGFILENAME:Songs/IzzySM Keyboard Mega Pack/1.MAX FOREVER/MAX FOREVER.sm;
#HASMUSIC:1;
#HASBANNER:1;
#MUSICLENGTH:342.470;
// end cache tags

//---------------dance-single - ----------------
#NOTES:
     dance-single:
     :
     Challenge:
     11:
     0.837,1.000,0.552,0.604,0.045,1610.000,189.000,207.000,0.000,0.000:
2100
0010
0100
3010
,
0102
0010
0100
0013
,
2100
0010
0100
3010
,
0102
0010
0100
0013
,
2100
0010
0100
3010
,
0102
0010
0100
0013
,
0010
0100
0001
0010
0100
1000
0001
0010
0100
0010
0100
1000
0001
0010
0100
0010
,
0100
1000
0010
0100
0001
0010
0100
1000
0010
0001
0110
0000
1001
0000
0000
0000
,
0110
1001
0011
1100
,
1010
0101
1001
0110
,
1000
0100
0000
0000
0100
0010
0100
0010
0100
0010
0100
0010
2002
0000
3003
0000
,
0001
0010
0000
0000
0010
0100
0010
0100
0010
0100
0010
0100
2002
0000
3003
0000
,
0110
1001
0011
1100
,
1010
0101
1001
0110
,
1000
0001
1000
0001
1000
0001
1000
0001
,
1000
0100
1000
0100
1000
0100
1000
0100
1000
0100
1000
0100
1000
0100
1000
0100
,
2000
0000
3200
0000
0310
0001
0000
0001
,
0020
0000
0230
0000
1300
0010
0000
0010
,
2000
0000
3200
0000
0310
1000
0000
1000
,
0010
1001
1001
1001
,
0020
0000
0032
0000
1003
0100
0000
0100
,
2000
0000
3002
0000
0013
1000
0000
1000
,
0020
0000
0032
0000
1003
0010
0000
0010
,
1000
0110
0110
0110
,
0020
0000
0032
0000
1003
0100
0000
0100
,
2000
0000
3002
0000
0013
1000
0000
1000
,
0020
0000
0032
0000
1003
0010
0000
0010
,
1000
0110
0110
0110
,
2000
0000
3200
0000
0310
0001
0000
0001
,
0020
0000
0230
0000
1300
0010
0000
0010
,
2000
0000
3200
0000
0310
1000
0000
1000
,
0010
1001
1001
1001
,
0020
0000
0032
0000
1003
0100
0000
0100
,
2000
0000
3002
0000
0013
1000
0000
1000
,
0020
0000
0032
0000
1003
0010
0000
0010
,
1000
0110
0110
0110
,
2000
0000
3200
0000
0310
0001
0000
0001
,
0020
0000
0230
0000
1300
0010
0000
0010
,
2000
0000
3200
0000
0310
1000
0000
1000
,
0010
1001
1001
1001
,
2000
0000
3200
0000
0310
0001
0000
0001
,
0020
0000
0230
0000
1300
0010
0000
0010
,
2000
0000
3200
0000
0310
1000
0000
1000
,
0010
1001
1001
1001
,
0020
0000
0032
0000
1003
0100
0000
0100
,
2000
0000
3002
0000
0013
1000
0000
1000
,
0020
0000
0032
0000
1003
0010
0000
0010
,
1000
0110
0110
0110
,
1100
0100
0011
0100
,
0011
0100
0011
0001
,
1100
0100
0011
0001
,
1010
0100
0110
0100
,
1000
0000
1000
0100
0010
0100
0000
0100
,
0001
0000
0001
0000
0100
0010
0000
0010
,
1000
0000
1000
0100
0010
0100
0000
0100
,
0001
0110
2002
3003
,
0010
0000
0010
0001
1000
0001
0000
0001
,
0100
0000
0100
0000
0001
1000
0000
1000
,
0010
0000
0010
0001
1000
0001
0000
0001
,
0100
1001
0220
0330
,
0100
0000
0100
1000
0001
1000
0000
1000
,
0010
0000
0010
0000
1000
0001
0000
0001
,
0100
0000
0100
1000
0001
1000
0000
1000
,
0010
1001
0220
0330
,
1100
0000
0000
0022
0000
0000
0000
0000
,
0000
0000
0000
0033
,
1000
0000
1001
0000
0000
0110
0000
0000
,
0001
0000
1001
0000
0000
1010
0000
0000
,
1000
0000
1001
0000
0000
0022
0000
0000
,
0000
0000
0000
0033
,
1000
0000
1001
0000
0000
1010
0000
0000
,
1000
1010
0000
0000
,
0011
0000
0000
2200
0000
0000
0000
0000
,
0000
0000
0000
3300
,
0010
0000
0110
0000
0000
1001
0000
0000
,
0100
0000
0110
0000
0000
1010
0000
0000
,
0010
0000
0110
0000
0000
2200
0000
0000
,
0000
0000
0000
3300
,
0010
0000
0110
0000
0000
1010
0000
0000
,
0010
1010
0101
0000
,
1000
0100
0010
0100
,
0001
0000
1000
0000
0100
0000
0010
0100
,
0010
0001
0010
0100
,
1000
0000
0100
0000
0010
0000
1000
0100
,
1000
0010
0100
0001
,
0100
0000
1000
0000
0010
0000
0100
0010
,
0100
0001
0010
0100
,
0010
0000
0001
0000
0010
0000
0100
0001
,
0100
0001
1000
0001
,
0100
0000
0010
0000
0001
0000
1000
0001
,
1000
0100
1000
0001
,
0010
0000
0001
0000
1000
0000
0010
0001
,
0010
1000
0001
0100
,
0001
0000
0010
0000
1000
0000
0001
1000
,
0001
0100
1000
0001
,
1000
0000
0100
0000
1000
0000
0001
0100
,
0002
0000
2003
0000
,
3010
0000
0000
0010
0001
0000
0000
1000
,
0100
0000
0010
0100
0000
0100
0010
0000
,
0001
1000
0002
0000
0000
0000
1003
0000
,
0200
0000
0320
0000
,
1030
0000
0000
1000
0100
0000
0000
0010
,
0001
0000
1000
0001
0000
0001
1000
0000
,
0100
0010
0200
0000
0000
0000
0310
0000
,
0200
0000
0320
0000
,
1030
0000
0000
1000
0100
0000
0000
0010
,
0001
0000
1000
0001
0000
0001
1000
0000
,
0100
0010
0200
0000
0000
0000
0310
0000
,
0002
0000
2003
0000
,
3010
0000
0000
0010
0001
0000
0000
1000
,
0100
0000
0010
0100
0000
0100
0010
0000
,
0001
1000
0002
0000
0000
0000
1003
0000
,
1000
0000
0100
0000
0010
0000
0001
1000
,
0001
0000
0010
0000
0100
0000
1000
0001
,
1000
0000
0100
0000
0010
0000
0001
0100
,
1000
0000
0100
0000
0010
0000
0001
1000
,
0001
0000
0010
0000
0100
0000
1000
0100
,
0001
0000
0010
0000
0100
0000
1000
0001
,
1000
0000
0100
0000
0010
0000
0001
0100
,
1000
0000
0100
0000
0010
0000
0001
1000
,
0001
0000
0010
0000
0100
0000
1000
0100
,
0001
0000
0010
0000
0100
0000
1000
0001
,
1000
0000
0100
0000
0010
0000
0001
0100
,
1000
0000
0100
0000
0010
0000
0001
1000
,
0001
0000
0010
0000
0100
0000
1000
0001
,
1000
0000
0100
0000
0010
0000
0001
0100
,
1000
0000
0100
0000
0010
0000
0001
1000
,
0001
0000
0010
0000
0100
0000
1000
0100
,
0001
0000
0010
0000
0100
0000
1000
0001
,
1000
0000
0100
0000
0010
0000
0001
0100
,
1000
0000
0100
0000
0010
0000
0001
1000
,
0001
0000
0010
0000
0100
0000
1000
0100
,
0001
0000
0010
0000
0100
0000
1000
0001
,
1000
0000
0100
0000
0010
0000
0001
0100
,
1000
0000
0100
0000
0010
0000
0001
1000
,
0001
0000
0010
0000
0100
0000
1000
0001
,
1000
0000
0100
0000
0010
0000
0001
0100
,
1000
0000
0100
0000
0010
0000
0001
1000
,
0001
0000
0010
0000
0100
0000
1000
0100
,
0001
0000
0010
0000
0100
0000
1000
0001
,
1000
0000
0100
0000
0010
0000
0001
0100
,
1000
0000
0100
0000
0010
0000
0001
1000
,
0001
0000
0010
0000
0100
0000
1000
0100
,
0001
0000
0010
0000
0100
0000
1000
0001
,
1000
0000
0100
0000
0010
0000
0001
0100
,
1000
0000
0100
0000
0010
0000
0001
1000
,
0001
0000
0010
0000
0100
0000
1000
0001
,
1000
0000
0100
0000
0010
0000
0001
0100
,
1000
0000
0100
0000
0010
0000
0001
1000
,
0001
0000
0010
0000
0100
0000
1000
0100
,
0001
0000
0010
0000
0100
0000
1000
0001
,
1000
0000
0100
0000
0010
0000
0001
0100
,
1000
0000
0100
0000
0010
0000
0001
1000
,
0001
0000
0010
0000
0100
0000
1000
0100
,
0001
0000
0010
0000
0100
0000
1000
0001
,
1000
0000
0100
0000
0010
0000
0001
0100
,
1000
0000
0100
0000
0010
0000
0001
0100
,
1000
0000
0100
0000
0010
0000
0001
1000
,
0001
0000
0010
0000
0100
0000
1000
0100
,
0001
0010
0100
1000
,
0110
0011
0110
1100
,
0110
0011
0110
1100
,
0110
0011
0110
1100
,
1001
1010
1001
0101
,
1001
1010
1001
0101
,
1001
1010
1001
0101
,
0110
0011
0110
1010
,
0110
0101
0110
1010
,
0110
0101
0110
1010
,
1001
1100
1001
0011
,
1001
1100
1001
0011
,
1001
1100
1001
0011
,
0110
1001
0011
1100
,
1010
0101
0011
1100
,
1010
0101
0011
1100
,
1010
0101
1001
0110
,
2000
0000
3100
0010
,
0100
0000
0010
0001
0000
0001
0020
0000
,
0000
0230
0000
0000
,
0000
0000
0000
0300
,
0002
0000
0013
0100
,
0010
0000
0100
1000
0000
1000
0200
0000
,
0000
0320
0000
0000
,
0000
0000
0000
0030
,
0002
0000
0103
0100
,
1000
0000
0010
1000
0000
0010
0200
0000
,
0000
0320
0000
0000
,
0000
0000
0000
0030
,
2000
0000
3000
0100
,
0010
0000
0001
0010
0000
0100
0020
0000
,
0000
0230
0000
0000
,
0000
0000
0000
0300
,
2000
0000
3000
0100
,
0010
0000
0001
0010
0000
0100
0020
0000
,
0000
0000
0130
1000
0100
0010
0001
0000
,
1000
0100
0010
0001
0010
0100
0010
0000
,
0002
0000
0003
0010
,
0100
0000
1000
0100
0000
0010
0200
0000
,
0000
0000
0310
0001
0010
0100
1000
0100
,
0001
0010
0100
1000
0100
0010
0100
0000
,
0002
0000
0003
0010
,
0100
0000
1000
0100
0000
0010
0200
0000
,
0000
0000
0310
0001
0010
0100
1000
0000
,
0001
0010
0100
1000
0100
0010
0100
0000
,
2000
0000
3000
0100
,
0010
0000
0001
0010
0000
0100
0020
0000
,
0000
0000
0130
1000
0100
0010
0002
0000
,
1003
0100
0010
0001
0020
0000
0030
0000
,
1000
0100
1000
0100
,
0010
0000
0001
1000
0001
0000
0000
0000
,
0010
0100
0001
0010
,
0001
0000
1000
0100
1000
0000
0000
0000
,
0100
0010
0000
0000
0010
1000
0000
0000
,
1000
0001
0000
0000
0001
0010
0000
0000
,
0010
0100
0000
0000
0100
0010
0000
0000
,
0010
0001
0000
0000
0001
1000
0001
0000
,
0001
0010
0001
0010
,
0100
0000
1000
0001
1000
0000
0000
0000
,
0100
0010
1000
0100
,
1000
0000
0001
0010
0001
0000
0000
0000
,
0010
0100
0000
0000
0100
0001
0000
0000
,
0001
1000
0000
0000
1000
0100
0000
0000
,
0100
0010
0000
0000
0010
0100
0000
0000
,
0100
1000
0000
0000
1000
0001
1000
0000
,
0001
0010
0001
0010
,
0100
0000
1000
0001
1000
0000
0000
0000
,
0100
0010
1000
0100
,
1000
0000
0001
0010
0001
0000
0000
0000
,
0010
0100
0000
0000
0100
0001
0000
0000
,
0001
1000
0000
0000
1000
0100
0000
0000
,
0100
0010
0000
0000
0010
0100
0000
0000
,
0000
0110
1001
0110
,
1000
0100
1000
0100
,
0010
0000
0001
1000
0001
0000
0000
0000
,
0010
0100
0001
0010
,
0001
0000
1000
0100
1000
0000
0000
0000
,
0100
0010
0000
0000
0010
1000
0000
0000
,
1000
0001
0000
0000
0001
0010
0000
0000
,
0010
0100
0000
0000
0100
0010
0000
0000
,
0000
0110
1001
0110
,
0100
0000
1000
0000
0001
0000
1000
0100
,
1000
0000
0100
0000
1000
0000
0001
1000
,
0001
0000
0010
0000
0001
0000
0100
0010
,
0100
0000
1000
0000
0001
0000
0100
1000
,
0100
0000
0001
0000
1000
0000
0010
0001
,
0010
0000
0100
0000
0001
0000
1000
0001
,
1000
0000
0010
0000
0001
0000
1000
0010
,
1000
0000
0010
0000
0001
0000
1000
0010
,
1000
0000
0010
0000
0100
0000
0010
1000
,
0010
0000
0001
0000
0010
0000
0100
0010
,
0100
0000
1000
0000
0100
0000
0001
0100
,
0001
0000
0010
0000
0100
0000
0001
0010
,
0001
0000
0100
0000
0010
0000
1000
0100
,
1000
0000
0001
0000
0100
0000
0010
0100
,
0010
0000
1000
0000
0100
0000
0010
1000
,
0010
0000
1000
0000
0100
0000
0010
1000
,
0010
0000
1000
0000
0100
0000
1000
0010
,
1000
0000
0001
0000
0010
0000
0100
0010
,
0100
0000
1000
0000
0100
0000
0001
1000
,
0001
0000
0010
0000
0100
0000
0001
0010
,
0001
0000
0100
0000
0010
0000
1000
0010
,
1000
0000
0001
0000
0100
0000
0010
0100
,
0010
0000
1000
0000
0100
0000
0010
0001
,
0010
0000
1000
0000
0100
0000
0010
1000
,
0010
0000
1000
0000
0001
0000
0010
1000
,
0010
0000
0100
0000
1000
0000
0001
1000
,
0001
0000
0010
0000
0001
0000
0100
0010
,
0100
0000
1000
0000
0001
0000
0100
1000
,
0100
0000
0001
0000
1000
0000
0010
0100
,
0010
0000
0100
0000
0001
0000
1000
0001
,
1000
0000
0010
0000
0001
0000
1000
0100
,
1000
0000
0010
0000
0001
0000
1000
0010
,
1000
0100
0010
0001
0020
0000
0000
0000
,
1030
0100
0010
0001
0020
0000
0000
0000
,
0000
0000
0000
0000
,
0000
0000
0000
0000
,
0031
0010
0100
1000
0200
0000
0000
0000
,
0301
0010
0100
1000
0200
0000
0000
0000
,
0000
0000
0000
0000
,
0000
0000
0000
0000
,
1300
0100
0010
0001
0020
0000
0000
0000
,
1030
0100
0010
0001
0020
0000
0000
0000
,
0000
0000
0000
0000
,
0000
0000
0000
0000
,
0031
0010
0100
1000
0200
0000
0000
0000
,
0301
0010
0100
1000
0200
0000
0000
0000
,
0000
0000
0000
0000
,
0000
0000
0000
0000
,
1300
0100
0010
0001
0020
0000
0000
0000
,
1030
0100
0010
0001
0020
0000
0000
0000
,
0000
0000
0000
0000
,
0000
0000
0000
0000
,
0031
0010
0100
1000
0200
0000
0000
0000
,
0301
0010
0100
1000
0200
0000
0000
0000
,
0000
0000
0000
0000
,
0000
0000
0000
0000
,
1300
0100
0010
0001
0020
0000
0000
0000
,
1030
0100
0010
0001
0020
0000
0000
0000
,
0000
0000
0000
0000
,
0000
0000
0000
0000
,
0031
0010
0100
1000
0200
0000
0000
0000
,
0301
0010
0100
1000
0200
0000
0000
0000
,
0000
0000
0000
0000
,
0000
0000
0000
0000
,
0300
0000
0001
0000
1000
0000
0001
0010
,
0001
0000
0010
0000
0001
0000
1000
0001
,
1000
0000
0100
0000
1000
0000
0010
0100
,
0010
0000
0001
0000
1000
0000
0010
0001
,
0010
0000
1000
0000
0001
0000
0100
1000
,
0100
0000
0010
0000
1000
0000
0001
1000
,
0001
0000
0100
0000
1000
0000
0001
0100
,
0001
0000
0100
0000
1000
0000
0001
0100
,
0001
0000
0100
0000
0010
0000
0100
0001
,
0100
0000
1000
0000
0100
0000
0010
0100
,
0010
0000
0001
0000
0010
0000
1000
0010
,
1000
0000
0100
0000
0010
0000
1000
0100
,
1000
0000
0010
0000
0100
0000
0001
0010
,
0001
0000
1000
0000
0010
0000
0100
0010
,
0100
0000
0001
0000
0010
0000
0100
0001
,
0100
0000
0001
0000
0010
0000
0100
0001
,
0100
0000
0001
0000
0010
0000
0001
0100
,
0001
0000
1000
0000
0100
0000
0010
0100
,
0010
0000
0001
0000
0010
0000
1000
0001
,
1000
0000
0100
0000
0010
0000
1000
0100
,
1000
0000
0010
0000
0100
0000
0001
0100
,
0001
0000
1000
0000
0010
0000
0100
0010
,
0100
0000
0001
0000
0010
0000
0100
1000
,
0100
0000
0001
0000
0010
0000
0100
0001
,
0100
0000
0001
0000
1000
0000
0100
0001
,
0100
0000
0010
0000
0001
0000
1000
0001
,
1000
0000
0100
0000
1000
0000
0010
0100
,
0010
0000
0001
0000
1000
0000
0010
0001
,
0010
0000
1000
0000
0001
0000
0100
0010
,
0100
0000
0010
0000
1000
0000
0001
1000
,
0001
0000
0100
0000
1000
0000
0001
0010
,
0001
0000
0100
0000
1000
0000
0001
0100
,
0002
0000
0000
0020
0003
0000
0200
0030
,
0000
2000
0300
0000
0000
0200
3000
0000
,
0020
0300
0000
0002
0030
0000
0020
0003
,
0000
0000
0002
0030
0000
2000
0003
0000
,
0020
3000
0000
0200
0030
0000
2000
0300
,
0000
0000
0200
3000
0000
0020
0300
0000
,
0002
0030
0000
0020
0003
0000
0000
0002
,
0030
0000
0200
0003
0000
0020
0300
0000
,
0200
0030
0000
2000
0300
0000
0000
0200
,
3000
0000
0020
0300
0000
0002
0030
0000
,
0020
0003
0000
0000
0002
0030
0000
2000
,
0003
0000
0020
3000
0000
0200
0030
0000
,
2000
0300
0000
0000
0200
3000
0000
0020
,
0300
0000
0002
0030
0000
0020
0003
0000
,
0000
0002
0030
0000
0020
0003
0000
0200
,
0030
0000
2000
0300
0000
0000
3001
0000
,
2010
0100
0010
0100
,
0010
0100
0010
3100
,
0020
0000
0000
0000
,
2030
0000
3020
0000
,
0230
0001
0010
0001
,
0010
0001
0010
0001
,
0320
0000
0000
0000
,
2030
0000
3200
0000
,
0302
0010
0100
0010
,
0100
0010
0100
0013
,
0200
0000
0000
0000
,
0302
0000
0203
0000
,
0320
1000
0100
1000
,
0100
1000
0100
1000
,
0230
0000
0000
0000
,
0302
0000
0023
0000
,
0230
0001
1000
0001
,
1000
0001
1000
0301
,
2000
0000
0000
0000
,
3020
0000
2030
0000
,
3002
0100
1000
0100
,
1000
0100
1000
0100
,
2003
0000
0000
0000
,
3020
0000
0032
0000
,
0203
1000
0001
1000
,
0001
1000
0001
1300
,
0002
0000
0000
0000
,
0203
0000
0302
0000
,
2003
0010
0001
0010
,
0001
0010
0001
0010
,
3002
0000
0000
0000
,
0203
0000
2300
0000
,
3000
0000
1010
0000
0000
2002
0000
0000
,
0000
0000
3003
1000
,
1010
0000
0000
1100
0000
0000
1001
0000
,
0011
0000
0000
1010
0000
0000
1001
0000
,
0110
0000
0000
2200
0000
0000
0000
0000
,
0000
3300
1000
1100
,
0000
0011
0000
0000
1100
0000
0110
0000
,
2020
0000
0000
3030
,
0000
0000
1010
0000
0000
0220
0000
0000
,
0000
0000
0330
0010
,
1010
0000
0000
0011
0000
0000
0110
0000
,
1100
0000
0000
1010
0000
0000
0110
0000
,
1001
0000
0000
0022
0000
0000
0000
0000
,
0000
0033
0010
0011
,
0000
1100
0000
0000
0011
0000
1001
0000
,
2020
0000
0000
3030
,
2002
0000
0000
0000
,
0000
0000
0000
0000
,
0000
0000
0000
3003
;
