#TITLE:9mm Parabellum Bullet;
#SUBTITLE:;
#ARTIST:インフェルノ;
#TITLETRANSLIT:;
#SUBTITLETRANSLIT:;
#ARTISTTRANSLIT:Inferno;
#CREDIT:owenviau1;
#BANNER:../Banner.png;
#BACKGROUND:../BG.PNG;
#LYRICSPATH:;
#CDTITLE:../CDTitleOV1.png;
#MUSIC:9mm Parabellum Bullet - Inferno.ogg;
#OFFSET:-0.410;
#SAMPLESTART:30.879;
#SAMPLELENGTH:29.999;
#SELECTABLE:YES;
#BPMS:0.000=194.950;
#STOPS:;
#BGCHANGES:;
// cache tags:
#FIRSTBEAT:0.000;
#LASTBEAT:290.250;
#SONGFILENAME:Songs/Index Fusion/9mm Parabellum Bullet - [owenviau1]/9mm Parabellum Bullet.sm;
#HASMUSIC:1;
#HASBANNER:1;
#MUSICLENGTH:90.148;
// end cache tags

//---------------dance-single - 15 (owenviau1)----------------
#NOTES:
     dance-single:
     15 (owenviau1):
     Challenge:
     15:
     1.000,1.000,0.100,0.932,1.000,870.000,9.000,84.000,0.000,2.000:
0001
0000
0000
0000
0001
0000
0000
0000
0001
0000
0000
0000
1000
0100
1000
0010
,
0100
0001
0100
0010
1000
0001
1000
0100
0010
0001
1000
0010
0100
0001
0100
0010
,
1000
0001
0100
0001
0010
0100
1000
0001
0010
0001
1000
0100
1000
0010
0100
0001
,
0100
0010
1000
0001
1000
0100
0010
0001
1000
0100
1000
0001
0010
0001
0100
0010
,
0100
0001
1000
0010
1000
0001
0010
0100
1000
0100
0010
0001
1000
0100
1000
0001
,
0010
0001
0100
0010
0100
0001
1000
0001
0100
0010
1000
0010
0100
0001
1000
0001
,
0010
0100
1000
0001
0010
0001
0100
0010
0100
0001
1000
0010
2000
0000
0000
0000
,
3200
0320
1032
0203
,
0320
0000
2130
0000
3000
0002
0003
0200
,
0320
0000
0000
0000
1030
0000
0001
0100
0002
0000
0000
0000
1003
0100
0010
0001
,
1000
0010
0100
0010
1000
0001
0100
0001
0010
0100
1000
0001
0010
0001
1000
0100
,
1000
0010
0100
0001
0100
0010
1000
0001
1000
0100
0010
0001
1000
0100
1000
0010
,
0100
0010
1000
0001
0100
0001
1000
0100
0020
0000
0030
0000
0001
1000
0001
0100
,
0010
0100
0001
1000
0010
1000
0100
0010
0001
1000
0100
1000
0001
0010
0001
0100
,
0010
0100
0001
1000
0010
1000
0100
0010
0001
1000
0100
1000
0001
0100
0010
0100
,
0001
1000
0010
1000
0100
0010
0001
1000
0100
1000
0001
0010
0001
0100
0010
0100
,
0001
1000
0010
1000
0100
0010
0001
0100
0001
1000
0010
0100
0001
0100
0010
1000
,
0001
1000
0100
0010
0001
1000
0100
1000
0010
0100
0010
1000
0001
0100
0001
0010
,
0100
1000
0001
0010
0001
0100
0010
1000
0001
0000
0000
0000
0100
0010
0100
0000
,
0001
1000
0001
0010
0100
1000
0010
1000
0002
0000
0013
0000
0200
0000
2300
0000
,
3001
0000
0200
0000
0301
1000
0001
0000
0010
0100
1000
0001
0100
0001
1000
0010
,
0200
0000
0301
0000
1000
0000
0001
0000
0200
0000
0320
0000
1030
0001
1000
0100
,
0010
0000
0001
0000
2000
0000
3020
0000
1030
0001
0100
0010
0100
0000
0001
0000
,
2000
0000
3100
0000
0010
0001
0010
0000
0100
1000
0001
1000
0010
0100
0001
1000
,
0002
0013
0100
1000
0001
1000
0020
0230
,
0320
0000
1030
0000
0001
0000
0020
0000
0230
0000
2300
0000
3002
0000
0103
0010
,
0200
0000
0300
0000
0002
0000
1003
0010
2000
0000
3100
0000
0010
0000
0001
1000
,
0002
0000
0023
0000
0230
0000
1300
0010
2000
0000
3000
0000
0001
0100
0010
1000
,
0001
0000
0010
0000
0200
0000
2300
0000
3010
0100
0001
0100
0010
0000
1000
0000
,
0002
0000
0013
0000
0100
1000
0100
0000
0010
0001
1000
0001
0100
0010
1000
0010
,
0200
0320
2030
3002
,
0023
0230
2300
3002
,
0003
0100
0020
0000
0000
2030
0000
3001
,
0020
0000
0000
0000
0130
1000
0200
0000
0000
0320
0000
0000
,
0031
1000
0002
0000
0023
0000
0230
0000
,
1300
0001
0200
0000
0310
2000
3001
0020
,
0230
0000
0000
0000
1000
0000
0000
0300
1000
0000
0000
0000
0001
0010
0100
1000
,
0001
0100
0010
1000
0010
0100
0001
1000
0001
0100
0010
0100
0001
1000
0100
0010
,
0001
1000
0100
1000
0010
0100
0010
1000
0001
0100
0001
0010
0100
1000
0001
0010
,
0001
1000
0100
1000
0001
0100
0010
0100
0001
1000
0100
1000
0010
0100
0010
1000
,
0001
0100
0001
1000
0100
0010
0001
0010
0100
1000
0001
0010
0001
1000
0100
1000
,
0001
0100
0010
1000
0010
0100
0001
1000
0001
0010
0100
1000
0100
0010
0001
1000
,
0100
1000
0001
0100
0010
0100
0001
1000
0010
1000
0001
0100
0010
0000
1000
0000
,
0001
0100
0001
1000
0100
0010
0001
1000
,
0010
1000
1001
0101
0000
1010
1001
0000
,
2020
0000
0000
3030
0220
0000
0000
0330
1001
0000
0000
0000
2000
0000
0000
0000
,
3200
0300
0020
0000
0032
0000
2003
0000
,
3020
0000
0230
0000
0000
0320
0000
1030
,
0002
0000
0000
0000
0103
0000
0010
1000
0020
0000
0030
0000
0100
0001
0100
0010
,
1000
0001
1000
0100
0010
0001
1000
0100
1000
0001
0010
0001
0100
0010
0100
0001
,
1000
0100
0010
0001
1000
0010
1000
0001
0100
0001
0010
0100
1000
0001
0010
0001
,
1000
0100
1000
0010
0100
0010
1000
0001
0200
0000
0000
0000
0310
1000
0001
1000
,
0100
0010
0001
1000
0100
1000
0001
0010
0001
0100
0010
0100
0001
1000
0010
1000
,
0001
0010
0100
1000
0010
0100
0001
0100
0010
1000
0001
1000
0100
0010
0001
1000
,
0100
1000
0010
0100
0010
1000
0001
0100
0001
1000
0100
0010
0001
1000
0100
0010
,
0001
1000
0010
1000
0001
0100
0010
0100
0001
1000
0100
0010
0001
0010
0100
1000
,
0001
0100
0010
1000
0010
0100
0001
1000
0001
0100
0010
0100
0001
1000
0100
0010
,
0001
1000
0100
1000
0001
0100
0010
0100
0001
1000
0010
0000
0200
0000
0000
0000
,
0301
1000
0001
0010
0100
1000
0001
0100
0001
1000
0010
0100
0010
1000
0001
0100
,
0001
1000
0100
0010
0001
1000
0010
1000
0100
0010
0001
0100
0010
0100
0001
1000
,
0001
0100
0010
0100
0001
1000
0100
1000
0010
0000
0100
0000
0002
0000
0000
0000
,
0023
0000
0230
0000
1300
0001
2000
0000
,
3020
0000
0030
0000
0100
0000
0001
1000
0001
0000
0010
0100
1000
0000
0001
0100
,
0001
1000
0100
0010
0002
0000
0003
0000
1000
0100
0010
0001
1000
0010
0100
0010
,
1000
0001
0100
0001
0010
0100
1000
0001
0010
0001
0100
0010
0100
0001
1000
0010
,
1000
0001
0100
0001
1000
0010
0100
0010
1000
0001
0010
0100
1000
0001
0010
0001
,
0100
0010
0100
0001
1000
0100
1000
0010
0100
0010
1000
0001
0100
0001
1000
0100
,
0010
0001
1000
0100
1000
0001
0010
0001
0100
0010
0100
0001
1000
0010
1000
0001
,
0100
0001
1000
0100
0010
0001
0010
0100
1000
0001
0010
0001
0100
0010
0100
0001
,
1000
0010
1000
0001
0100
0001
1000
0100
0020
0000
0000
0000
0031
1000
0001
0100
,
0010
1000
0010
0100
0001
1000
0001
0010
0100
1000
0001
0100
0001
1000
0010
1000
,
0100
0010
0001
0100
0010
0100
0001
1000
0001
0010
0100
1000
0001
0100
0001
1000
,
0020
0000
0000
0000
0000
0000
0000
0000
0000
0030
0000
0000
0000
0000
0000
0000
;
