#TITLE:Chaoz Devotion;
#SUBTITLE:;
#ARTIST:ParagonX9;
#TITLETRANSLIT:;
#SUBTITLETRANSLIT:;
#ARTISTTRANSLIT:;
#CREDIT:;
#BANNER:../BN.png;
#BACKGROUND:../BG.png;
#LYRICSPATH:;
#CDTITLE:../CDTitleKaze.png;
#MUSIC:ParagonX9 - Chaoz Devotion.ogg;
#OFFSET:-0.015;
#SAMPLESTART:34.301;
#SAMPLELENGTH:12.000;
#SELECTABLE:YES;
#BPMS:0.000=175.000;
#STOPS:;
#BGCHANGES:;
// cache tags:
#FIRSTBEAT:0.000;
#LASTBEAT:332.000;
#SONGFILENAME:Songs/Index Gradation/Chaoz Devotion - [Bobbykaze]/ParagonX9 - Chaoz Devotion.sm;
#HASMUSIC:1;
#HASBANNER:1;
#MUSICLENGTH:113.847;
// end cache tags

//---------------dance-single - ----------------
#NOTES:
     dance-single:
     :
     Challenge:
     16:
     1.000,1.000,0.018,0.000,1.000,834.000,2.000,0.000,0.000,0.000:
0100
0010
1000
0001
1000
0010
1000
0100
,
0010
0001
1000
0001
0100
0001
0010
0100
,
1000
0010
1000
0001
1000
0100
1000
0001
,
0010
0010
0010
0010
0100
0100
0100
0100
,
1000
0010
0100
0001
1000
0001
0100
0001
,
1000
0010
1000
0001
1000
0100
1000
0010
,
0100
0001
1000
0001
0100
0001
1000
0010
,
0100
0100
0100
0100
0010
0010
0010
0010
,
0001
0100
0001
1000
0010
0100
0001
0100
,
0010
1000
0001
1000
0010
0100
0001
0100
,
0010
1000
0001
1000
0010
0100
0001
1000
,
0010
0010
0010
0010
0100
0100
0100
0100
,
0010
0100
0001
1000
0010
1000
0001
0100
,
0010
1000
0010
0100
0001
1000
0010
1000
,
0001
0100
0010
1000
0010
0100
0001
1000
,
0010
0010
0010
0010
0100
0100
0100
0100
,
0010
0000
0000
0000
,
0000
0000
0000
0000
,
1000
0100
0010
0001
1000
0010
0100
0001
0100
0010
1000
0001
1000
0010
0100
0001
,
1000
0010
1000
0100
0010
0001
1000
0010
0100
0010
1000
0001
0100
0010
0100
0001
,
1000
0010
1000
0100
0010
0001
0100
0001
1000
0010
0100
0010
1000
0001
0100
0001
,
1000
0010
1000
0001
0100
0001
1000
0010
,
1000
0100
0010
0001
0100
0010
1000
0001
0100
0001
1000
0010
0100
0001
0100
0010
,
1000
0001
1000
0100
0010
0001
0010
0100
1000
0010
0100
0001
0100
0010
1000
0001
,
0100
0001
1000
0100
0010
0001
0100
0010
1000
0001
1000
0010
0100
0001
1000
0000
,
0001
0100
0001
1000
0010
0100
0001
0100
,
0001
0010
0100
1000
0010
0100
0001
1000
0010
1000
0001
0100
0010
0100
0001
1000
,
0010
1000
0001
0010
0100
1000
0010
0100
0001
1000
0001
0100
0010
1000
0001
0100
,
0010
0100
0001
0010
0100
1000
0100
0010
0001
0100
0010
1000
0001
0100
0001
0000
,
0100
0010
0100
0001
1000
0010
0100
0001
,
1000
0010
0100
0001
1000
0001
0100
0010
1000
0100
0010
0001
0100
0001
0100
0010
,
1000
0001
1000
0100
0010
0001
0100
0001
1000
0010
0100
0001
1000
0010
0100
0010
,
1000
0001
1000
0100
0010
0001
0100
0010
0100
0001
1000
0001
0100
0010
1000
0001
,
0100
0100
0100
0100
0010
0010
0010
0010
,
1000
0000
0010
0000
0100
0000
0001
0000
0100
0000
0000
0001
0000
0000
1000
0000
,
0000
0000
0001
0000
0100
0000
0010
0000
1000
0000
0000
0010
0000
0000
0100
0000
,
0000
0000
0010
0000
0100
0000
0001
0000
1000
0000
0000
0010
0000
0000
1000
0000
,
0001
0001
0001
0001
1000
1000
1000
1000
,
0000
0000
0010
0000
0100
0000
0001
0000
1000
0000
0000
0010
0000
0000
0100
0000
,
0000
0000
0001
0000
1000
0000
0001
0000
0100
0000
0000
0010
0000
0000
1000
0000
,
0000
0000
0001
0000
1000
0000
0010
0000
0100
0000
0000
0001
0000
0000
1000
0000
,
0010
0010
0010
0010
0100
0100
0100
0100
,
0000
0000
0001
0000
1000
0000
0001
0000
0100
0000
0000
0010
0000
0000
0100
0000
,
0000
0000
0001
0000
1000
0000
0010
0000
0100
0000
0000
0001
0000
0000
1000
0000
,
0000
0000
0010
0000
0100
0000
0010
0000
1000
0000
0000
0001
0000
0000
1000
0000
,
0010
0010
0010
0010
1000
1000
1000
1000
,
0000
0000
0010
0000
0100
0000
0001
0000
1000
0000
0000
0010
0000
0000
0100
0000
,
0000
0000
0010
0000
1000
0000
0001
0000
0100
0000
0000
0001
0000
0000
0100
0000
,
0000
0000
0001
0000
0010
0000
0100
0000
1000
0000
0000
0010
0000
0000
1000
0000
,
0001
0001
0001
0001
0100
0100
0100
0100
,
0011
0000
0000
0101
0000
0000
0010
0100
1000
0000
0010
0000
0100
0000
0001
0000
,
1000
0100
0010
0001
0100
0001
1000
0010
0100
0001
0100
0010
1000
0001
1000
0010
,
0100
0010
1000
0100
0010
0001
0100
0001
1000
0010
0100
0010
1000
0001
0010
0001
,
0100
0010
1000
0100
0010
0001
0100
0010
1000
0001
0010
0100
1000
0010
0100
0000
,
0001
0001
0001
0001
1000
1000
1000
1000
,
0001
0010
0100
1000
0010
0100
0001
1000
0010
1000
0001
0100
0010
0100
0001
1000
,
0010
1000
0001
0010
0100
1000
0010
0100
0001
1000
0001
0100
0010
1000
0001
0100
,
0010
0100
0001
0010
0100
1000
0100
0010
0001
0100
0010
1000
0001
0100
0010
0000
,
0100
0001
0100
0010
1000
0010
0100
0001
,
1000
0010
0100
0001
1000
0001
0100
0010
1000
0100
0010
0001
0100
0001
0100
0010
,
1000
0001
1000
0100
0010
0001
0100
0001
1000
0010
0100
0001
1000
0010
0100
0010
,
1000
0001
1000
0100
0010
0001
0100
0010
0100
0001
1000
0001
0100
0010
1000
0001
,
0100
0100
0100
0100
0010
0010
0010
0010
,
1000
0100
0010
0001
1000
0010
0100
0001
0100
0010
1000
0001
1000
0010
0100
0001
,
1000
0010
1000
0100
0010
0001
1000
0010
0100
0010
1000
0001
0100
0010
0100
0001
,
1000
0010
1000
0100
0010
0001
0100
0001
1000
0010
0100
0010
1000
0001
0100
0001
,
1000
0010
1000
0001
0100
0001
1000
0010
,
0000
0000
0100
0000
0010
0000
1000
0000
0010
0000
0000
0100
0000
0000
0001
0000
,
0000
0000
1000
0000
0010
0000
1000
0000
0001
0000
0000
0100
0000
0000
0010
0000
,
0000
0000
1000
0000
0001
0000
0100
0000
0010
0000
0000
1000
0000
0000
0001
0000
,
0100
0100
0100
0100
0010
0010
0010
0010
,
0000
0000
1000
0000
0001
0000
0100
0000
0010
0000
0000
0100
0000
0000
0001
0000
,
0000
0000
0100
0000
0010
0000
1000
0000
0001
0000
0000
0100
0000
0000
0010
0000
,
0000
0000
1000
0000
0010
0000
1000
0000
0001
0000
0000
0100
0000
0000
0010
0000
,
1000
0000
1000
0000
1000
0000
1000
0000
0010
0000
0010
0000
0010
0100
0001
1000
,
0010
0000
0100
0000
0001
0000
1000
0000
0010
0000
0000
0100
0000
0000
0010
0000
,
0000
0000
1000
0000
0001
0000
0100
0000
0010
0000
0000
1000
0000
0000
0010
0000
,
0000
0000
0100
0001
1000
0010
0100
0001
1000
0001
0100
0010
1000
0001
0100
0010
,
0100
0100
0100
0100
0010
0010
0010
0010
,
1000
0001
1000
0010
0100
0001
1000
0001
0100
0010
1000
0001
0100
0001
1000
0010
,
1000
0100
0010
0001
0010
0100
1000
0100
0010
0001
0010
0100
1000
0010
0100
0001
,
1000
0010
0100
0010
1000
0001
1000
0010
0100
0001
1000
0010
1000
0100
0010
0001
,
0100
0000
0100
0000
0100
0000
0100
0000
0010
0000
0010
0000
0010
1000
0001
0100
,
0010
0000
0000
0000
;
