#TITLE:Body Breakdown;
#SUBTITLE:;
#ARTIST:Dragonforce;
#TITLETRANSLIT:;
#SUBTITLETRANSLIT:;
#ARTISTTRANSLIT:;
#CREDIT:B. Abear;
#BANNER:Bn-Body.png;
#BACKGROUND:Bg-Body.png;
#LYRICSPATH:;
#CDTITLE:;
#MUSIC:Body Breakdown.ogg;
#OFFSET:-0.270;
#SAMPLESTART:76.889;
#SAMPLELENGTH:19.315;
#SELECTABLE:YES;
#BPMS:0.000=200.000,124.000=100.000,126.000=200.000,1125.000=100.000,1153.000=200.000,1237.000=100.000,1239.000=200.000,1295.000=100.000;
#STOPS:908.000=0.300
;
#BGCHANGES:;
// cache tags:
#FIRSTBEAT:0.000;
#LASTBEAT:1322.250;
#SONGFILENAME:Songs/Dragonforce/Body Breakdown/Body Breakdown.sm;
#HASMUSIC:1;
#HASBANNER:1;
#MUSICLENGTH:418.873;
// end cache tags

//---------------dance-single - B. Abear----------------
#NOTES:
     dance-single:
     B. Abear:
     Challenge:
     15:
     1.000,1.000,0.356,1.000,1.000,3215.000,149.000,452.000,26.000,1.000:


0001
0100
0001
0100
0001
1000
0001
1000
0200
0000
0300
0000
MMM0
0000
0000
0000
,
1000
0100
1000
0100
1000
0001
1000
0001
0400
0000
0000
0000
M3M0
0000
0000
0000
,
2020
3030
0202
0303
,
0000
0000
0220
0000
0000
0330
1001
0000
0220
0000
0000
0330
1001
0000
0000
0000
,
1000
0001
0100
1000
0100
0010
0100
0001
,
1000
0100
0010
0001
0010
1000
0010
0001
,
1000
0001
1000
0010
0100
0001
1000
0100
,
0001
0000
0100
0000
1000
0000
0001
0000
1000
0000
0010
0000
0100
0001
0100
0001
,
0100
0010
1000
0001
0010
0001
1000
0100
,
0010
0001
1000
0010
0001
0010
0100
0001
,
1000
0000
0000
0100
0000
0000
0001
0000
0000
0100
0000
0000
1000
0000
0000
0010
0000
0000
0100
0000
0000
0001
1000
0001
,
1000
1001
0000
0110
0000
0000
1001
0000
,
0001
0100
0001
0100
0010
1000
0010
1000
0001
0100
0001
0010
0100
1000
0100
0010
,
0100
1000
0100
1000
0001
0100
0001
0100
0010
1000
0001
0010
0001
0100
0010
1000
,
0002
0000
0203
0000
0310
1000
0010
1000
0001
0100
0001
0010
0100
1000
0100
1000
,
0002
0000
0023
0000
0130
1000
0100
1000
0001
0100
0010
1000
0001
0010
0001
0100
,
0010
1000
0010
1000
0001
0100
0001
0100
0020
0000
1030
0001
1000
0100
0010
0001
,
1000
0001
0100
0010
1000
0001
0010
0001
1000
0100
0010
0001
0010
0001
1000
0010
,
0200
0000
0302
0000
2003
0000
3200
0000
0310
0001
1000
0001
0200
0000
0320
0000
,
1030
0100
1000
0100
0010
0001
0010
0001
1000
0001
1000
0000
1000
0000
0010
0000
,
0100
0001
1000
0001
1000
0100
0010
0001
1000
0001
1000
0010
0100
0001
1000
0100
,
0020
0000
0032
0000
0203
0000
0320
0000
0130
0010
1000
0010
1000
0010
0100
0001
,
2000
0000
3200
0000
0320
0000
0032
0000
1003
0100
0010
0001
1000
0010
0100
0010
,
2000
0000
3001
0100
0001
1000
0001
0010
0100
1000
0100
0010
0001
1000
0010
1000
,
0001
0100
0010
1000
0001
0100
0010
1000
0001
0100
0010
0100
0001
1000
0100
0010
,
0001
1000
0001
1000
0001
0100
0001
0100
0001
1000
0001
1000
0001
0010
0001
0010
,
0100
1000
0100
1000
0100
0010
0100
0010
0100
1000
0100
1000
0100
0010
0100
0010
,
0001
1000
0001
1000
0010
0100
0001
1000
0001
1000
0010
0100
0001
1000
0001
1000
,
0400
0000
0000
0000
0040
0300
0000
0000
0004
0030
0000
0000
4000
0003
0000
0000
,
0004
3000
0000
0000
0040
0003
0000
0000
0400
0030
0000
0000
2000
0300
3002
0000
,
1003
0100
1000
0000
0001
0100
0001
0100
0001
0000
1000
0010
1000
0010
1000
0000
,
2002
0000
0000
3003
1000
0100
1100
1000
,
0001
0000
0100
0000
0010
1000
0010
0000
0100
0000
0001
0000
1001
0000
1000
0000
,
0100
0000
0010
0000
0001
1000
0001
0000
0100
0000
0010
0000
1010
0000
1000
0000
,
0001
0000
1000
0000
0100
1000
0100
0000
0010
0000
0001
0000
1001
0000
1000
0000
,
0001
0000
0100
0000
0010
1000
0010
0000
0100
0000
0001
0000
1001
0000
1000
0000
,
0100
0000
0010
0000
0001
1000
0001
0000
0100
0000
0010
0000
1010
0000
1000
0000
,
0001
0000
1000
0000
0001
0010
0001
0000
1000
0000
0100
0000
0110
0000
0010
0000
,
0001
0000
1000
0000
0001
0100
0001
0000
1000
0100
0010
0001
1000
0001
0100
0010
,
0100
0001
1000
0100
0010
0001
1000
0001
0100
0000
0010
0000
0100
0001
0100
0000
,
0001
0000
1000
0000
0100
1000
0100
0000
0010
0000
0001
0000
1001
0000
1000
0000
,
0001
0000
0100
0000
0010
0100
0010
0000
1000
0000
0001
0000
0010
0001
0010
0000
,
0100
0000
1000
0000
0001
1000
0001
0000
0100
0000
0010
0000
1010
0000
1000
0000
,
0001
0000
0010
0000
0100
1000
0100
0000
0010
0000
0001
0000
1000
0010
1000
0000
,
0001
0000
0100
0000
0001
0100
0001
0000
1000
0000
0001
0000
1001
0000
1000
0000
,
0001
0000
0010
0000
0100
1000
0100
0000
0010
0001
1000
0001
0100
0010
1000
0010
,
0100
0001
0010
0100
1000
0100
0010
0100
0010
0001
1000
0010
1000
0001
0100
0001
,
0010
0001
0100
0010
1000
0001
0010
0100
1000
0001
1000
0010
0100
0001
1000
0100
,
0010
0001
0010
0001
1000
0010
0100
0001
1000
0100
0010
0100
0010
0001
1000
0010
,
0100
0001
1000
0100
1000
0001
0100
0010
1000
0010
1000
0001
0010
0001
1000
0010
,
0100
0001
1000
0100
1000
0001
0100
0010
1000
0010
0100
0010
1000
0001
0010
0001
,
1000
0100
0010
0001
1000
0010
0100
0001
1000
0001
0010
0100
1000
0010
0100
0001
,
1000
0100
1000
0100
0010
0001
1000
0010
0100
0001
0100
0001
1000
0100
0010
0001
,
1000
0010
0100
0001
1000
0100
0010
0001
1000
0010
1000
0100
0010
0001
0010
0001
,
1000
0010
0100
0001
1000
0001
0100
0010
1000
0100
1000
0100
0010
0001
0010
0001
,
1000
0010
1000
0010
0100
0001
0100
0001
1000
0000
0001
0000
0010
0001
0010
0000
,
0001
0000
1000
0000
0001
1000
0001
0000
0100
0000
0010
0000
1000
0010
1000
0000
,
0001
0000
1000
0000
0001
0010
0001
0000
1001
0000
1000
0000
0100
0010
0100
0000
,
0010
0000
0001
0000
1000
0010
1000
0000
0001
0000
0100
0000
0001
0010
0001
0000
,
1000
0000
0100
0000
0010
0001
0010
0000
0100
0000
1000
0000
0001
0100
0001
0000
,
1000
0000
0010
0000
0100
0001
0100
0000
0010
0000
0100
0000
0010
0100
0010
0000
,
1000
0000
0001
0000
0010
0001
0010
0000
0100
1000
0100
1000
0001
0100
0001
0100
,
0010
1000
0010
1000
0001
0010
0001
0010
0100
1000
0100
0010
0001
1000
0100
1000
,
0100
0010
0001
1000
0100
1000
0001
0000
0202
0000
0303
0000
2002
0000
3003
0000
,
2200
3300
0022
0033
2002
3003
0220
0330
,
0202
0303
2002
3003
1001
0100
0000
1010
,
0001
0000
0000
0000
1100
0000
0010
0000
0001
0000
1000
0000
0001
0100
0001
0000
,
1000
0001
1000
0001
0100
0010
0100
0010
2000
0000
0000
0000
0001
0000
0000
0000
,
0001
0001
3020
0100
,
0130
0001
1000
0100
1000
0001
0010
0001
0100
0000
0010
0000
1000
0001
1000
0000
,
0010
0000
1000
0000
0001
0010
0001
0000
1000
0000
0100
0000
0010
0001
0010
0000
,
0001
0000
1000
0001
0400
0000
0000
0300
2002
0000
3003
0000
2200
0000
3300
0000
,
0022
0033
0220
0330
2002
3003
2200
3300
,
0022
0033
2002
3003
0101
0010
0000
1001
,
0100
0000
0000
0000
1010
0000
0001
0000
1000
0000
0100
0000
0010
0001
0010
0000
,
0001
0100
0001
0100
0010
1000
0010
1000
0001
0010
0001
1000
0010
0100
0010
1000
,
0001
0010
0001
1000
0010
0100
0001
1000
0100
0010
0001
1000
0010
0100
0001
0100
,
0001
1000
0010
0100
0001
0010
0100
1000
0100
0000
0100
0000
0010
0000
0010
0000
,
0001
0000
0001
0000
1000
0000
1000
0004
4000
0000
0000
0000
0000
0000
0000
0000
,
0000
0000
0000
0000
0000
0000
3003
0000
1000
0000
0001
0000
0100
0001
0100
0000
,
0010
0000
1000
0000
0001
0010
0001
0000
1000
0000
0001
0000
0010
0001
0010
0000
,
0100
0000
1000
0000
0001
0100
0001
0000
1000
0000
0010
0000
0100
0010
0100
0000
,
0001
0000
1000
0000
0001
0010
0001
0000
1000
0000
0100
0000
0010
0100
0010
0000
,
0001
0000
1000
0000
0001
1000
0001
0000
0100
0000
0010
0000
1000
0010
1000
0000
,
0001
0000
1000
0000
0001
0100
0001
0000
0010
0000
0100
0000
1000
0001
1000
0000
,
0100
0000
0010
0000
0001
0010
0001
0000
1000
0000
0010
0000
0100
0010
0100
0000
,
0001
0000
1000
0000
0010
1000
0010
0000
0100
0001
0100
0001
1000
0010
0100
0001
,
0100
0001
1000
0010
0100
0001
0100
0001
1000
0000
0001
0000
1000
0100
1000
0000
,
0001
0000
0010
0000
0001
1000
0001
0000
1000
0000
0010
0000
0100
0001
0100
0000
,
0001
0000
0010
0000
0100
0010
0100
0000
0010
0000
0001
0000
1000
0010
1000
0000
,
0001
0000
1000
0000
0001
0010
0001
0000
1000
0000
0010
0000
0100
0001
0100
0000
,
0001
0000
0010
0000
0100
1000
0100
0000
0010
0000
0100
0000
1000
0001
1000
0000
,
0001
0000
0100
0000
0010
1000
0010
0000
0100
0000
0001
0000
1000
0100
1000
0000
,
0001
0000
0010
0000
0100
0010
0100
0000
1000
0100
1000
0100
0010
0001
0010
0001
,
1000
0010
1000
0010
0100
0001
0100
0001
4000
0004
0000
0000
0000
0000
0000
0000
,
0000
0000
0000
0000
0000
0000
3003
0000
0100
0001
0100
0010
1000
0001
0010
0001
,
1000
0100
0010
0001
0010
0100
1000
0001
0100
0010
1000
0001
0100
0010
1000
0010
,
1000
0100
0010
0001
0010
0100
0010
0001
1000
0000
0010
0000
1000
0001
1000
0000
,
0001
0000
0010
0000
0100
1000
0100
0000
1000
0000
0010
0000
0100
0010
0100
0000
,
0001
0000
1000
0000
0100
1000
0100
0000
0010
0001
1000
0010
1000
0001
0010
0100
,
1000
0100
0010
0100
1000
0001
0100
0001
1000
0010
0100
0001
0010
0001
0010
0100
,
1000
0001
0010
0001
1000
0010
0100
0001
1000
0001
0100
0010
1000
0100
0010
0001
,
0010
0100
0010
0100
1000
0001
0100
0010
1000
0001
1000
0001
0100
0010
1000
0001
,
1000
0001
0100
0010
1000
0001
1000
0100
0010
0000
0001
0000
1000
0010
1000
0000
,
0001
0000
0010
0000
0100
1000
0100
0000
0010
0000
0001
0000
1000
0010
1000
0000
,
0001
0000
0100
0000
0001
1000
0001
0000
1000
0000
0100
0000
0010
0001
0010
0000
,
0100
0000
1000
0000
0001
0100
0001
0000
1000
0000
0010
0000
0100
0010
0100
0000
,
0001
0000
1000
0000
0001
0010
0001
0000
1000
0000
0100
0000
0010
0001
0010
0000
,
0100
0000
1000
0000
0001
1000
0001
0000
0100
0000
0010
0000
1000
0010
1000
0000
,
0001
0000
0010
0000
0100
0010
0100
0000
0010
0001
0010
0001
1000
0100
1000
0100
,
0010
0001
0010
0001
1000
0100
1000
0100
0010
0001
0010
0001
1000
0010
1000
0001
,
0100
0001
1000
0100
0010
0001
1000
0000
2020
0000
3030
0000
2002
0000
3003
0000
,
0022
0033
2200
3300
2002
3003
0220
0330
,
2020
3030
2002
3003
1001
0010
0000
0101
,
1000
0000
0000
0000
0011
0000
0100
0000
1000
0000
0001
0000
1000
0010
1000
0000
,
0001
1000
0001
1000
0010
0100
0010
0100
0002
0000
0000
0000
1000
0000
0000
0000
,
1000
1000
0203
0010
,
0310
1000
0001
0010
0001
1000
0100
1000
0010
0000
0100
0000
0001
1000
0001
0000
,
0100
0000
0001
0000
1000
0100
1000
0000
0001
0000
0010
0000
0100
1000
0100
0000
,
1000
0000
0001
1000
0040
0000
0000
0030
2002
0000
3003
0000
0022
0000
0033
0000
,
2200
3300
0220
0330
2002
3003
0022
0033
,
2200
3300
2002
3003
1010
0100
0000
1001
,
0010
0000
0101
1000
1000
0001
0001
0100
,
0010
1000
0001
0000
1001
0000
1100
0000
,
0110
0000
0011
0000
1001
1001
1001
1001
,
1001
0000
1001
0000
1001
0000
1001
0000
0001
0100
0010
1000
0100
1000
0100
0010
,
0001
1000
0001
0010
0001
1000
0001
0000
0204
0000
0000
0000
0000
0000
0000
0000
,
0000
0000
0000
0000
0000
0000
0303
0000
1000
0000
0100
0000
0010
0001
0010
0000
,
0001
0000
1000
0000
0010
0100
0010
0000
0100
0000
0001
0000
1000
0100
1000
0000
,
0001
0000
0010
0000
0001
1000
0001
0000
0100
0000
0010
0000
1000
0010
1000
0000
,
0001
0000
0100
0000
0010
0100
0010
0000
1000
0000
0100
0000
0010
0001
0010
0000
,
0001
0100
0001
0100
0010
1000
0010
1000
0001
0000
1000
0000
0100
1000
0100
0000
,
0010
0000
0001
0000
1000
0001
1000
0000
0001
0000
0010
0000
0100
1000
0100
0000
,
0010
0000
0001
0000
1000
0001
1000
0000
0001
0000
0100
0000
0010
0100
0010
0000
,
1000
0000
0001
0000
1000
0100
1000
0000
0001
0100
0001
0100
0010
1000
0010
1000
,
0001
0010
0001
0010
0100
0000
0100
0000
1100
0000
0100
0000
0010
0001
0010
0000
,
0001
0000
1000
0000
0010
1000
0001
0000
1000
0000
2000
0000
3001
0000
1000
0000
,
2000
0000
3002
0000
1003
0000
0100
0000
0010
0000
0001
0000
1000
0001
1000
0000
,
0010
0000
1000
0000
0100
1000
0100
0000
0010
0000
0001
0000
1000
0100
1000
0000
,
0001
0000
0010
0000
0100
1000
0100
0000
1000
0000
0001
0000
0010
0100
1000
0000
,
0001
0000
0100
0000
0010
1000
0001
0000
1000
0000
0100
0000
0010
0001
1000
0000
,
0010
0000
0100
0000
0001
1000
0010
0000
1000
0010
1000
0010
0100
0001
0100
0001
,
1000
0100
1000
0100
0010
0001
0010
0001
1000
0100
1000
0100
0010
0001
0010
0001
,
1000
0010
1000
0010
0100
0001
0100
0001
1000
0000
0001
0010
0001
0000
1000
0010
,
1000
0000
0010
0000
0100
0000
0001
0000
1000
0000
0001
0010
0001
0000
1000
0100
,
1000
0100
0010
0001
2000
0010
0010
3010
,
0010
0100
0001
1000
2002
3003
2020
3030
,
1001
0000
0110
0000
4004
0000
3003
0000
1000
0000
0001
0010
0001
0000
1000
0000
,
0010
0000
0100
0000
0010
0000
1000
0001
1000
0000
0100
0000
0010
0000
0001
0000
,
1000
0000
0010
0000
0100
0000
0001
0000
1000
0001
1000
0001
1000
0000
0001
0000
,
0010
0000
0100
0000
1000
0000
0100
0000
1000
0001
1000
0001
0100
0000
0010
0000
,
0100
0001
0100
0001
1000
0000
0001
0000
1000
0000
0100
0000
0010
0000
0001
0000
,
2000
0000
3020
0230
0000
0302
2003
3200
,
0320
0000
0000
0000
0032
0000
0000
0000
1003
0010
0100
0001
1000
0001
0010
0100
,
1000
0001
0010
0100
1000
0010
1000
0001
0100
0010
0100
0010
1000
0001
0100
0010
,
1000
0001
0010
0100
1000
0001
0010
0001
1001
0000
0004
0003
0400
0300
0040
0030
,
4000
3000
0004
0003
0000
0000
4000
3000
0000
0000
0004
0003
0040
0030
0004
0003
,
4000
3000
0004
0003
0400
0300
0040
0030
1010
0000
1001
0000
0004
0003
4000
3000
,
0000
0000
0004
0003
0000
0000
0400
0300
0040
0030
4000
3000
0004
0003
0040
0030
,
0200
0300
2000
3000
2002
0000
3003
0000
4001
0000
0000
0000
0001
0000
0000
0000
,
0001
0001
0001
0001
,
0001
0001
0001
0001
,
0001
0001
0001
0001
,
3001
0000
0001
1000
0020
0000
0000
0000
0130
0000
0100
0000
0001
0000
1000
0000
,
0010
1000
1000
0001
0010
0010
0100
1000
,
0100
0010
0100
1000
0001
0001
0100
0001
,
1000
0001
0001
0100
0010
0010
1000
0010
,
0100
0000
0010
0000
1000
0100
0010
0001
1000
0000
1000
0000
0001
0000
1000
0000
,
0010
1000
1000
0100
0010
0010
0001
0010
,
0100
0010
0001
1000
0010
0010
0100
0010
,
1000
0010
0010
0100
0010
0010
1000
0001
,
1000
0000
0000
0000
0000
0000
0001
0000
0000
0000
0000
0000
0100
0000
0000
0010
0000
0000
1000
0000
0000
0001
0000
0000
0010
0000
0000
0000
0001
0000
0000
0000
1000
0000
0000
0000
0001
0000
0000
0000
0100
0000
0000
0000
0010
0000
0000
0000
,
1000
0001
1000
0100
1000
0100
0010
0001
0010
0001
1000
0010
,
0100
0001
0100
0010
1000
0001
1000
0001
1000
0100
0010
0001
,
1000
0010
0100
0010
0100
0001
1000
0100
0010
0001
1000
0100
,
0010
0000
0000
0001
0000
0000
0010
0000
0000
0001
0000
0000
1000
0000
0000
0010
0000
0000
1000
0000
0000
0010
0000
0000
0100
0000
0000
0000
0001
0000
0000
0000
1000
0000
0000
0000
0010
0000
0000
0000
0100
0000
0000
0000
0010
0000
0000
0000
,
1000
0001
0010
0001
1000
0100
0010
0001
0010
0100
1000
0001
,
0100
0010
0100
0001
1000
0100
0010
0001
0100
0010
1000
0001
,
1000
0001
0010
0100
1000
0001
0100
0010
1000
0010
1000
0001
,
0010
0001
0010
0001
1000
0100
1000
0100
0010
0000
0000
0000
0001
0000
1001
0000
,
0000
0000
0001
0000
0101
0000
0000
0000
0001
0100
0001
0100
0010
1000
0010
1000
,
0001
0010
0100
0010
0001
1000
0010
0100
0002
0000
0000
0000
4003
0000
0000
0000
,
0200
0000
3000
0320
0000
0000
0032
0000
0000
4003
0000
0000
0000
0000
0000
0000
0000
0000
0000
0000
0000
3000
0000
0000
,
0000
0001
0200
0000
0320
0000
2030
0000
3002
0000
0000
0000
0043
0000
0000
0000
,
0000
0130
1000
0004
0003
0200
0300
0004
,
0000
0000
0000
0003
2000
3200
0320
0230
,
2300
3002
0203
0320
0230
0302
2003
3400
,
0000
0000
0000
0000
0000
0000
0000
0000
0000
0300
0000
0000
0010
0000
0001
0000
1000
0000
0001
0000
0100
0000
0010
0000
,
1000
0001
1000
0100
0010
0001
1000
0010
0100
0001
1000
0001
,
0100
0001
1000
0100
2000
0000
0000
0000
3002
0000
0103
0010
0100
0010
2000
0000
,
3001
0010
0001
0010
0200
0000
1300
0001
1000
0001
0100
0010
2000
0000
3200
0000
,
0310
0001
0010
0001
1000
0001
1000
0001
0100
0010
1000
0010
0200
0000
0301
1000
,
0001
1000
0100
0010
0002
0000
1003
0100
1000
0010
0100
0010
1000
0001
1000
0100
,
0010
0000
0001
0000
1000
0000
0010
0000
0200
0000
0301
1000
0001
1000
0100
0010
,
0001
1000
0100
0010
0001
1000
0010
0100
0001
1000
0001
1000
0100
0010
0001
1000
,
0010
0100
0001
0400
0000
0000
0301
1000
0100
1000
0001
0010
,
0001
0000
0000
0000
1000
0000
0000
0000
0010
0000
0000
0000
1000
0000
0000
0000
0001
0000
0000
0000
0100
0000
0000
0000
0001
0000
0000
1000
0000
0000
0001
0000
0000
1000
0000
0000
0200
0000
0000
0000
0000
0000
0310
0000
0000
0000
0000
0000
,
0001
1000
0001
1000
0020
0000
0130
0000
0002
0000
0000
0000
0000
0000
2003
0000
,
0000
0000
3200
0000
0320
0032
0000
2003
,
0000
3002
0000
0000
0403
0000
0000
0320
,
2030
0000
3002
2003
3001
0400
0000
0000
,
0000
0000
0000
0300
0020
0000
2030
3200
,
0000
0000
0320
0000
0032
2003
0000
3002
,
0000
0000
0000
0000
0203
0000
0000
0000
0310
1000
0001
1000
0100
0010
0001
1000
,
0010
0100
0010
1000
0100
0010
0100
1000
0001
0100
0001
0100
0010
1000
0010
1000
,
0001
0010
0001
0010
0100
1000
0100
1000
0001
0100
0010
0100
0001
1000
0100
1000
,
0001
0100
0010
0100
0001
1000
0100
1000
0002
0000
0000
0000
0400
0000
0000
0000
,
0000
0000
0000
0000
0000
0000
0303
0000
0010
0100
0010
0100
0020
0000
0000
0000
,
1030
0001
1000
0001
0100
0010
0100
0010
1000
0100
1000
0100
0010
0001
1000
0100
,
1000
0100
0010
0001
1000
0100
1000
0000
2002
0000
3003
0000
0000
0000
0000
0000
,
0000
0000
0000
0000
,
0000
0000
0000
0000
0000
0000
0000
0000
1000
0001
0010
0001
1000
0100
1000
0001
,
0100
0001
1000
0010
1000
0001
0010
0001
1000
0100
1000
0001
0100
0001
1000
0010
,
1000
0000
0000
0001
0000
0000
0100
0000
0000
0001
0000
0000
2001
0000
0000
0000
0000
0000
3200
0000
0000
0300
0000
0000
0011
0000
0000
0000
0001
0000
0000
0000
1000
0000
0000
0000
0010
0000
0000
0000
1000
0000
0000
0000
0001
0000
0000
0000
,
0100
0000
0001
0000
1000
0000
0100
0000
1000
0000
0001
0000
0010
0000
0000
0001
1000
0000
0010
1000
0000
0010
0100
0000
,
0001
0000
0100
0000
0000
0000
0001
0000
1000
0000
0000
0000
0100
0000
2000
0000
0000
0000
0002
0000
3003
0000
0000
0000
2002
0000
3000
0003
0000
0000
0000
0000
0000
0000
0000
0000
0000
0000
0000
0000
0000
0000
0000
0000
0000
0000
0000
0000
,
0001
0100
0010
1000
0100
1000
0001
0010
0001
0100
0010
1000
0001
0010
0001
0100
,
0010
1000
0010
0100
0001
1000
0100
0010
0002
0000
2003
0000
3020
0000
0230
0000
,
0000
0302
2003
3200
0320
0032
2003
3002
,
0203
0320
0230
0302
2003
3200
0320
0032
,
2003
3020
0230
0302
0000
0000
0000
0000
,
0000
0000
0000
0000
0203
0320
2030
3200
,
0000
0320
0032
2003
3020
0230
0302
2003
,
3200
0000
0320
0000
0032
0023
0230
0320
,
0000
0000
0032
0000
0203
0000
0320
0000
1030
0100
1000
0001
0100
0010
0100
0001
,
1000
0100
0010
0001
1000
0010
0100
0001
2000
0000
0000
0000
0001
0000
3001
0000
,
0002
0000
0000
0023
0000
0000
0230
0000
0000
1300
0000
0001
0000
1000
0000
0100
0000
0010
0000
0001
0000
1000
0000
0000
,
1MM1
0000
0000
0000
0002
0000
0000
1003
0100
1000
0001
0100
0020
0000
0000
0130
,
0001
1000
0100
1000
0200
0000
0000
0310
0001
1000
0001
0100
0020
0000
0000
1030
,
0001
1000
0100
0010
0002
0000
0000
0103
0010
1000
0001
1000
0200
0000
0000
1300
,
0001
0000
0000
0010
0000
0000
0100
0000
0000
1000
0000
0000
0002
0000
0000
0000
0000
0000
0000
0000
0203
0000
0000
0000
0000
0000
0000
0000
0320
0000
0000
0000
0000
0000
0000
0000
4030
0000
0000
0000
0000
0000
0000
0000
0000
0000
0000
0000
,
0000
0000
0000
0000
3002
0000
2003
0000
3001
0100
0001
0100
0010
1000
0001
1000
,
0100
0010
0001
1000
0002
0000
0203
0000
0310
1000
0010
1000
0001
0010
0001
1000
,
0100
1000
0001
0100
0002
0000
0000
0000
1000
0000
1003
0000
2000
0000
3200
0000
,
0320
0230
2300
3002
0203
0320
0000
0230
,
0000
0000
0000
0000
0301
0100
0001
0100
0020
0000
2030
0000
3001
0010
0001
1000
,
0010
0100
0001
1000
0200
0000
0000
0000
0320
0000
0000
0031
1000
0001
0100
0010
,
4000
0000
3001
0001
1000
1000
0002
0000
,
1003
0000
0000
0100
0000
0000
0010
0001
0000
0000
1000
0100
0000
0000
0010
0001
0000
0000
4000
0000
0000
0000
0000
0000
,
0000
0000
0000
0000
3001
0100
0001
0100
0010
1000
0010
1000
0001
0100
0001
0100
,
0010
1000
0010
1000
0001
0010
0100
1000
0001
1000
0010
0100
0001
0010
0100
1000
,
0100
0000
0000
0010
0000
0000
0001
0000
0000
1000
0000
0000
0200
0000
0000
0000
0000
0000
0000
0000
0000
0000
0000
0000
1000
0000
0000
0000
0000
0000
1000
0000
0000
0000
0000
0000
2300
0000
0000
0000
0000
0000
0000
0000
0002
3000
0000
0000
,
0000
0000
0203
0000
0000
0000
0320
0000
0000
0000
0000
0000
0130
0000
0000
0004
0000
0000
0000
0000
0000
0000
0000
0000
,
0000
0000
0003
0000
4000
0004
0000
0000
0000
0000
0000
0000
0000
0000
0000
0000
,
0000
0000
0000
0000
,
0000
0000
3003
0000
0100
0001
0100
0000
0001
1000
0001
0000
2000
0000
3200
0000
,
0310
0001
1000
0001
0100
0010
0100
0000
0001
0100
0001
0000
2000
0000
3200
0000
,
0310
0001
1000
0001
1000
0010
1000
0010
0100
0001
0100
0001
2000
0000
3002
0000
,
0203
0000
0000
0000
0000
0000
0320
0000
0000
0000
0000
0000
2030
0000
0000
0000
0000
0000
0000
0000
3000
0200
0000
0000
0000
0000
0000
0000
0000
0000
0320
0000
0000
0000
0000
0000
0032
0000
0000
0000
0000
0000
0000
0000
0000
0203
0000
0000
,
0000
0000
0320
0000
1030
0100
1000
0000
0001
0100
0001
0000
0200
0000
0320
0000
,
1030
0001
1000
0100
0010
0001
0010
0001
2000
0000
0000
0000
3010
1000
0010
1000
,
0002
0000
0000
0000
1003
0100
1000
0100
0010
0001
0010
0001
1000
0010
1000
0010
,
0100
0001
0100
0001
1000
0100
0010
0001
1000
0001
0100
0010
1000
0100
0010
0001
,
1000
0010
0100
0001
2000
0000
3020
0000
0230
0000
0302
0000
1003
0100
0010
0001
,
2000
0000
3020
0000
0130
0001
0100
0001
2000
0000
3200
0000
0310
0001
0010
0001
,
0200
0000
0000
0302
0000
0000
1003
0000
0100
0000
0010
0000
0001
0000
0010
0000
0100
0000
1000
0000
0010
0000
0100
0000
,
0001
0000
0000
0000
0100
0000
0000
0000
0010
0000
0000
0000
1000
0000
0000
0001
0000
0000
0100
0000
0000
0010
0000
0000
1000
0000
0000
0001
0000
0000
0100
0000
0000
0010
0000
0000
0100
0000
0000
0001
0000
0000
1000
0000
0000
0100
0000
0000
,
0010
0001
0010
0100
0010
0001
0010
0000
0100
1000
0100
0000
1100
0000
1001
0000
,
0101
0000
0101
0000
0100
0010
1000
0001
1000
0100
1000
0100
0010
0001
1000
0001
,
0100
0010
1000
0001
1001
0000
2000
0000
3002
0000
0203
0000
0320
0000
2030
0000
,
3200
0000
0320
0000
0031
0100
0001
0100
0010
1000
0001
0100
0002
0000
0000
0000
,
2003
0000
3002
0000
0000
0000
0000
0103
,
0010
0000
1000
0000
0001
0000
4000
0000
0000
0000
0000
0000
0000
0000
0000
3000
0000
0000
0002
0000
0000
0000
0023
0000
,
0000
0230
0000
2300
0000
3020
0000
0230
0000
0302
0000
2003
,
0000
0000
0000
0000
3002
0000
0000
0000
0000
0000
0000
0000
4003
0000
0000
0000
0000
0000
0000
0000
0000
0000
0000
0000
0000
0000
0000
0000
0000
0000
3001
0000
0000
0100
0000
0000
0040
0000
0000
0000
0000
0000
0000
0000
0000
0000
0000
0000
,
0000
0000
0000
0030
0000
0000
0000
0000
0200
0000
0000
0000
0302
0000
0000
0000
,
2003
0000
0000
3002
0000
0023
0000
0230
0000
4300
0000
0000
,
3004
0000
0000
0000
0103
0010
1000
0001
2000
0000
3200
0000
0320
0000
0032
0000
,
4003
0000
0000
0000
3001
0010
0001
0010
0100
1000
0100
1000
0001
0100
0001
0100
,
0010
1000
0010
1000
0001
0100
0010
1000
0200
0000
0320
0000
0032
0000
2003
0000
,
3002
0203
0320
2030
3002
2003
3200
0320
,
0230
0000
0000
0000
2300
0000
3020
0000
0230
0000
0302
0000
1003
0010
0100
0001
,
1000
0010
0100
0001
1000
0100
0010
0001
1000
0100
0010
0001
2000
0000
3002
0000
,
0203
0000
0000
0000
0310
1000
0010
0100
0001
1000
0001
1000
0100
0010
0001
1000
,
0002
0000
4003
0000
3001
0100
0010
1000
0100
0010
0001
1000
0001
0100
0010
0100
,
0002
0000
0000
0043
0000
0000
0130
0000
1000
0000
0100
0000
0010
0000
0001
0000
0010
0000
0001
0000
1000
0000
0001
0000
,
0100
0000
0010
0000
0100
0000
0002
0000
0000
2003
0000
0000
3200
0000
0000
0320
0000
0000
0032
0000
0000
2003
0000
0000
,
3020
0000
0000
0000
0130
0001
1000
0100
1000
0010
0100
0010
1000
0001
0010
0100
,
1000
0100
0010
0001
1000
0010
0100
0001
0100
0001
0100
0001
0100
0001
0100
0001
,
2000
0000
3001
0001
0100
0100
0010
0010
,
1000
0000
1000
0000
0001
0100
0001
0100
0010
1000
0010
1000
0001
0010
0001
0010
,
0100
1000
0100
1000
0002
0203
0320
2030
3002
0203
0302
2003
3200
0320
0032
2003
,
3020
0230
0302
2003
3200
0320
0032
0203
0302
2003
3020
0230
0320
0230
0302
2003
,
3200
0320
0032
2003
3002
0203
0320
2030
3002
0203
0320
0230
0302
2003
3200
2300
,
3002
0023
0032
2003
3020
0230
0302
2003
3200
0320
0032
2003
3002
0203
0320
2030
,
3002
0000
0000
0023
0000
0000
0032
0000
0000
0003
0000
0000
2M01
0000
0000
0000
0000
0000
0000
0000
0000
0000
000M
0000
3200
0000
0000
0300
0000
0000
0000
0000
0000
0000
0000
0000
M000
0000
0000
0000
0000
0000
0000
0000
00M0
0000
0000
0000
,
0200
0000
0000
0300
0000
0000
0000
0000
0M00
0000
0000
0000
0000
0000
0000
0000
000M
0000
0000
0000
0000
0000
0000
0000
0200
0000
0000
0300
M000
0000
0000
0000
0000
0000
0000
0000
0000
0000
0000
0000
0000
0000
0000
0000
00M0
0000
0000
0000
,
0200
0000
0000
0300
0000
0000
0000
0000
000M
0000
0000
0000
0M00
0000
0000
0000
0000
0000
0000
0000
0000
0000
0000
0000
0200
0000
0000
0300
M000
0000
0000
0000
0000
0000
0000
0000
00M0
0000
0000
0000
000M
0000
0000
0000
0000
0000
0000
0000
,
020M
0000
0000
0300
M000
0000
0000
0000
0000
0000
0000
0000
0100
0000
0000
1000
0000
0000
0100
0000
0000
1000
0000
0000
0001
0000
0000
0010
0000
0000
0100
0000
0000
1000
0000
0000
0100
0000
0000
1000
0000
0000
0001
0000
0000
0010
0000
0000
,
0100
1000
0001
0100
0010
1000
0010
1000
0001
0100
0001
0100
0010
1000
0010
1000
,
0001
0100
0001
0100
0010
0000
1000
0000
0100
1000
0100
0000
1000
0000
0001
0000
,
0100
0010
0100
0000
0010
0000
1000
0000
0001
0010
0001
0000
1000
0000
0100
0000
,
1000
0001
1000
0000
0010
0000
0100
0000
0001
0100
0001
0000
1000
0000
0010
0000
,
0100
0010
0100
0000
0001
0000
0010
0000
0100
1000
0100
0000
1000
0010
1000
0010
,
0100
0001
0100
0001
1000
0000
0001
0000
0010
0001
0010
0000
0100
0000
1000
0000
,
0001
1000
0001
0000
1000
0000
0100
0000
0010
0001
0010
0000
0100
0000
1000
0000
,
0001
1000
0001
0000
1000
0010
1000
0010
0100
0001
0100
0001
1000
0100
1000
0100
,
0010
0001
1000
0001
0100
0010
1000
0001
1000
0001
0100
0010
0100
0010
1000
0001
,
2000
0000
0000
0000
3001
0000
1000
0000
0100
1000
0100
0000
0010
0000
0001
0000
,
1000
0001
1000
0000
0010
0000
0100
0000
0001
0100
0001
0000
1000
0000
0001
0000
,
0010
0100
0010
0000
0001
0000
1000
0000
0010
1000
0010
0000
0100
0000
0001
0000
,
1000
0100
1000
0000
0001
0000
0100
0000
0010
0100
0010
0000
1000
0000
0100
0000
,
0010
0001
0010
0000
0100
0000
1000
0000
0001
0100
0010
0000
1000
0000
0001
0000
,
1000
0100
0010
0000
0001
0000
1000
0000
0010
0100
0001
0000
1000
0000
0100
0000
,
0010
0100
1000
0000
0001
0000
0100
0000
0010
1000
0001
0000
0100
0000
0001
0000
,
0010
0100
1000
0000
0001
0100
0010
1000
0001
0100
0010
1000
0001
0100
0010
1000
,
0001
0100
0010
1000
0002
0000
1003
0100
1000
0001
0200
0000
0310
1000
0001
0100
,
0002
0000
1003
0100
0020
0000
0031
1000
0001
0100
0002
0000
0103
0010
1000
0100
,
0020
0000
0031
1000
0010
0100
0010
0100
0001
1000
0001
1000
0010
0100
0010
0100
,
0001
0000
0000
1000
0000
0000
0001
0000
0000
1000
0000
0000
0010
0000
M000
0000
0000
0000
0000
0000
0M00
0000
0000
0000
0000
0000
000M
0000
0000
0000
0000
0000
00M0
0000
0000
0000
1000
0000
0000
0100
0000
0000
1000
0000
0000
0100
0000
0000
,
0010
0001
0010
0001
1000
0010
0100
0001
1000
0001
1000
0100
1000
0001
1000
0001
,
0100
0010
1000
0001
1000
0001
0100
0010
1000
0001
1000
0001
0100
0000
0100
0000
,
0100
0100
0100
0100
0100
0100
0001
0001
,
0001
0001
0001
0001
0001
0001
0101
0100
,
0010
0000
1010
0000
0000
1000
0000
1001
,
0000
1000
1100
0000
0110
0000
0001
1001
,
0000
0000
0001
0100
0010
0000
0000
0000
0000
0000
0100
0000
0100
0000
0110
0000
,
0000
0010
1010
0000
1001
0000
1001
0001
,
0100
0000
0101
0000
0000
0001
0000
1001
,
0000
1000
1100
0000
0110
0000
0001
0011
,
0000
0000
0001
1000
0100
0000
0000
0000
0000
0000
0000
0000
1000
0000
0110
0000
,
0000
0110
2002
3003
2002
0000
3003
0110
,
0000
0110
2002
3003
2002
0000
3003
0110
,
0000
0110
2002
3003
2002
3003
1001
0000
,
0001
1000
0001
1000
0100
0010
0001
0010
0100
1000
0001
0000
1001
0000
0400
0000
,
0000
0000
0000
0000
0300
0000
1000
0001
1000
0100
0040
0000
0000
0000
0000
0000
,
0030
0000
0000
0000
0000
0000
0001
0000
0000
0000
0001
0000
0000
0000
0100
0000
0010
0000
1000
0000
0001
1000
0001
0000
0200
0000
0000
0000
0000
0000
0000
0000
,
0000
0000
0000
0000
0000
0000
0000
0000
0000
0000
0310
0100
0002
0000
0000
0000
,
0000
0000
0000
0000
2003
0000
3000
0200
0000
0000
0320
0030
2002
0000
3003
0000
,
2002
0000
3003
0000
1001
2002
0000
0000
0000
0000
0000
0000
0000
0000
0000
0000
,
0000
0000
0000
0000
3223
0000
0000
0000
0000
0330
0000
0000
0000
0000
0000
0000
;
