#TITLE:Kill Theme for American Apeshit;
#SUBTITLE:;
#ARTIST:Agoraphobic Nosebleed;
#TITLETRANSLIT:;
#SUBTITLETRANSLIT:;
#ARTISTTRANSLIT:;
#CREDIT:Arch0wl;
#BANNER:killthemeforamericanapeshit-bn.png;
#BACKGROUND:killthemeforamericanapeshit-bg.png;
#LYRICSPATH:;
#CDTITLE:!arch0wltitle.png;
#MUSIC:killthemeforamericanapeshit.ogg;
#OFFSET:-0.190;
#SAMPLESTART:6.500;
#SAMPLELENGTH:20.600;
#SELECTABLE:YES;
#BPMS:0.000=302.000,193.000=322.000;
#STOPS:;
#BGCHANGES:0.000=killthemeforamericanapeshit-bg.png=1.000=0=0=1,
99999=-nosongbg-=1.000=0=0=0 // don't automatically add -songbackground-
;
// cache tags:
#FIRSTBEAT:0.000;
#LASTBEAT:320.000;
#SONGFILENAME:Songs/Archmage and Dark0wl Hammer of Thor UltraHyperMegaPack/Kill Theme for American Apeshit/killthemeforamericanapeshit.sm;
#HASMUSIC:1;
#HASBANNER:1;
#MUSICLENGTH:105.000;
// end cache tags

//---------------dance-single - Arch0wl----------------
#NOTES:
     dance-single:
     Arch0wl:
     Challenge:
     17:
     1.000,1.000,0.638,0.638,1.000,685.000,67.000,67.000,0.000,0.000:
0010
0100
0010
0001
0100
0001
0010
0100
0010
0001
0100
0001
,
0010
0100
0010
0001
0100
0001
0010
0100
0010
0001
0100
0001
,
1000
0100
1000
0010
0100
0010
1000
0100
1000
0010
0100
0010
,
1000
0000
0001
0000
1000
0000
0100
0000
0000
0100
0000
0000
0010
0000
0000
0010
0000
0000
0001
0000
0000
0001
0000
0000
,
1000
0000
0000
0000
,
0000
0000
0000
0000
,
0001
0010
0100
0000
1000
0000
0001
0000
1000
0000
0100
0000
0010
0000
0001
0000
1000
0000
0100
0000
1000
0000
0100
0000
,
0010
0001
0010
0100
1000
0100
1000
0100
1000
0001
0010
0001
,
0100
0000
0010
1000
0010
0000
1000
0100
1000
0000
0001
0010
0001
0000
0100
0010
,
0100
0000
0001
0100
0001
0000
0010
0100
0010
0000
0100
1000
0100
0000
1000
0010
,
1000
0100
1000
0001
0100
0001
0010
0100
0010
0001
1000
0001
,
0100
0010
0100
0001
1000
0010
0000
1000
0001
1000
0010
0100
,
0001
0000
1000
0010
0100
0000
0001
0010
0100
0000
1000
0001
0100
0000
0010
1000
,
0001
0000
0100
0010
1000
0000
0100
0010
0001
0000
1000
0100
0010
0000
0001
1000
,
0100
0010
0001
1000
0001
1000
0001
0000
0100
0010
0100
0010
,
1000
0001
0100
0010
0100
0010
1000
0001
1000
0100
0010
0100
,
1001
0100
0010
0100
0010
0100
0010
0100
,
1010
0100
0001
0100
0001
0100
0001
0100
,
0011
0100
1000
0100
1010
0100
0001
0100
,
0010
0000
1000
0000
0010
0000
0100
0000
0001
0000
0100
0000
0010
0000
0000
0010
0000
0000
0010
0000
0000
0010
0000
0000
,
0101
0010
1000
0010
1000
0010
1000
0010
,
1001
0100
0010
0100
0010
0100
0010
0100
,
0001
0000
0100
0000
0001
0000
0100
0000
0000
0100
0000
0000
0010
0000
0000
0010
0000
0000
0000
0000
0000
0000
0000
0000
,
1000
0000
0000
0000
0010
0000
0000
0000
1000
0000
0000
0000
0100
0000
0000
0000
0000
0000
0100
0000
0000
0000
0000
0000
0100
0000
0000
0000
0000
0000
0100
0000
0000
0000
0000
0000
1000
0000
0000
0010
0000
0000
0100
0000
0000
0000
0000
0000
,
1001
0100
0010
0100
0010
0100
0010
0100
,
0011
1000
0001
1000
0001
1000
0001
1000
,
0110
0000
0001
0000
1000
0000
0001
0000
1100
0000
0010
0000
0001
0010
0100
0000
,
1000
0000
0100
0010
0001
0000
1000
0000
0100
0010
0001
0000
0100
0000
0000
0100
0000
0000
0100
0000
0000
0100
0000
0000
,
1010
0100
0001
0100
0001
0100
0001
0100
,
1010
0001
1000
0001
1000
0001
1000
0001
,
0110
1000
0001
0010
0001
0010
0100
1000
0100
0010
0001
0010
,
0001
0000
1000
0010
0100
0010
1000
0000
1000
0001
0000
0001
,
1000
0100
1000
0001
0100
0001
1000
0100
1000
0001
0100
0001
,
0010
0000
0100
0000
0010
0000
0100
0000
0000
0100
0000
0000
1000
0000
0000
1000
0000
0000
0100
0000
0000
0100
0000
0000
,
1000
0010
1000
0001
0010
0001
1000
0010
1000
0001
0010
0001
,
1000
0010
1000
0001
0010
0001
1000
0010
1000
0001
0010
0001
,
1000
0100
1000
0010
0100
0010
1000
0100
1000
0010
0100
0010
,
1000
0100
1000
0010
0100
0010
1000
0100
1000
0010
0100
0010
,
1000
0001
1000
0001
0100
0010
0000
0000
1000
0001
0100
0010
,
1000
0000
0000
0001
1000
0001
0000
0000
1000
0001
0000
0000
,
1000
0010
1000
0001
0100
0001
1000
0010
1000
0001
0100
0001
,
0010
0000
0100
0000
0010
0000
0001
0000
0000
0001
0000
0000
0100
0000
0000
0100
0000
0000
0010
0000
0000
0010
0000
0000
,
0100
0001
0100
0010
1000
0010
0100
0001
0100
0010
1000
0010
,
0100
0001
0100
0010
1000
0010
0100
0001
0100
0010
1000
0010
,
1000
0100
1000
0001
0010
0001
1000
0100
1000
0001
0010
0001
,
1000
0100
1000
0001
0010
0001
1000
0100
1000
0001
0010
0001
,
0100
0010
0100
0010
1000
0100
0000
0000
0010
0100
1000
0100
,
0010
0000
0000
0010
0100
0010
0000
0000
0010
0100
0000
0000
,
0000
0000
2002
3003
1002
0003
1002
0003
,
2002
3003
0220
0330
0012
0003
2010
3000
,
0220
0330
1200
0300
1200
0300
1200
0300
,
0110
0000
0001
0000
1000
0000
0220
0000
0000
0330
0000
0000
2020
0000
0000
3030
0000
0000
2020
0000
0000
0000
0000
0000
,
3030
0000
2020
3030
2020
3030
1020
0030
,
2020
3030
0220
0330
0102
0003
2001
3000
,
0220
0330
1020
0030
0102
0003
0012
0003
,
2200
3300
2100
3100
0020
0130
2000
0100
,
0000
3001
2002
3003
2001
3000
2001
3000
,
2002
3003
0220
0330
2100
3000
0102
0003
,
0210
0300
0021
0030
0021
0030
0021
0030
,
0110
0000
1000
0000
0001
0000
0220
0000
0000
0330
0000
0000
0202
0000
0000
0303
0000
0000
0202
0000
0000
0000
0000
0000
,
0303
0000
0000
0000
0000
0000
2001
0000
3010
0000
0100
0000
2001
0000
0000
3001
0000
0000
1001
0000
0000
0000
0000
0000
,
2001
3000
0102
0003
0110
0000
1010
0000
,
0102
0003
0011
0010
0100
0100
0000
1000
,
1000
0000
1000
0000
1000
0100
0010
0000
0001
0000
0001
0010
0100
0000
0010
0000
,
0010
0010
0001
0100
0010
0100
0010
0100
,
0010
0100
0001
1000
0010
1000
0010
1000
,
0010
1000
0100
0010
0100
0010
0100
0010
,
0100
0000
1000
0000
0100
0000
0010
0000
0000
0010
0000
0000
0001
0000
0000
0001
0000
0000
0010
0000
0000
0010
0000
0000
,
0000
0000
0001
0100
0001
0100
0001
0100
,
0001
0100
0010
0010
1000
0100
1000
0100
,
1000
0000
0000
0000
0100
0000
0000
0000
1000
0001
0100
0000
0000
0000
0001
0000
0100
0000
0000
0000
0001
0000
0000
0000
0001
0000
0000
0000
0001
0000
0000
0000
,
0010
0010
0100
0100
0100
0010
0000
0100
,
0100
0100
1000
0000
1000
0000
1000
1000
,
0000
0000
0000
1000
0000
0000
0000
0000
0000
1000
0000
0000
0001
0000
0000
0001
0000
0000
0001
0000
0010
0000
0001
0000
,
0010
0001
0001
1000
1000
0010
1000
1000
,
0100
0000
0000
0100
0000
0000
0100
0000
0010
0000
0100
0000
1000
0000
0001
0000
0010
0000
0001
0000
0010
0000
0100
0000
,
1000
0000
0100
0000
0010
0000
0100
0000
0000
1000
0000
0000
0010
0000
0000
1000
0000
0000
0010
0000
0000
1000
0000
0000
,
0010
1000
0100
0010
0001
0010
0001
0010
,
0001
0010
0100
1000
0010
1000
0010
1000
,
0010
0000
0000
1000
0000
0000
0100
0000
0010
0000
0001
0000
0000
0001
0000
0000
0001
0000
1001
0000
0000
0000
0000
0000
,
1001
0000
0000
0000
;

//---------------dance-single - Arch0wl----------------
#NOTES:
     dance-single:
     Arch0wl:
     Hard:
     13:
     0.808,0.648,0.524,0.000,0.000,539.000,55.000,0.000,0.000,0.000:
0010
0001
1000
0001
0010
0001
1000
0001
,
0010
0001
1000
0001
0010
0001
1000
0001
,
0100
0010
1000
0010
0100
0010
1000
0010
,
0100
0100
0001
0001
1000
1000
0100
0100
,
0010
0000
0000
0000
,
0000
0000
0000
0000
,
1000
1000
0001
1000
0001
0100
0010
0100
,
0001
0001
0010
0100
1000
0100
0010
0001
,
0100
0100
0010
0010
1000
1000
0001
0001
,
0100
0100
0001
0001
0010
0010
0100
0100
,
1000
0100
0001
0100
1000
0100
0001
0100
,
1000
0010
0001
0010
1000
0010
0001
0010
,
0100
0001
0010
0100
1000
0010
0100
0001
,
0010
0100
1000
0010
0100
0001
0010
0100
,
0100
0010
0001
0001
0001
0000
0100
0100
,
0001
1000
0010
0010
1000
1000
0100
0100
,
1000
0100
0010
0100
0010
0100
0010
0100
,
1000
0100
0001
0100
0001
0100
0001
0100
,
0010
0100
1000
0100
0010
0100
1000
0100
,
0010
0010
0001
0001
0100
0100
0100
0100
,
0001
0010
1000
0010
1000
0010
1000
0010
,
0001
0100
0010
0100
0010
0100
0010
0100
,
0001
0001
0100
0100
0010
0010
0000
0000
,
1000
1000
0100
0100
0100
0100
0010
0100
,
1000
0100
0010
0100
0010
0100
0010
0100
,
1000
0001
0010
0001
0010
0001
0010
0001
,
1000
0010
0100
0010
1000
0100
0010
0100
,
1000
0001
1000
0001
0100
0100
0100
0100
,
0010
0100
0001
0100
0001
0100
0001
0100
,
0010
1000
0100
1000
0100
1000
0100
1000
,
0010
1000
0010
0010
0100
0100
0001
0001
,
1000
0000
0010
0010
1000
1000
0100
0100
,
0010
0010
0001
0001
0010
0010
0001
0001
,
0010
0010
0100
0100
1000
1000
0100
0100
,
1000
1000
0001
0001
1000
1000
0001
0001
,
1000
1000
0001
0001
1000
1000
0001
0001
,
1000
1000
0010
0010
1000
1000
0010
0010
,
1000
1000
0010
0010
1000
1000
0010
0010
,
1000
1000
0001
0001
0000
0001
0001
1000
,
1000
0000
0001
1000
0000
1000
0001
0000
,
1000
1000
0001
0001
1000
1000
0001
0001
,
0010
0010
0001
0001
0100
0100
0010
0010
,
0100
0100
0001
0001
0100
0100
0001
0001
,
0100
0100
0001
0001
0100
0100
0001
0001
,
1000
1000
0001
0001
1000
1000
0001
0001
,
1000
1000
0001
0001
1000
1000
0001
0001
,
0100
0100
0010
0010
0000
0000
1000
1000
,
0100
0000
0100
0100
0000
0100
0100
0000
,
0000
1001
1001
1001
,
1001
0110
0011
1010
,
0110
1100
1100
1100
,
0110
0110
1010
1010
,
0000
1010
1010
1010
,
1010
0110
0101
1001
,
0110
1010
0101
0011
,
1100
1100
0000
0011
,
0000
1001
1001
1001
,
1001
0110
1100
0101
,
0110
0011
0011
0011
,
0110
0110
0101
0101
,
0000
1001
1001
1001
,
1001
0101
0110
1010
,
0101
0000
0011
0010
0100
0100
0000
1000
,
1000
1000
1000
0100
0010
0001
0100
0010
,
0010
0010
1000
0100
0010
0100
0010
0100
,
0010
0100
1000
0001
0010
0001
0010
0001
,
0010
0001
0100
0010
0100
0010
0100
0010
,
0100
0100
0010
0010
1000
1000
0010
0010
,
0000
0000
1000
0100
1000
0100
1000
0100
,
1000
0100
0010
0010
0001
0100
0001
0100
,
0001
0100
0001
0000
0100
0001
0001
0001
,
0010
0010
0100
0100
0100
0010
0000
0100
,
0100
0100
1000
0000
1000
0000
1000
1000
,
0000
1000
0000
1000
0001
0001
0001
0010
,
0010
0001
0001
1000
1000
0010
1000
1000
,
0100
0100
0100
0100
1000
0001
0001
1000
,
1000
0100
0100
1000
0010
1000
0010
1000
,
0010
1000
0100
0010
0001
0010
0001
0010
,
0001
0010
0100
1000
0010
1000
0010
1000
,
0010
1000
0100
0000
0000
1000
1001
0000
,
1001
0000
0000
0000
;
