#TITLE:SMB2-Overworld;
#SUBTITLE:;
#ARTIST:from Super Mario Allstars;
#TITLETRANSLIT:;
#SUBTITLETRANSLIT:;
#ARTISTTRANSLIT:;
#CREDIT:;
#BANNER:SMB2-Overworld-logo.png;
#BACKGROUND:SMB2-Overworld.png;
#LYRICSPATH:;
#CDTITLE:;
#MUSIC:SMB2-Overworld.mp3;
#OFFSET:-3.631;
#SAMPLESTART:37.906;
#SAMPLELENGTH:11.920;
#SELECTABLE:YES;
#BPMS:0.000=175.700;
#STOPS:;
#BGCHANGES:;
// cache tags:
#FIRSTBEAT:0.000;
#LASTBEAT:256.000;
#SONGFILENAME:Songs/newbie/SMB2-Overworld/SMB2-Overworld.sm;
#HASMUSIC:1;
#HASBANNER:1;
#MUSICLENGTH:95.981;
// end cache tags

//---------------dance-single - ----------------
#NOTES:
     dance-single:
     :
     Easy:
     3:
     0.271,0.298,0.104,0.135,0.010,159.000,10.000,13.000,0.000,0.000:
1000
0000
0000
0000
,
0100
0000
0000
0000
,
0010
0000
0000
0000
,
0001
0000
0000
0000
,
0010
0000
0100
0000
,
1000
0000
0010
0000
,
2002
0000
0000
0000
,
0000
0000
3003
0000
,
0000
1000
0000
0010
,
0000
0100
0000
0001
,
0000
1000
0010
0100
,
0001
1000
0010
0100
,
0001
0000
0010
0000
,
0100
0000
1000
0000
,
0010
0100
0001
0010
,
0100
1000
0010
0100
,
0000
0001
0000
0010
,
0000
0001
0000
0100
,
1000
0010
0100
0001
,
1000
0010
0100
0010
,
1000
0000
0001
0000
,
0100
0000
0010
0000
,
1001
0000
0000
0000
0000
0000
0000
0000
0000
0000
0000
0011
,
0000
0000
0000
0000
0000
1100
0000
0000
0000
0000
0000
0000
,
1000
0001
1000
0001
,
1000
0001
1000
0001
,
1000
0001
1000
0001
,
1000
0000
0110
0000
,
0010
0100
0010
0100
,
0010
0100
0010
0100
,
0010
0000
1000
0000
,
0100
0000
0001
0000
,
2000
0000
0000
3000
,
0200
0000
0000
0300
,
0020
0000
0000
0030
,
0002
0000
0000
0003
,
0020
0030
0200
0300
,
2000
3000
0002
0000
,
0000
0000
0000
0000
,
0000
0003
1001
0000
,
0010
1000
0010
1000
,
0010
0100
0001
0100
,
0010
1000
0010
1000
,
0010
0100
0001
0100
,
0010
1000
0010
1000
,
0010
0100
0001
0100
,
0010
1000
0010
1000
,
0010
0100
0001
0100
,
0010
0100
0001
0100
,
0010
1000
0100
0010
,
0001
0100
0001
0100
,
0010
1000
0100
0010
,
0001
0100
0001
0100
,
0010
1000
0100
0010
,
0001
0000
0001
0000
,
1000
0000
1000
0000
,
0002
0000
0000
0000
,
0010
0000
0100
0000
,
2003
0000
0000
0000
,
0010
0000
0100
0000
,
3002
0000
0000
0000
,
1000
0000
0103
0000
,
1010
0000
0101
0000
,
0011
0000
1100
0000
;

//---------------dance-single - ----------------
#NOTES:
     dance-single:
     :
     Medium:
     6:
     0.420,0.600,0.281,0.135,0.224,242.000,27.000,13.000,0.000,0.000:
1000
0001
1000
0001
,
0100
0010
0100
0010
,
1000
0001
1000
0001
,
0010
0100
0010
0100
,
2100
3010
2100
3001
,
2100
3010
2100
3001
,
0001
0010
0100
1000
,
0220
0000
0000
0330
,
0000
0000
1000
0000
0000
0000
0001
0000
0000
1000
0000
0100
,
0000
0000
0001
0010
,
0100
1000
1000
1000
,
1000
0002
0000
0003
,
1000
0010
1000
0010
,
0100
0001
0100
0001
,
0010
0001
0010
0001
,
1000
0100
1000
0100
,
0000
0000
0001
0000
0000
0000
0010
0000
0000
1000
0000
0100
,
0000
0000
0010
0100
,
0010
0100
0001
0100
,
1000
0010
0001
0100
,
1000
0000
0010
0000
,
0100
0000
0001
0000
,
1000
0000
1000
0001
,
1000
0000
0000
0000
0000
0110
0000
0000
0000
0000
0000
0000
,
0001
0000
0000
0010
0000
0000
0100
0000
0010
0100
0000
0000
,
1000
0000
0000
0010
0000
0000
0100
0000
0010
0100
0000
0000
,
0001
0000
0000
0010
0000
0000
0100
0000
0010
0100
0000
0000
,
1000
0000
0000
0010
0000
0000
0100
0000
0010
0100
0000
0000
,
0000
0000
0000
0001
0000
0000
1000
0000
0000
0001
0000
1000
,
0001
0010
0100
1000
,
0011
0000
1100
0000
,
0110
0000
0011
0000
,
1000
0000
0010
0100
0000
0001
0000
0000
0000
1000
0000
0000
,
0001
0000
0010
0001
0000
0010
0000
0000
0000
1000
0000
0000
,
0001
0000
0010
0100
0000
1000
0000
0000
0000
0001
0000
0000
,
1000
0000
0010
1000
0000
0010
0000
0000
0000
1000
0000
0000
,
0001
0010
0100
0010
,
1000
0010
0001
0010
,
2002
0000
0000
0000
,
0000
0000
3003
0000
,
0000
1000
0010
0100
,
0001
1000
0010
0000
,
0100
0000
0001
0100
0000
0000
0100
0000
0001
0100
0000
0000
,
0010
1000
0100
0001
,
0012
1003
0012
0103
,
0012
1003
0012
0103
,
1001
0000
0010
0010
,
0100
0100
1000
1000
,
0000
0001
0010
0100
,
1000
0000
0001
0010
,
1000
0000
0001
1000
0000
0000
1000
0000
0001
1000
0000
0000
,
0000
0010
0001
0100
,
1100
0000
0011
0000
,
0101
0000
1010
0000
,
0110
0000
0000
0000
0000
0000
0001
0000
0010
0100
0000
1000
,
0000
0000
0000
0000
0000
0011
0000
0000
0000
0000
0000
0000
,
1000
0000
0100
1000
0000
0100
1000
0000
0100
0000
0000
0000
,
0010
0000
0100
0010
0000
0100
0010
0000
0100
0000
0000
0000
,
0100
0000
0001
0100
0000
0001
0100
0000
0001
0000
0000
0000
,
0001
0000
1000
0001
0000
1000
0001
0000
1000
0000
0000
0000
,
0010
0000
1000
0010
0000
1000
0010
0000
1000
0000
0000
0000
,
0001
0000
0010
0001
0000
0010
0001
0000
0010
0000
0000
0000
,
1000
1100
0100
0110
,
0010
0011
0001
0101
,
1001
0000
0000
0000
;

//---------------dance-single - ----------------
#NOTES:
     dance-single:
     :
     Hard:
     9:
     0.537,0.600,0.146,0.073,0.761,340.000,14.000,7.000,0.000,0.000:
1000
0000
0010
0100
0000
0010
0000
0000
0000
1000
0000
0000
,
0001
0000
1000
0100
0000
1000
0000
0000
0000
0001
0000
0000
,
0010
0000
0100
1000
0000
0100
0000
0000
0000
0010
0000
0000
,
0001
0000
0010
0100
0000
1000
0000
0000
0000
0010
0000
0000
,
1000
0000
0010
1000
0000
0001
1000
0000
0100
1000
0000
0010
,
1000
0000
0001
1000
0000
0100
1000
0000
0010
1000
0000
0000
,
0001
0000
0010
0100
0000
1000
0000
0000
0001
0010
0000
0200
,
0000
0001
0310
0000
,
1000
0000
0000
0010
0000
0000
1001
0000
1001
0000
0000
0000
,
0001
0000
0000
0010
0000
0000
1001
0000
1001
0000
0000
0000
,
1000
0000
0000
0100
0000
0000
0011
0000
0011
0000
0000
0000
,
0010
0000
0000
0100
0000
0000
1100
0000
1100
0000
0000
0000
,
0010
0000
0100
0010
0000
0100
0010
0000
0100
0010
0000
0100
,
0001
0000
1000
0001
0000
1000
0001
0000
1000
0001
0000
0200
,
0000
0320
0000
0000
,
0000
0100
1000
0130
,
0001
0010
0010
1000
,
0001
0100
0100
1000
,
0001
0010
0010
1000
,
0001
0100
0100
1000
,
0010
0000
1000
0001
0000
0100
0001
0000
0010
0001
0000
1000
,
0001
0000
0100
0001
0000
0010
0001
0000
1000
0001
0000
0010
,
0000
0000
0000
0000
0000
0000
1000
0000
0000
0100
0000
0011
,
0000
0000
0000
0000
0000
1100
0000
0000
0000
0000
0000
0000
,
0001
0000
0000
0010
0000
0000
0100
1000
0100
1000
0000
0000
,
0010
0000
0000
0100
0000
0000
0001
0010
0001
0010
0000
0000
,
0100
0000
0000
0010
0000
0000
0100
0010
0100
0010
0000
0000
,
1000
0000
0000
0100
0000
0000
0010
1000
0010
1000
0000
0000
,
0010
0000
0000
0001
0000
0000
1000
0001
1000
0001
0000
0000
,
0010
0000
0000
0100
0000
0000
1000
0001
1000
0001
0000
0000
,
0010
0010
0001
0001
,
0100
0100
1000
1000
,
0011
0000
1000
0100
0000
0010
0000
0000
0001
1000
0000
0000
,
0001
0100
0001
0100
0000
0002
0000
0000
0000
1003
0000
0000
,
1010
0000
0100
0010
0000
0001
0000
0000
1000
0001
0000
0000
,
1000
0100
1000
0100
0000
2000
0000
0000
0000
3001
0000
0000
,
0001
0000
0010
0100
0000
1000
0000
0000
0000
0001
0000
0000
,
1000
0000
0010
0100
0000
0001
0000
0000
0000
1000
0000
0000
,
0001
0000
0010
0100
0000
1000
0000
0000
0100
1000
0000
0200
,
0000
1000
0301
0000
,
0000
0000
1000
0000
0000
0000
0010
0000
0000
0001
0000
1000
,
0000
0000
0000
0000
0000
0000
0001
0000
1000
0001
0000
0001
,
1000
0000
1000
0010
0000
0010
0100
0000
0001
0000
0000
1000
,
0000
0000
0000
0001
1000
0001
1000
0001
1000
0001
0000
0000
,
1000
0000
0100
0010
0000
0010
0001
0000
0001
0000
0000
1000
,
0000
0000
0001
0010
0000
0010
0100
0000
0100
1000
0000
0001
,
0000
0000
0000
1000
0100
1000
0100
1000
0100
1000
0000
0000
,
0000
0000
0001
0000
0100
0000
1000
0000
0100
0000
0001
0000
,
0000
0000
1000
0000
0000
0000
0001
0000
0000
0100
0000
0010
,
0000
0000
0000
0000
0000
0000
1000
0000
0001
0100
0000
0010
,
1000
0000
0100
0010
0000
0001
0100
0000
0001
0000
0000
1000
,
0000
0000
0000
0001
0010
0001
0010
0001
0010
0001
0000
0000
,
1000
0000
0100
1000
0000
0100
1000
0000
0100
0000
0000
0010
,
0000
0000
0001
0010
0000
0001
0010
0000
0001
0010
0000
0100
,
0000
0000
0000
0000
0000
0001
0010
0000
0100
1000
0000
0001
,
0000
0000
0000
0000
0000
1100
0000
0000
0000
0000
0000
1000
,
0000
0000
0001
0010
0000
0010
0100
0000
0100
1000
0000
0001
,
0000
1000
0010
0100
,
0010
1000
0010
1000
0000
0001
0100
0000
0010
1000
0000
0002
,
0000
0000
0000
0000
0000
1003
0100
0000
0000
0010
0000
0000
,
0000
0000
0001
0000
0000
0000
0100
0000
0000
1000
0000
0001
,
0000
1000
0001
0100
,
0001
0100
0001
0100
0000
0000
1000
0100
1000
0100
0000
0000
,
0001
0010
0001
0010
0000
0000
0010
1000
0010
1000
0000
0000
,
1001
0000
0000
0000
;
